#VERSION:0.83;
#TITLE:positive 3rd (LV mix);
#SUBTITLE:;
#ARTIST:cranky;
#TITLETRANSLIT:;
#SUBTITLETRANSLIT:;
#ARTISTTRANSLIT:;
#GENRE:;
#CREDIT:;
#MUSIC:positive 3rd (LV mix).ogg;
#BANNER:positive 3rd (LV mix).png;
#BACKGROUND:positive 3rd (LV mix)-bg.png;
#JACKET:positive 3rd (LV mix)-jacket.png;
#DISCIMAGE:;
#CDIMAGE:;
#SELECTABLE:YES;
#LYRICSPATH:;
#CDTITLE:;
#SAMPLESTART:95.575;
#SAMPLELENGTH:11.637;
#OFFSET:-1.03;
#BPMS:0.000000=165.000000;
#STOPS:;
#WARPS:;
#DELAYS:;
#SPEEDS:0.000000=1.000000=0.000000=0;
#SCROLLS:0.000000=1.000000;
#TICKCOUNTS:;
#TIMESIGNATURES:0.000000=4=4;
#LABELS:;
#COMBOS:;
#FAKES:;
#BGCHANGES:;
#FGCHANGES:;
#ATTACKS:;
#KEYSOUNDS:;

//---------------dance-single - ---------------
#NOTEDATA:;
#CHARTNAME:;
#CHARTSTYLE:;
#CREDIT:;
#STEPSTYPE:dance-single;
#DESCRIPTION:;
#DIFFICULTY:Beginner;
#METER:5;
#METERF:5;
#RADARVALUES:0,0,0,0,0;
#NOTES:
// measure 0
0000
0000
0000
0000
,  // measure 1
2002
0000
0000
0000
,  // measure 2
0000
0000
3003
0000
,  // measure 3
0220
0000
0330
0000
,  // measure 4
2002
0000
3003
0000
,  // measure 5
0220
0000
0000
0000
,  // measure 6
0000
0000
0330
0000
,  // measure 7
1001
0000
0110
0000
,  // measure 8
1001
1001
1001
1001
,  // measure 9
1001
0000
1000
0000
,  // measure 10
0001
0000
0100
0000
,  // measure 11
0110
0000
1001
0000
,  // measure 12
0110
0000
1001
0000
,  // measure 13
1000
0000
0001
0000
,  // measure 14
0010
0000
0100
0000
,  // measure 15
1001
0000
0110
0000
,  // measure 16
1001
1001
1001
1001
,  // measure 17
1001
0000
0000
0000
,  // measure 18
0001
0000
0000
0000
,  // measure 19
0010
0000
0000
0000
,  // measure 20
0001
0000
0000
0000
,  // measure 21
1000
1000
1000
0000
,  // measure 22
0001
0001
0001
0000
,  // measure 23
0010
0010
0010
0000
,  // measure 24
0200
0000
0300
0000
,  // measure 25
1000
1000
1000
0000
,  // measure 26
0001
0001
0001
0000
,  // measure 27
0100
0100
0100
0000
,  // measure 28
0010
0010
0010
0010
,  // measure 29
0010
0000
0001
0000
,  // measure 30
1000
0000
0100
0000
,  // measure 31
0010
0010
0010
0000
,  // measure 32
0001
0001
0001
0000
,  // measure 33
1000
0000
0010
0000
,  // measure 34
0100
0000
0010
0000
,  // measure 35
1000
1000
1000
0000
,  // measure 36
0001
0001
0001
0000
,  // measure 37
1000
1000
1000
0000
,  // measure 38
0100
0100
0100
0000
,  // measure 39
0001
0001
0001
0000
,  // measure 40
0100
0100
0100
0000
,  // measure 41
1000
1000
1000
0000
,  // measure 42
0010
0010
0010
0000
,  // measure 43
0001
0001
0001
0000
,  // measure 44
0010
0010
0010
0000
,  // measure 45
2000
0000
3000
0000
,  // measure 46
0002
0000
0003
0000
,  // measure 47
0020
0000
0030
0000
,  // measure 48
0002
0000
0003
0000
,  // measure 49
2000
0000
3000
0000
,  // measure 50
0200
0000
0300
0000
,  // measure 51
2000
0000
3000
0000
,  // measure 52
1001
1001
1001
1001
,  // measure 53
1001
0000
1000
0000
,  // measure 54
0001
0000
0010
0000
,  // measure 55
0100
0000
0010
0000
,  // measure 56
0001
0000
1000
0000
,  // measure 57
0010
0000
0100
0000
,  // measure 58
0010
0000
1000
0000
,  // measure 59
0001
0000
0010
0000
,  // measure 60
0100
0000
0010
0000
,  // measure 61
1001
0000
0000
0000
,  // measure 62
0110
0000
0000
0000
,  // measure 63
1001
1001
1001
1001
,  // measure 64
2002
0000
3003
0000
,  // measure 65
1000
0000
0010
0000
,  // measure 66
0100
0000
0010
0000
,  // measure 67
1000
1000
1000
0000
,  // measure 68
0001
0001
0001
0000
,  // measure 69
0001
0000
0010
0000
,  // measure 70
0100
0000
0010
0000
,  // measure 71
0001
0001
0001
0000
,  // measure 72
1000
1000
1000
0000
,  // measure 73
0010
0010
0010
0000
,  // measure 74
0110
0110
0110
0000
,  // measure 75
0100
0100
0100
0000
,  // measure 76
0110
0110
0110
0000
,  // measure 77
0001
0001
0001
0000
,  // measure 78
1001
1001
1001
0000
,  // measure 79
1000
1000
1000
0000
,  // measure 80
1001
1001
1001
0000
,  // measure 81
0110
0000
0000
0000
;

//---------------dance-single - ---------------
#NOTEDATA:;
#CHARTNAME:;
#CHARTSTYLE:;
#CREDIT:;
#STEPSTYPE:dance-single;
#DESCRIPTION:;
#DIFFICULTY:Easy;
#METER:8;
#METERF:8;
#RADARVALUES:0,0,0,0,0;
#NOTES:
// measure 0
0000
0000
0000
0000
,  // measure 1
2002
0000
0003
0000
,  // measure 2
0020
0000
3030
0000
,  // measure 3
0220
0000
0330
0000
,  // measure 4
2020
0000
3030
0000
,  // measure 5
2200
0000
3300
0000
,  // measure 6
1000
0000
0001
0000
,  // measure 7
1001
0000
0110
0000
,  // measure 8
1001
1001
0110
0110
,  // measure 9
1001
1000
0010
0100
,  // measure 10
0010
1000
0001
0010
,  // measure 11
0110
0010
0011
0001
,  // measure 12
0101
0100
0110
0010
,  // measure 13
1000
0001
0010
0100
,  // measure 14
1000
0010
0100
1000
,  // measure 15
1100
0100
0101
0001
,  // measure 16
0011
1100
1010
0101
,  // measure 17
2002
0000
0000
0000
,  // measure 18
0000
0000
0000
0003
,  // measure 19
0020
0000
0000
3000
,  // measure 20
0200
0000
0000
0030
,  // measure 21
0301
0001
1000
0010
,  // measure 22
0100
0100
0001
0010
,  // measure 23
0110
0100
2000
0002
,  // measure 24
0000
0000
0000
3003
,  // measure 25
1001
1000
0010
0100
,  // measure 26
0001
0010
0100
1000
,  // measure 27
1001
1000
0010
0100
,  // measure 28
1000
0100
0001
0010
,  // measure 29
0100
1000
0020
0030
,  // measure 30
0100
0001
0010
0100
,  // measure 31
1100
1010
0101
0011
,  // measure 32
0001
0010
0100
0010
,  // measure 33
0001
1000
0020
0030
,  // measure 34
1000
0010
0100
0001
,  // measure 35
0011
0110
1100
1001
,  // measure 36
1000
0010
0110
1010
,  // measure 37
1001
1001
0101
1001
,  // measure 38
0001
0010
0100
0010
,  // measure 39
0011
1001
1010
0110
,  // measure 40
0100
0010
1000
0010
,  // measure 41
1010
0110
0011
0110
,  // measure 42
1000
0010
0001
0010
,  // measure 43
0110
1010
0011
0110
,  // measure 44
0001
0010
1000
0010
,  // measure 45
0002
0000
1003
0000
,  // measure 46
2000
0000
3001
0000
,  // measure 47
0020
0000
0130
0000
,  // measure 48
0200
0000
0301
0000
,  // measure 49
0002
0000
1003
0000
,  // measure 50
2000
0000
3010
0000
,  // measure 51
0020
0000
0031
0000
,  // measure 52
0011
1010
1001
0110
,  // measure 53
1001
1000
0010
0100
,  // measure 54
0001
0010
1000
0010
,  // measure 55
0100
1000
0010
0100
,  // measure 56
0001
0010
1000
0010
,  // measure 57
0001
0100
0010
1000
,  // measure 58
0100
0001
1000
0001
,  // measure 59
0100
1000
0010
0100
,  // measure 60
0001
0010
0100
0010
,  // measure 61
0011
0000
0000
0000
,  // measure 62
1100
0000
0000
0000
,  // measure 63
1001
0110
1001
0110
,  // measure 64
2000
0001
3002
1000
,  // measure 65
1003
0010
0220
0330
,  // measure 66
0010
1000
0001
0010
,  // measure 67
0011
0110
1100
0110
,  // measure 68
0001
0010
0100
1000
,  // measure 69
1000
0010
0220
0330
,  // measure 70
0100
0001
0010
0100
,  // measure 71
1100
0011
1010
0101
,  // measure 72
0001
0010
0100
0010
,  // measure 73
0011
0110
1100
0110
,  // measure 74
0001
1000
0010
0100
,  // measure 75
0101
0110
1010
0110
,  // measure 76
0001
0010
0100
1000
,  // measure 77
1100
0110
0011
0110
,  // measure 78
0001
0010
0100
1000
,  // measure 79
1100
0110
0011
0110
,  // measure 80
1000
0010
0100
0001
,  // measure 81
1001
0000
0000
0000
;

//---------------dance-single - ---------------
#NOTEDATA:;
#CHARTNAME:;
#CHARTSTYLE:;
#CREDIT:;
#STEPSTYPE:dance-single;
#DESCRIPTION:;
#DIFFICULTY:Medium;
#METER:13;
#METERF:13;
#RADARVALUES:0,0,0,0,0;
#NOTES:
// measure 0
0000
0000
0000
0000
,  // measure 1
2001
0000
0000
0002
0000
0000
3003
0000
,  // measure 2
0001
1000
0010
0100
,  // measure 3
0102
0000
0000
0200
0000
0000
0303
0000
,  // measure 4
2010
0000
0000
0020
0000
0000
3030
0000
,  // measure 5
2001
0000
0000
0002
0000
0000
3003
1000
,  // measure 6
0010
0000
0000
0000
0001
0000
0000
0010
,  // measure 7
0110
0000
0000
0100
0101
0000
0000
0001
,  // measure 8
1001
1010
0110
0101
,  // measure 9
1001
1000
0010
0100
,  // measure 10
1000
0000
0100
0000
0001
0000
1000
0100
,  // measure 11
1100
0000
1000
0001
1001
0000
0001
1000
,  // measure 12
1010
0000
1000
0010
0110
0000
0100
0001
,  // measure 13
0101
0001
0010
0100
,  // measure 14
1000
0000
0010
0000
0100
0000
0001
1000
,  // measure 15
1001
0000
1000
0010
0110
0000
0100
0001
,  // measure 16
0101
0011
0110
1100
,  // measure 17
2001
0000
0001
0000
,  // measure 18
3002
0000
1000
0000
,  // measure 19
0023
0000
0100
0000
,  // measure 20
0032
0000
0100
0000
,  // measure 21
0013
0010
0100
1000
,  // measure 22
0010
0010
0100
0001
,  // measure 23
1001
0000
0001
0000
1000
0000
0200
2000
,  // measure 24
0000
0000
0000
3300
,  // measure 25
0110
0010
0001
0010
,  // measure 26
0100
1000
0010
0100
,  // measure 27
0110
0100
0001
0010
,  // measure 28
0001
0010
0001
0000
0011
0000
1100
0000
,  // measure 29
1001
0000
1000
0000
0020
0000
0030
0100
,  // measure 30
0010
1000
0001
0100
,  // measure 31
0110
1010
0011
1010
,  // measure 32
0001
0010
0110
1100
,  // measure 33
0001
0000
0100
0000
0220
0000
0330
0100
,  // measure 34
0010
1000
0001
0010
,  // measure 35
0110
1100
1001
0101
,  // measure 36
0001
0000
0010
0000
0100
0010
0100
0010
,  // measure 37
0001
0000
0010
0000
0100
1000
0010
0000
,  // measure 38
0100
0101
0001
1001
,  // measure 39
1000
0000
0010
0000
0100
0001
0010
0000
,  // measure 40
0100
1100
1000
1001
,  // measure 41
0001
0000
0010
0000
0100
1000
0010
0000
,  // measure 42
0100
0101
0001
1001
,  // measure 43
1000
0000
0100
0000
0001
0100
1000
0000
,  // measure 44
0001
0101
0100
0110
,  // measure 45
0020
1000
2030
0001
,  // measure 46
3002
0100
0203
1000
,  // measure 47
2300
0100
3200
0001
,  // measure 48
0302
0010
0023
0100
,  // measure 49
0230
1000
2300
0010
,  // measure 50
3020
0100
0230
0001
,  // measure 51
0302
1000
2003
3001
,  // measure 52
1001
0110
1001
0110
,  // measure 53
0001
0000
0010
0000
0100
0010
0001
0000
,  // measure 54
1000
0000
0010
0000
0100
0010
1000
0000
,  // measure 55
0001
0000
0010
0000
0100
1000
0001
0000
,  // measure 56
0100
0000
0010
0000
1000
0010
0100
0000
,  // measure 57
0001
0000
1000
0000
0100
0010
0001
0000
,  // measure 58
0100
0000
0010
0000
0001
0010
0100
0000
,  // measure 59
0001
0000
0010
0000
0100
0010
0001
0000
,  // measure 60
1000
1000
0001
0001
0100
0010
1000
0010
,  // measure 61
0110
0000
0000
0000
0000
0000
0000
0100
,  // measure 62
0101
0000
0000
0000
0000
0000
0000
0001
,  // measure 63
1001
1000
1100
0000
1100
1000
1010
0000
,  // measure 64
1000
0010
0100
0010
1000
0001
0010
0001
,  // measure 65
1000
0000
0000
1000
0000
0000
1000
0000
0020
0000
0000
0000
0030
0000
0100
0000
,  // measure 66
0020
0000
2030
0000
3001
0010
0100
0010
,  // measure 67
0001
1000
0010
0000
0100
0010
1000
0000
,  // measure 68
0001
1000
0010
1000
0002
0003
0202
0303
,  // measure 69
0001
0000
0000
0001
0000
0000
0001
0000
0020
0000
0000
0000
0130
0000
0010
0000
,  // measure 70
0002
0000
2003
0000
3010
0100
0001
1000
,  // measure 71
0100
1000
0010
0000
0100
0001
0010
0000
,  // measure 72
0001
0100
0010
0100
0001
0000
0101
0000
,  // measure 73
0001
1000
0010
0000
1000
0001
0010
0000
,  // measure 74
0001
0010
0100
0010
0001
0000
0011
0000
,  // measure 75
0001
0100
0010
0000
1000
0100
0010
0000
,  // measure 76
0001
0100
1000
0100
0001
0000
0101
0000
,  // measure 77
1000
0100
0010
0000
0001
0100
0010
0000
,  // measure 78
1000
0001
0010
0001
1000
0000
1100
0000
,  // measure 79
1000
0010
0100
0000
0001
0010
0100
0000
,  // measure 80
1000
0001
0010
0100
0010
0000
0011
0000
,  // measure 81
1100
0000
0000
0000
;

//---------------dance-single - ---------------
#NOTEDATA:;
#CHARTNAME:;
#CHARTSTYLE:;
#CREDIT:;
#STEPSTYPE:dance-single;
#DESCRIPTION:;
#DIFFICULTY:Hard;
#METER:17;
#METERF:17;
#RADARVALUES:0,0,0,0,0;
#NOTES:
// measure 0
0000
0000
0000
0000
,  // measure 1
2001
0000
0000
0001
0000
0000
0002
0000
0000
0000
0000
0000
3003
0000
0000
0000
,  // measure 2
1002
0000
0000
1000
0000
0000
2003
0000
0000
3020
0000
0000
0130
0000
0010
0000
,  // measure 3
0120
0000
0000
0100
0000
0000
0200
0000
0030
0000
0000
0000
0301
0000
0010
0000
,  // measure 4
0210
0000
0000
0010
0000
0000
0020
0000
0300
0000
0000
0000
0032
0000
0003
0000
,  // measure 5
1002
0000
0000
1000
0000
0000
2000
0000
0003
0000
0000
0000
3001
0000
1000
0000
,  // measure 6
0020
0000
0000
0130
0010
0000
0100
0000
0001
0000
1000
0000
0100
0000
0010
0000
,  // measure 7
0011
0010
0100
1000
1001
1000
0100
0010
,  // measure 8
0011
0010
1010
0010
0011
0010
0110
0010
,  // measure 9
0011
0000
0010
0001
1000
0000
1001
0000
0001
1000
0010
0000
1010
0000
0110
0000
,  // measure 10
0101
0000
0001
1000
0010
0000
1010
0000
1000
0001
0010
0000
0011
0000
0110
0000
,  // measure 11
1100
0000
0100
1000
0010
0000
1010
0000
1000
0010
0100
0000
0110
0000
0101
0000
,  // measure 12
0011
0000
0001
0010
0100
0000
1100
0000
1000
0001
0100
0000
0101
0000
1010
0000
,  // measure 13
1001
0000
1000
0001
0010
0000
0011
0000
0001
0010
0100
0000
0110
0000
1100
0000
,  // measure 14
1001
0000
1000
0010
0100
0000
0101
0000
0100
0001
0010
0000
0100
1000
0010
0100
,  // measure 15
0110
0100
0001
0010
0110
0010
0001
1000
,  // measure 16
1010
0110
0011
0110
1010
1001
1100
1010
,  // measure 17
2001
0001
0002
3000
,  // measure 18
1000
1000
2000
0003
,  // measure 19
0010
0010
0020
3000
,  // measure 20
0100
0100
0200
0030
,  // measure 21
0301
0000
0000
0001
0000
0000
0001
0000
0000
0001
0000
0000
0001
0000
1000
0000
,  // measure 22
0010
0000
0000
0010
0000
0000
0010
0000
0000
0100
0010
0000
1000
0000
0010
0000
,  // measure 23
0110
0000
0000
0100
0000
0000
0001
0000
0000
0001
0000
0000
2000
0000
0002
0000
,  // measure 24
0000
0000
0000
3003
,  // measure 25
0120
0030
0001
0020
0030
0100
0020
0030
,  // measure 26
0012
0003
1000
0002
0003
0100
0002
0003
,  // measure 27
2001
3000
0001
2000
3000
0010
2000
3000
,  // measure 28
0001
0010
0100
0010
0001
0100
0010
0100
0001
0010
0100
1000
0200
0000
1300
0000
,  // measure 29
1100
0000
1000
0100
0010
0000
0001
0000
0022
0000
0033
0000
0001
0000
0010
0000
,  // measure 30
0220
0330
2200
3300
1001
0001
0011
0010
,  // measure 31
0110
0000
0110
0000
0011
0000
0000
0001
0010
0100
0000
0110
0000
0000
0100
0000
,  // measure 32
1100
0000
1000
0000
0001
0010
0000
0100
0220
0000
0330
0000
0022
0000
0033
0000
,  // measure 33
1001
0000
0001
1000
0010
0000
0100
0000
0220
0000
0330
0000
0100
0000
0010
0000
,  // measure 34
2020
3030
0202
0303
1001
1000
1100
0100
,  // measure 35
0110
0000
0110
0000
1100
0000
0000
1000
0001
0100
0000
0101
0000
0000
0100
0000
,  // measure 36
0101
0000
0001
0000
1000
0100
0010
0001
0011
0000
0011
0000
0110
0000
0011
0000
,  // measure 37
1001
0000
1010
0000
0220
0330
0000
0100
0001
1000
0000
2200
3300
0000
0100
0000
,  // measure 38
1100
0000
1000
0000
0001
0010
0000
0100
0020
0000
0000
0000
0002
0000
0033
0000
,  // measure 39
0011
0000
0110
0000
2200
3300
0000
0100
1000
0001
0000
0202
0303
0000
0100
0000
,  // measure 40
0110
0000
0010
0000
1000
0010
0100
0010
1000
0000
1010
0000
0001
0000
0011
0000
,  // measure 41
1001
0000
1100
0000
0220
0330
0000
0100
1000
0010
0000
0220
0330
0000
0100
0000
,  // measure 42
0101
0000
0001
0000
1000
0001
0010
0001
2000
0000
0000
0000
0002
0000
3003
0000
,  // measure 43
1001
0000
1000
0000
2020
3030
0000
1000
0100
0010
0000
0022
0030
0000
0103
0000
,  // measure 44
0110
0000
0100
0000
0001
0010
0100
1000
0001
0000
0101
0000
1000
0000
1100
0000
,  // measure 45
0002
0100
0010
0103
,  // measure 46
2000
0100
0010
3100
,  // measure 47
0002
0100
1000
0103
,  // measure 48
2000
0100
0001
3100
,  // measure 49
0002
0010
1000
0013
,  // measure 50
2000
0010
0001
3010
,  // measure 51
0002
0100
1000
0103
,  // measure 52
1001
0000
0000
0000
1100
0000
0000
0000
0110
0000
0100
1000
0010
0000
0100
0000
,  // measure 53
0101
0000
0001
0100
0010
0000
1010
0000
1000
0010
0100
0000
0101
0000
0100
0000
,  // measure 54
0110
0000
0100
0010
1000
0000
1010
0000
1000
0001
0010
0000
0011
0000
0010
0000
,  // measure 55
0110
0000
0100
1000
0010
0000
0110
0000
0100
0001
1000
0000
1100
0000
1000
0000
,  // measure 56
1001
0000
0001
0100
0010
0000
1010
0000
1000
0010
0100
0000
0101
0000
0001
0000
,  // measure 57
1001
0000
1000
0001
0010
0000
0011
0000
0010
0001
1000
0000
1001
0000
1000
0000
,  // measure 58
1100
0000
1000
0001
0010
0000
0011
0000
0001
0100
0010
0000
1010
0000
0010
0000
,  // measure 59
0110
0000
0100
0001
1000
0000
1100
0000
1000
0001
0100
0000
0101
0000
0001
0000
,  // measure 60
1001
1100
0110
1100
1001
0101
0110
0101
,  // measure 61
2001
0000
0000
0000
0000
0000
3000
0100
,  // measure 62
2100
0000
0000
0000
0000
0000
3000
0100
,  // measure 63
1100
0000
1001
0000
0101
0000
0001
0100
0010
0100
0000
0100
0001
0000
0010
0000
,  // measure 64
0200
0000
0000
0000
2300
0000
0000
0000
3001
0100
0001
0100
0010
1000
0010
1000
,  // measure 65
0002
0000
0013
0100
0000
1000
0100
0000
0020
0000
0000
0000
0031
0000
0010
0000
,  // measure 66
0220
0330
2200
3300
1001
0001
0101
0100
,  // measure 67
0110
0000
1010
0000
1001
0000
1000
0100
0010
0200
0000
2300
0000
0000
3100
0000
,  // measure 68
1000
0000
0010
0000
0100
0010
1000
0010
0200
0000
0000
0000
0002
0000
0303
0000
,  // measure 69
1000
0000
0100
0010
0000
0100
0010
0000
0002
0000
0000
0000
1003
0000
0010
0000
,  // measure 70
0220
0330
0202
0303
1001
1000
1100
1000
,  // measure 71
1010
0000
0110
0000
0101
0000
0001
0100
0010
0200
0000
0302
0000
0000
0103
0000
,  // measure 72
0101
0000
0100
0000
0001
0100
0010
0100
0110
0000
0010
0000
1010
0000
1000
0000
,  // measure 73
1001
0000
1100
0000
1001
0000
1000
0001
0010
0002
0000
2003
0000
0000
3100
0000
,  // measure 74
1100
0000
1000
0000
0001
0100
0010
0100
0002
0000
0000
0000
2003
0000
3000
0000
,  // measure 75
1100
0000
0110
0000
1100
0000
1000
0001
0100
0002
0000
2003
0000
0000
3010
0000
,  // measure 76
1010
0000
0010
0000
1000
0001
0010
0001
0101
0000
0001
0000
0011
0000
0010
0000
,  // measure 77
0110
0000
1100
0000
0110
0000
0100
1000
0001
0200
0000
0320
0000
0000
1030
0000
,  // measure 78
1010
0000
1000
0000
0001
0010
0100
0010
0002
0000
0000
0000
2003
0000
3000
0000
,  // measure 79
1100
0000
0101
0000
1100
0000
0001
0100
1000
0200
0000
0302
0000
0000
1003
0000
,  // measure 80
1100
0000
0110
0000
0001
0100
0010
0100
0101
0000
0001
0000
0011
0000
0010
0000
,  // measure 81
0110
0000
0000
0000
;
