#TITLE:Zo Verliefd;
#SUBTITLE:;
#ARTIST:Laura Omloop;
#MUSIC:Zo Verliefd.ogg;
#BANNER:Zo Verliefd.png;
#BACKGROUND:Zo Verliefd-bg.png;
#LYRICSPATH:;
#CDTITLE:;
#SAMPLESTART:42.832;
#SAMPLELENGTH:17.778;
#OFFSET:-0.882;
#BPMS:0.000000=80.000000,
56.000000=108.000000,
136.000000=54.000000,
144.000000=108.000000
;
#STOPS:;
#TIMESIGNATURES:0.000000=4=4;
#BGCHANGES:;
#FGCHANGES:;
#ATTACKS:;
#SPEEDS:0.000000=1.000000=0.000000=0;
#SCROLLS:0.000000=1.000000;
#KEYSOUNDS:;

//---------------dance-single - ---------------
#NOTES:
     dance-single:
     :
     Challenge:
     16:
     0,0,0,0,0:
// measure 0
0000
0000
0000
0000
,  // measure 1
0000
0000
0000
0000
,  // measure 2
2000
0000
3002
0000
0203
0000
0302
0000
2003
3000
1000
0020
0030
0010
1000
0000
,  // measure 3
0020
0000
1030
0200
0000
0000
0302
0000
0203
0000
0000
0000
1300
0000
0000
0000
,  // measure 4
2000
0000
3010
0020
0000
0030
0010
0200
0000
0000
0302
0000
0203
0000
1300
0200
,  // measure 5
0000
0001
1000
0301
,  // measure 6
0002
0000
0203
0000
0302
0000
0023
0000
0230
0000
1300
0200
0000
0301
0100
0000
,  // measure 7
2000
0000
3001
0200
0000
0000
0320
0000
2030
0000
3001
0200
0000
0301
1000
0000
,  // measure 8
0002
0003
0001
0020
0000
0000
0130
0020
0000
0000
0032
0000
0203
0000
1300
0200
,  // measure 9
0000
0000
0001
0000
1000
0000
0001
0320
,  // measure 10
2030
0000
0000
0000
0001
0000
0000
0000
0001
3000
0000
0000
0002
0000
2003
0000
,  // measure 11
3002
1000
1000
1003
,  // measure 12
0200
0000
0000
0000
0001
0000
0000
0000
0001
0300
0000
0000
0002
0000
0000
0000
,  // measure 13
2000
0000
0000
0000
0000
0000
0000
0000
0000
0000
0000
3003
0000
0000
0000
0000
,  // measure 14
1001
0000
0010
0000
0100
0000
0020
0030
0002
0003
0001
0200
0300
0100
0010
0000
,  // measure 15
1000
0000
0001
0000
0110
0000
0001
0000
1000
0000
1000
0200
0300
0100
0002
0000
,  // measure 16
2003
0000
0000
0000
3002
0000
0000
0000
0103
0000
1000
0000
0001
0000
0100
0001
,  // measure 17
0010
0000
0100
1000
0010
0000
0100
0001
0200
0000
0000
0000
0310
0000
0000
0000
,  // measure 18
1000
0000
0001
0000
0100
0000
0010
0000
0110
0000
0010
0100
0000
0001
0010
0000
,  // measure 19
0110
0000
0100
0000
1000
0000
0010
0000
0110
0000
0100
0001
0000
1000
0100
0000
,  // measure 20
0002
0000
0000
0000
0203
0000
0000
0000
1300
0000
0001
0000
0100
0000
0010
0100
,  // measure 21
0001
0000
0010
0100
1000
0000
0010
1000
0200
0000
0000
0000
0310
0000
0000
0000
,  // measure 22
0020
0000
0000
0000
0031
0000
0010
0000
0110
0000
0010
0100
0000
0100
1000
0000
,  // measure 23
1000
0000
0001
0000
1001
0000
0110
0000
0101
0000
0100
0010
0000
0010
1000
0000
,  // measure 24
1000
0001
1000
1000
0100
0010
0001
1000
,  // measure 25
1001
0110
1010
0101
2002
0000
3003
0000
,  // measure 26
1000
0000
0010
0000
0110
0000
0010
0000
1001
0000
1000
0002
0003
0001
0200
0000
,  // measure 27
1300
0000
0100
0000
0101
0000
0010
0000
1100
0000
1000
0020
0030
0100
0001
0000
,  // measure 28
2000
0000
0000
0000
3200
0000
0000
0000
0301
0000
0100
0000
1000
0000
0010
0100
,  // measure 29
0001
0000
0010
0100
1000
0000
0010
1000
0200
0000
0000
0000
1300
0000
0000
0000
,  // measure 30
1001
0000
0110
0000
1100
0000
0011
0000
0101
0000
0001
0100
0000
0100
0010
0000
,  // measure 31
1000
0000
0010
0000
0110
0000
0010
0000
1001
0000
1000
0100
0000
0100
0010
0000
,  // measure 32
0001
0000
0010
0000
1000
0000
0010
0000
0001
0000
0100
0000
0010
0000
1000
0100
,  // measure 33
2200
3300
0000
0000
0202
0303
0000
0000
2002
3003
0000
2200
3300
0000
0101
0000
,  // measure 34
1000
0000
0001
0000
0100
0000
0010
0000
1000
0000
1000
0010
0000
0010
1000
0000
0001
0000
0100
0000
0010
0000
0100
0000
0001
0000
0001
0010
0000
0010
0100
0000
,  // measure 35
1000
0000
0001
0000
0100
0000
0010
0100
0001
0000
1000
0000
0020
0000
0000
0000
0230
0000
0000
0000
0320
0000
0030
0000
0010
0000
0010
0000
0020
0000
0000
0000
,  // measure 36
1030
0000
0010
0000
0110
0000
0010
0000
1001
0000
1000
0010
0100
0010
1000
0000
,  // measure 37
0001
0000
0100
0000
0110
0000
0100
0000
0101
0000
0001
1000
0100
1000
0001
0000
,  // measure 38
1000
0000
1010
0000
0110
0000
0101
0000
1001
0000
1000
0000
1001
0000
0001
0100
,  // measure 39
0010
0000
1000
0100
0010
0000
0001
0100
0010
0000
1000
0100
0010
0000
0001
0100
,  // measure 40
0010
0000
1000
0010
0100
0000
0001
0010
0100
0000
1000
0010
0200
0000
0300
0000
,  // measure 41
1001
0000
0100
0000
0010
0000
0200
0300
2000
3000
1000
0020
0030
0010
0100
0000
,  // measure 42
0001
0000
1000
0000
0110
0000
1000
0000
0001
0000
0001
0020
0030
0010
2000
0000
,  // measure 43
3002
0000
0000
0000
2003
0000
0000
0000
3010
0000
0001
0000
1000
0000
0010
1000
,  // measure 44
0100
0000
0010
0001
0100
0000
0010
1000
0020
0000
0000
0000
0130
0000
0000
0000
,  // measure 45
0001
0000
1000
0000
0010
0000
0100
0000
0110
0000
0100
0010
0000
1000
0100
0000
,  // measure 46
0110
0000
0010
0000
0001
0000
0100
0000
0110
0000
0010
1000
0000
0001
0010
0000
,  // measure 47
2000
0000
0000
0000
3020
0000
0000
0000
0031
0000
1000
0000
0010
0000
0100
0010
,  // measure 48
1000
0000
0100
0010
0001
0000
0100
0001
0020
0000
0000
0000
0130
0000
0000
0000
,  // measure 49
0200
0000
0000
0000
1300
0000
0100
0000
0110
0000
0100
0010
0000
0010
0001
0000
,  // measure 50
0001
0000
1000
0000
1001
0000
0110
0000
1010
0000
0010
0100
0000
0100
0001
0000
,  // measure 51
0001
1000
0001
0001
0010
0100
1000
0001
,  // measure 52
1001
0110
0101
1010
2002
0000
3003
0000
,  // measure 53
0001
0000
0100
0000
0110
0000
0100
0000
1001
0000
0001
2000
3000
1000
0020
0000
,  // measure 54
0031
0000
0010
0000
1010
0000
0100
0000
0011
0000
0001
0200
0300
0010
1000
0000
,  // measure 55
0002
0000
0000
0000
0023
0000
0000
0000
1030
0000
0010
0000
0001
0000
0100
0010
,  // measure 56
1000
0000
0100
0010
0001
0000
0100
0001
0020
0000
0000
0000
0031
0000
0001
0100
,  // measure 57
0010
0000
1000
0100
0010
0000
0001
0100
2000
0000
0000
0000
3100
0000
1000
0100
,  // measure 58
0010
0000
0010
1000
0001
0000
0001
0010
0220
0000
0000
0000
0330
0000
0000
0000
;
