#TITLE:Young Forever;
#SUBTITLE:(D.U.S Special);
#ARTIST:Rebecca;
#MUSIC:Young Forever.ogg;
#BANNER:Young Forever.png;
#BACKGROUND:Young Forever-bg.png;
#LYRICSPATH:;
#CDTITLE:;
#SAMPLESTART:63.435;
#SAMPLELENGTH:13.715999999999994;
#BPMS:0.000000=139.985000;
#STOPS:;
#TIMESIGNATURES:0.000000=4=4;
#BGCHANGES:;
#FGCHANGES:;
#ATTACKS:;
#SPEEDS:0.000000=1.000000=0.000000=0;
#SCROLLS:0.000000=1.000000;
#KEYSOUNDS:;

//---------------dance-single - ---------------
#NOTES:
     dance-single:
     :
     Challenge:
     17:
     0,0,0,0,0:
// measure 0
0000
0000
0000
0000
,  // measure 1
0000
0000
0000
0000
,  // measure 2
0000
0000
0000
0000
,  // measure 3
0000
0000
0000
0000
,  // measure 4
2002
0000
0000
0000
0000
0000
0000
0000
0000
0000
3003
0000
1000
0001
1000
0001
,  // measure 5
0011
0000
0010
0001
0010
0000
0011
0000
0110
0000
1100
0000
1001
0000
0101
0000
,  // measure 6
0110
1010
2002
3003
2002
3003
1100
0110
,  // measure 7
0011
0000
0001
0010
0001
0000
0101
0000
0110
0000
1010
0000
1001
0000
0011
0000
,  // measure 8
0110
1100
2020
3030
2020
3030
1010
0110
,  // measure 9
0101
0000
0001
0100
0001
0000
0101
0000
0011
0000
0110
0000
1100
0000
1001
0000
,  // measure 10
0101
0110
2020
3030
2020
3030
1010
1001
,  // measure 11
0110
0000
0010
0100
0010
0000
0110
0000
1100
0000
1001
0000
0101
0000
0110
0000
,  // measure 12
1010
1001
0022
0033
0022
0033
0011
0110
,  // measure 13
1100
0000
0100
1000
0001
0100
0010
0000
0100
0000
0001
0010
0100
1000
0010
0000
,  // measure 14
0100
0000
1000
0100
0001
0010
0100
0000
1000
0000
0001
0100
0010
1000
0001
0000
,  // measure 15
0010
0000
0100
1000
0010
0100
1000
0000
0100
0000
0001
0010
0100
0001
0100
0000
,  // measure 16
0010
0000
0001
0100
0010
1000
0001
0000
0010
0000
0100
1000
0010
0100
0001
0000
,  // measure 17
0010
0000
1000
0010
0001
0100
0010
0000
1000
0000
0001
0010
0100
1000
0010
0000
,  // measure 18
0100
0000
1000
0100
0010
1000
0001
0000
0010
0000
0100
1000
0001
0100
0010
0000
,  // measure 19
0100
0000
0001
0010
0100
1000
0001
0000
0100
0000
0010
0100
0001
0010
0100
0000
,  // measure 20
1000
0000
0001
0100
0000
0100
0001
0000
1000
0000
0100
0001
0000
0100
1000
0000
,  // measure 21
0100
0000
1000
0010
0001
0010
0100
0000
0001
0000
1000
0100
0001
0100
0010
0000
,  // measure 22
0001
0000
0001
0010
0100
1000
0010
0000
0100
0000
1000
0100
0010
1000
0001
0000
,  // measure 23
0010
0000
0100
1000
0010
0100
0001
0000
0010
0000
1000
0010
0001
0100
0010
0000
,  // measure 24
1000
0000
0001
0010
0100
1000
0010
0000
0100
0000
1000
0100
0001
0010
0100
0000
,  // measure 25
1000
0000
0001
0100
0010
1000
0001
0000
0010
0000
0100
0010
0001
0100
0010
0000
,  // measure 26
1000
0000
0001
0010
1000
0010
0001
0000
0100
0000
0010
1000
0001
0010
0100
0000
,  // measure 27
1000
0000
0010
0100
0001
0010
0100
0000
1000
0000
0001
0100
0010
1000
0100
0000
,  // measure 28
0010
0000
0001
0100
0010
1000
0001
0000
0010
0000
0100
1000
0010
0100
1000
0000
,  // measure 29
1200
0300
0100
0000
0102
0003
0001
0000
0021
0030
0010
0000
2010
3000
1000
0000
,  // measure 30
1020
0030
0010
0000
0210
0300
0100
0000
0102
0003
0001
0000
0021
0030
0010
0000
,  // measure 31
0210
0300
0100
0000
2100
3000
1000
0000
1002
0003
0001
0000
0201
0300
0100
0000
,  // measure 32
0120
0030
0010
0000
2010
3000
1000
0000
1002
0003
0001
0000
0021
0030
0010
0000
,  // measure 33
0100
0000
1000
0001
0100
0000
0010
0100
0001
0000
0010
0100
1000
0000
0010
0100
,  // measure 34
1000
0000
0100
0001
0010
0000
0100
1000
0001
0000
0100
0010
1000
0000
0001
0000
,  // measure 35
1000
0100
0010
0100
1000
0010
0100
0010
1000
0100
0010
0001
1000
0100
0010
0001
,  // measure 36
0021
0000
0000
0000
0000
0000
0000
0000
0002
0033
0001
0010
0100
1000
0010
0100
,  // measure 37
0101
0000
0100
0001
0010
0000
0100
0000
1000
0000
0010
0100
1000
0000
0100
0000
,  // measure 38
0002
2003
3200
0320
0032
0023
0230
2300
,  // measure 39
3010
0000
0100
0001
1000
0100
0010
0000
0100
0000
1000
0001
0100
0010
1000
0000
,  // measure 40
0001
0010
0100
0010
0001
0010
0100
1000
0010
0100
1000
0100
0010
1000
0001
0010
,  // measure 41
0100
0000
1000
0010
0100
0000
0001
0000
0010
0000
0100
1000
0010
0000
0100
0000
,  // measure 42
2000
3200
0302
0023
2030
3020
0032
0203
,  // measure 43
0310
1000
0010
1000
0001
0100
0001
0100
0010
1000
0010
1000
0001
0010
0001
0010
,  // measure 44
0100
1000
0001
0100
0010
1000
0100
0010
0001
0100
0010
1000
0001
0010
0100
1000
,  // measure 45
1100
0000
0100
1000
0100
0000
1100
0000
0110
0000
0011
0000
1001
0000
1010
0000
,  // measure 46
0110
0101
2002
3003
2002
3003
0011
0110
,  // measure 47
1100
0000
1000
0100
1000
0000
1010
0000
0110
0000
0101
0000
1001
0000
1100
0000
,  // measure 48
0110
0011
0202
0303
0202
0303
0101
0110
,  // measure 49
1010
0000
1000
0010
1000
0000
1010
0000
1100
0000
0110
0000
0011
0000
1001
0000
,  // measure 50
1010
0110
0202
0303
0202
0303
0101
1001
,  // measure 51
0110
0000
0100
0010
0100
0000
0110
0000
0011
0000
1001
0000
1010
0000
0110
0000
,  // measure 52
0101
1001
2200
3300
2200
3300
1100
0110
,  // measure 53
0011
0000
0000
0000
;

//---------------dance-double - ---------------
#NOTES:
     dance-double:
     :
     Challenge:
     18:
     0,0,0,0,0:
// measure 0
00000000
00000000
00000000
00000000
,  // measure 1
00000000
00000000
00000000
00000000
,  // measure 2
00000000
00000000
00000000
00000000
,  // measure 3
00000000
00000000
00000000
00000000
,  // measure 4
00022000
00000000
00000000
00000000
00000000
00000000
00000000
00000000
00000000
00000000
00033000
00000000
00001000
00010000
00001000
00010000
,  // measure 5
00110000
00000000
00010000
00100000
10000000
00000000
10100000
00000000
10010000
00000000
00110000
00000000
01100000
00000000
11000000
00000000
,  // measure 6
10010000
01010000
00022000
00033000
00002200
00003300
00001100
00001010
,  // measure 7
00000110
00000000
00000100
00000001
00000010
00000000
00000011
00000000
00001100
00000000
00001010
00000000
00000110
00000000
00001100
00000000
,  // measure 8
00000101
00001001
00002200
00003300
00022000
00033000
01010000
01000000
,  // measure 9
01100000
00000000
01000000
00010000
00100000
00000000
00110000
00000000
11000000
00000000
10100000
00000000
01100000
00000000
11000000
00000000
,  // measure 10
01100000
10100000
20020000
30030000
00022000
00033000
00001001
00000001
,  // measure 11
00000011
00000000
00000001
00000010
00000100
00000000
00000110
00000000
00001100
00000000
00001001
00000000
00000101
00000000
00000110
00000000
,  // measure 12
00001010
00001001
00000022
00000033
00022000
00033000
10100000
00100000
,  // measure 13
01000000
00000000
00010000
00100000
01000000
10000000
00100000
00000000
01000000
00000000
10000000
01000000
00010000
00100000
01000000
00000000
,  // measure 14
10000000
00000000
00010000
01000000
00001000
00010000
00000100
00000000
00001000
00000000
00000010
00000100
00000001
00000010
00000100
00000000
,  // measure 15
00001000
00000000
00000001
00000100
00001000
00000100
00000001
00000000
00000010
00000000
00000100
00001000
00000010
00000100
00001000
00000000
,  // measure 16
00000100
00000000
00000010
00010000
00001000
00100000
01000000
00000000
10000000
00000000
00100000
01000000
10000000
01000000
00010000
00000000
,  // measure 17
00100000
00000000
01000000
10000000
00100000
01000000
00100000
00000000
10000000
00000000
00010000
00100000
01000000
10000000
00100000
00000000
,  // measure 18
01000000
00000000
00010000
00100000
00001000
00010000
00000010
00000000
00000100
00000000
00000001
00000010
00000100
00001000
00000010
00000000
,  // measure 19
00000100
00000000
00000001
00000010
00000100
00001000
00000010
00000000
00000100
00000000
00001000
00000100
00000001
00001000
00000100
00000000
,  // measure 20
00000010
00000000
00000100
00001000
00000000
00001000
00010000
00000000
00100000
00000000
00100000
00010000
00000000
00010000
00001000
00000000
,  // measure 21
00011000
00000000
00001000
10000000
00100000
00000000
10100000
00000000
10000000
00100000
01000000
00010000
00100000
00000000
01100000
00000000
,  // measure 22
01000000
00000000
10000000
00010000
01000000
00000000
00011000
00000000
00010000
00000010
00000100
00000001
00000010
00000000
00000110
00000000
,  // measure 23
00000100
00000000
00001000
00000010
00000100
00000000
00001100
00000000
00001000
00000100
00000001
00000010
00000100
00000000
00001100
00000000
,  // measure 24
00001000
00000000
00000010
00000100
00001000
00000000
00000101
00000000
00000001
00010000
00001000
10000000
00100000
00000000
10100000
00000000
,  // measure 25
00100000
00000000
01000000
00010000
10000000
00000000
11000000
00000000
01000000
10000000
00100000
01000000
00010000
00000000
00110000
00000000
,  // measure 26
00100000
00000000
01000000
10000000
00100000
00000000
01100000
00000000
01000000
00000000
00010000
00100000
00001000
00000000
00011000
00000000
,  // measure 27
00001000
00010000
00000010
00000100
00000001
00000000
00000011
00000000
00000001
00000010
00000100
00001000
00000010
00000000
00001010
00000000
,  // measure 28
00001000
00000010
00010000
00001000
00100000
00010000
01000000
00000000
01000000
00001000
00010000
00000010
00001000
00000100
00000010
00000000
,  // measure 29
00000012
00000103
00000201
00000310
00000120
00010030
00020010
00031000
,  // measure 30
00012000
00103000
00201000
01300000
02100000
13000000
21000000
30010000
,  // measure 31
10020000
00130000
00210000
00301000
00102000
00013000
00021000
00030001
,  // measure 32
00010002
00000103
00000201
00000310
00000120
00001030
00002010
00003100
,  // measure 33
00001000
00000000
00000001
00000100
00000010
00000000
00001000
00000100
00000010
00000000
00000001
00001000
00000010
00000000
00010000
00001000
,  // measure 34
00100000
00000000
01000000
10000000
00100000
00000000
01000000
00001000
00010000
00000000
00000010
00000100
00000001
00000000
00000010
00000100
,  // measure 35
00001000
00000010
00010000
00001000
00100000
01000000
10000000
00100000
00001000
00000010
00000100
00000001
00000010
00010000
10000000
00100000
,  // measure 36
02200000
00000000
00300000
00000000
00020000
00000000
00030000
00000000
03010000
00000000
00010000
10000000
00001000
00010000
00000001
00001000
,  // measure 37
00001001
00000000
00001000
00000001
00000010
00000000
00000100
00000000
00001000
00000000
00000010
00000000
00010000
00000000
00001000
00000000
,  // measure 38
00200000
00320000
02030000
03002000
00023000
00030020
00000230
00000302
,  // measure 39
00000013
00000000
00000010
00000001
00000100
00000010
00001000
00000000
00000100
00000000
00000100
00001000
00000010
00010000
00001000
00000000
,  // measure 40
00010000
00000000
00001000
00100000
01000000
10000000
00010000
00000000
01000000
00000000
00100000
01000000
00010000
00100000
01000000
00000000
,  // measure 41
11000000
00000000
01000000
10000000
00100000
00000000
01000000
00000000
00001000
00000000
00010000
00000000
00000010
00000000
00000100
00000000
,  // measure 42
00000002
00000023
00002030
00023000
00230000
20300000
32000000
03200000
,  // measure 43
00310000
00100000
10000000
00100000
01000000
10000000
00100000
00010000
00001000
00010000
00100000
01000000
00001000
00000010
00000100
00001000
,  // measure 44
00000001
00000100
00000010
00100000
01000000
00010000
00000100
00000010
00000001
00010000
00100000
10000000
00010000
00100000
01000000
10000000
,  // measure 45
10010000
00000000
10000000
00010000
10000000
00000000
10010000
00000000
00011000
00000000
00001001
00000000
00011000
00000000
10010000
00000000
,  // measure 46
10100000
00110000
20200000
30300000
20020000
30030000
00110000
00101000
,  // measure 47
00100010
00000000
00100000
00000010
00100000
00000000
00100010
00000000
00001010
00000000
00001001
00000000
00000011
00000000
00000110
00000000
,  // measure 48
00001100
00001001
00000202
00000303
00000220
00000330
00000110
00001010
,  // measure 49
00010010
00000000
00000010
00010000
00001000
00000000
00011000
00000000
01010000
00000000
00011000
00000000
00001100
00000000
00011000
00000000
,  // measure 50
00110000
01100000
22000000
33000000
22000000
33000000
11000000
10010000
,  // measure 51
01010000
00000000
01000000
00010000
00100000
00000000
00110000
00000000
00101000
00000000
00100010
00000000
00001010
00000000
00001001
00000000
,  // measure 52
00001000
00000001
00000010
00000000
00000110
00000000
00000200
00000000
00002300
00000000
00003020
00000000
00020030
00000000
00031000
00000000
,  // measure 53
00100100
00000000
00000000
00000000
;
