#TITLE:Yo Quiero Bailar;
#SUBTITLE:;
#ARTIST:Sonia y Selena;
#MUSIC:Yo Quiero Bailar.mp3;
#BANNER:Yo Quiero Bailar.png;
#BACKGROUND:Yo Quiero Bailar-bg.png;
#LYRICSPATH:;
#CDTITLE:;
#SAMPLESTART:50.139;
#SAMPLELENGTH:15.523000000000003;
#OFFSET:0.607;
#BPMS:0.000000=134.000000,
116.000000=67.000000,
132.000000=134.000000
;
#STOPS:;
#TIMESIGNATURES:;
#BGCHANGES:;
#FGCHANGES:;
#ATTACKS:;
#SPEEDS:;
#SCROLLS:;
#KEYSOUNDS:;

//---------------dance-single - ---------------
#NOTES:
     dance-single:
     :
     Beginner:
     5:
     0,0,0,0,0:
// measure 0
0000
0000
0000
0000
,  // measure 1
2000
0000
3000
0000
,  // measure 2
0002
0000
0003
0000
,  // measure 3
1000
1000
1000
0000
,  // measure 4
0001
0001
0001
1001
,  // measure 5
1000
0000
1000
0000
,  // measure 6
0010
0000
0010
0000
,  // measure 7
0100
0000
0100
0000
,  // measure 8
0001
0000
0001
0000
,  // measure 9
1000
1000
1000
0000
,  // measure 10
0001
0001
0001
0000
,  // measure 11
0010
0010
0010
0000
,  // measure 12
0100
0100
0100
0000
,  // measure 13
2000
3000
1000
0000
,  // measure 14
0002
0003
0001
0000
,  // measure 15
0020
0030
0010
0000
,  // measure 16
0200
0300
0100
0000
,  // measure 17
0002
0003
0001
0000
,  // measure 18
2000
3000
1000
0000
,  // measure 19
0200
0300
0100
0000
,  // measure 20
0020
0030
0010
0000
,  // measure 21
1000
0000
0010
0000
,  // measure 22
0100
0000
0001
0000
,  // measure 23
0010
0000
0010
0000
,  // measure 24
0001
0001
0001
0000
,  // measure 25
2000
3000
1000
0000
,  // measure 26
0002
0003
0001
0000
,  // measure 27
2002
0000
0000
3003
,  // measure 28
1001
1001
1001
0000
,  // measure 29
1000
0001
0010
0100
,  // measure 30
1000
1000
1000
0000
0001
0001
0001
0000
,  // measure 31
1000
0001
0010
0001
,  // measure 32
0100
0100
0100
0000
0110
0110
0110
0000
,  // measure 33
1000
0000
0001
0000
,  // measure 34
0100
0100
0100
0000
,  // measure 35
0001
0001
0001
0000
,  // measure 36
1000
1000
1000
0000
,  // measure 37
0001
0000
1000
0000
,  // measure 38
0010
0010
0010
0000
,  // measure 39
1000
1000
1000
0000
,  // measure 40
0001
0001
0001
1001
,  // measure 41
0100
0000
0100
0000
,  // measure 42
0010
0000
0010
0000
,  // measure 43
1000
1000
1000
0000
,  // measure 44
0001
0001
0001
0000
,  // measure 45
0010
0000
0010
0000
,  // measure 46
0100
0000
0100
0000
,  // measure 47
0001
0001
0001
0000
,  // measure 48
1000
1000
1001
0000
;

//---------------dance-single - ---------------
#NOTES:
     dance-single:
     :
     Easy:
     8:
     0,0,0,0,0:
// measure 0
0000
0000
0000
0000
,  // measure 1
2000
0000
3002
0000
,  // measure 2
0023
0000
0230
0000
,  // measure 3
1300
1000
1000
0010
,  // measure 4
0100
0100
0001
1001
,  // measure 5
0001
0010
0100
0010
,  // measure 6
0001
1000
0010
0100
,  // measure 7
0001
0010
0100
0010
,  // measure 8
0011
1100
1010
0101
,  // measure 9
1000
0010
0100
0001
,  // measure 10
0010
0001
0100
0010
,  // measure 11
1000
0100
0001
0100
,  // measure 12
1001
1100
2002
3003
,  // measure 13
1000
0100
0001
0100
,  // measure 14
1000
0010
0100
0010
,  // measure 15
1000
0001
0010
0100
,  // measure 16
0010
0001
1000
0010
,  // measure 17
0100
0001
1000
0100
,  // measure 18
0010
0001
0010
0100
,  // measure 19
1000
0001
0100
0010
,  // measure 20
0200
0000
0010
0310
,  // measure 21
0010
1000
0001
0010
,  // measure 22
0200
0000
1300
0010
,  // measure 23
0200
0000
0000
0002
0000
0000
0000
0000
0303
0000
0000
0000
0001
0000
0000
0000
,  // measure 24
0100
1000
0010
0001
,  // measure 25
0001
1000
0010
0100
,  // measure 26
0200
0000
0301
0010
,  // measure 27
0220
0000
0000
0330
,  // measure 28
1000
1000
0010
1000
,  // measure 29
0002
2003
3020
0230
,  // measure 30
0301
0001
0001
0010
0100
0100
1000
0010
,  // measure 31
1010
0010
1000
0001
0101
0001
0010
0100
,  // measure 32
1000
1000
1000
0001
0100
0100
0010
1010
,  // measure 33
0100
0101
0001
0011
,  // measure 34
0110
1100
1010
0101
,  // measure 35
1000
1000
1000
0010
,  // measure 36
0001
0001
0010
1000
,  // measure 37
0001
0110
1000
0110
,  // measure 38
0011
0101
1010
1100
,  // measure 39
0001
0001
0001
0010
,  // measure 40
1000
1000
0010
0011
,  // measure 41
0001
0100
0010
1000
,  // measure 42
0001
0010
0100
1000
,  // measure 43
0010
0100
0001
1000
,  // measure 44
0100
0001
0100
1000
,  // measure 45
0010
0100
0001
0010
,  // measure 46
1000
0010
0001
0100
,  // measure 47
0010
1000
0001
0010
,  // measure 48
0100
1000
2002
3003
;

//---------------dance-single - ---------------
#NOTES:
     dance-single:
     :
     Medium:
     13:
     0,0,0,0,0:
// measure 0
0000
0000
0000
0000
,  // measure 1
2000
0000
0100
0000
,  // measure 2
3002
0000
0100
0000
,  // measure 3
0013
0000
0000
0010
0000
0000
0010
0000
0001
0000
0001
0000
2000
0000
0000
0000
,  // measure 4
3010
0000
0000
0010
0000
0000
0010
0000
1000
0000
1000
0000
1001
0000
0000
0000
,  // measure 5
1000
0001
0100
0000
0001
1000
0100
0000
,  // measure 6
1100
0011
0101
1010
,  // measure 7
0010
1000
0100
0000
0010
0001
0100
0000
,  // measure 8
0101
1010
1100
0011
,  // measure 9
0010
0001
1000
0000
0010
1000
0001
0000
,  // measure 10
0101
1010
1100
0011
,  // measure 11
0010
0100
1000
0000
0001
0100
0010
0000
,  // measure 12
1000
0000
0001
0000
2002
3003
1001
0000
,  // measure 13
1000
0000
1000
0000
0010
1000
0001
0000
,  // measure 14
0100
0000
0100
0000
0010
0100
0001
0000
,  // measure 15
1000
0000
1000
0000
0100
0010
0001
0000
,  // measure 16
0100
0000
0100
0000
0010
1000
0100
0000
,  // measure 17
0010
0000
0001
0000
0100
0001
0010
0000
,  // measure 18
0100
0000
1000
0000
0010
1000
0100
0000
,  // measure 19
1000
0000
0001
0000
0100
0010
1000
0000
,  // measure 20
0001
0000
0010
0000
0100
0010
0001
0000
,  // measure 21
2000
0010
3002
0100
,  // measure 22
2003
0000
0000
3010
1000
0000
0001
0000
,  // measure 23
0200
0000
0000
0020
0000
0330
0000
0000
0110
0000
0000
0000
0010
0000
1000
0000
,  // measure 24
0001
0100
0010
1000
0001
0000
0101
0001
,  // measure 25
1000
0000
0000
0010
0000
0000
0100
0000
0001
0000
0000
0010
0000
0000
0100
0000
,  // measure 26
2000
0000
0000
0000
3000
0000
0001
0000
0200
0000
0000
0320
0000
0000
2030
0000
,  // measure 27
0000
0002
0000
0000
0000
0000
3003
0000
,  // measure 28
1000
0000
0001
0000
1000
0000
0001
0000
0000
0010
0000
0000
0001
0000
0000
1000
0000
0000
0010
0000
0000
0000
0000
0000
,  // measure 29
2000
3002
0203
0320
,  // measure 30
1030
0000
0000
1000
0000
0000
1000
0000
0001
0000
0001
0000
0010
0000
0000
0000
0100
0000
0000
0100
0000
0000
0100
0000
1000
0000
1000
0000
0010
0000
0000
0000
,  // measure 31
2010
3100
1200
0310
0120
0031
0012
0103
,  // measure 32
1000
0000
0000
0000
0000
0000
0000
0000
0000
1000
0000
0000
0000
0000
0000
0000
0000
0000
1000
0000
0000
0000
0000
0000
0010
0000
0000
0000
0000
0000
0010
0000
0000
0000
0000
0000
0100
0000
0000
0000
0000
0000
0000
0000
0000
0000
0000
0000
0001
0000
0000
0000
0000
0000
0000
0000
0000
0001
0000
0000
0000
0000
0000
0000
0000
0000
0001
0000
0000
0000
0000
0000
1000
0000
0000
0000
0010
0000
0000
0000
0100
0000
0000
0000
0010
0000
0000
0000
0000
0000
0000
0000
0000
0000
0000
0000
,  // measure 33
1010
0000
0000
0010
1000
0000
0000
0000
1001
0000
0000
0001
0100
0000
0000
0000
,  // measure 34
1001
1100
1001
0101
,  // measure 35
1000
0000
0000
1000
0000
0000
1000
0000
0001
0000
0001
0000
0020
0000
0000
0000
,  // measure 36
0031
0000
0000
0001
0000
0000
0001
0000
1000
0000
0010
0000
0100
0000
0000
0000
,  // measure 37
0101
0000
0000
0001
1000
0000
0000
0000
1010
0000
0000
0010
1000
0000
0000
0000
,  // measure 38
1010
0101
0011
1100
,  // measure 39
1000
0000
0000
1000
0000
0000
1000
0000
0001
0000
0001
0000
0010
0000
0000
0000
,  // measure 40
0100
0000
0000
0100
0000
0000
0100
0000
1000
0000
1000
0000
1001
0000
0000
0000
,  // measure 41
1000
0001
0100
0000
0010
1000
0100
0000
,  // measure 42
1010
0101
0011
1100
,  // measure 43
0001
0010
0100
0000
1000
0100
0010
0000
,  // measure 44
0110
1001
1001
0110
,  // measure 45
0010
1000
0001
0000
0100
0001
1000
0000
,  // measure 46
1010
1100
0011
0101
,  // measure 47
0001
1000
0010
0000
1000
0001
0010
0000
,  // measure 48
0001
1000
2002
3003
;

//---------------dance-single - ---------------
#NOTES:
     dance-single:
     :
     Hard:
     16:
     0,0,0,0,0:
// measure 0
0000
0000
0000
0000
,  // measure 1
1000
0000
0000
1000
0000
0000
1000
0000
0000
0002
0000
0000
1003
0000
0000
0000
,  // measure 2
0001
0000
0000
0001
0000
0000
0001
0000
0000
0020
0000
0000
0130
0000
0000
0000
,  // measure 3
1000
0000
0001
1000
0000
0001
1000
0000
0100
0000
0100
0000
0020
0000
0000
0000
,  // measure 4
0031
0000
0000
0000
0000
0000
1000
0000
0000
0001
0000
0000
0000
0000
0000
1000
0000
0000
0001
0000
0000
0000
0000
0000
1000
0000
0000
0000
0001
0000
0000
0000
0100
0000
0000
0000
0110
0000
0000
0000
0000
0000
0000
0000
0000
0000
0000
0000
,  // measure 5
1000
0001
0010
0002
0000
1000
0000
0000
0100
0000
0000
0010
0000
0000
0103
0000
,  // measure 6
0010
0000
1000
0000
0001
0000
0100
0010
1000
0000
0001
0010
0000
0100
1000
0000
,  // measure 7
0002
0000
1000
0000
0003
2000
0010
0000
0100
0000
0000
3001
0000
0000
1000
0100
,  // measure 8
0020
0000
0001
0000
0031
0000
0001
1000
0100
0000
0010
0000
0001
0000
0100
0000
,  // measure 9
0010
1000
0001
0010
0100
0000
1000
0000
0001
0000
0100
0000
0010
0000
1000
0000
,  // measure 10
0001
0000
0010
0000
0100
0000
1000
0001
0010
0000
0010
0001
0000
0001
1000
0000
,  // measure 11
0200
0000
1300
0000
0000
0100
1000
0000
0002
0000
0000
0103
0000
0000
0001
0100
,  // measure 12
0020
0000
0000
0000
0000
0000
0000
0000
0000
2030
0000
0000
0000
0000
0000
0000
0000
0000
3001
0000
0000
0000
0000
0000
0002
0000
0000
0000
0000
0000
2000
0000
3003
0000
0000
0000
1001
0000
0000
0000
0000
0000
0000
0000
0000
0000
0000
0000
,  // measure 13
1100
0000
0000
0001
0100
0000
0010
0000
1010
0000
0000
0010
1000
0000
0001
0000
,  // measure 14
0101
0000
0000
0001
0010
0000
0100
0000
1100
0000
0000
1000
0010
0000
0100
0000
,  // measure 15
0101
0000
0000
0001
1000
0000
0010
0000
1010
0000
0000
0010
1000
0000
0001
0000
,  // measure 16
0011
0000
0000
0010
0100
0000
1000
0000
0001
0010
0000
0010
0001
0000
1000
0000
,  // measure 17
1010
0000
0000
0010
0100
0000
0001
0000
1001
0000
0000
1000
0010
0000
0100
0000
,  // measure 18
0101
0000
0000
0001
0010
0000
1000
0000
1010
0000
0000
0010
0100
0000
1000
0000
,  // measure 19
1001
0000
0000
0001
0100
0000
0010
0000
1010
0000
0000
1000
0100
0000
0010
0000
,  // measure 20
0110
0000
0000
0010
0001
0000
1000
0000
0010
0100
0000
0100
0010
0000
0110
0000
,  // measure 21
2001
0000
0000
0001
0000
0000
3001
0000
0002
0000
0000
1000
0000
0000
1003
0000
,  // measure 22
0020
0000
0030
0010
1000
0001
0010
0100
,  // measure 23
0020
0000
0000
0002
0000
0000
0033
0000
0011
0000
0000
0000
0010
0000
0001
0000
,  // measure 24
0100
1000
0100
0001
0020
0030
0110
0010
,  // measure 25
0001
0000
0000
1000
0000
0000
0010
0000
0100
0000
0000
0001
0000
0000
1000
0000
,  // measure 26
2000
0000
0002
0000
3003
0000
1000
0000
0200
0000
0000
0320
0000
0000
0032
0000
,  // measure 27
0000
2000
0000
0000
0000
0000
3003
0000
,  // measure 28
1000
0000
0000
0000
0001
0000
0000
0000
0100
0000
0000
0000
0010
0000
0000
0000
0000
0000
1000
0000
0000
0000
0000
0000
0001
0000
0000
0100
0000
0000
0010
0000
0000
0000
0000
0000
1000
0000
0000
0000
0000
0000
0010
0000
0000
0000
0000
0000
,  // measure 29
1000
0000
0000
1000
0000
0000
1000
0000
0000
0001
0000
0000
0002
0000
0000
0000
0013
0000
0000
0010
0000
0000
0010
0000
0000
0100
0000
0000
0200
0000
0000
0000
,  // measure 30
1300
0000
0001
1000
0000
0001
1000
0000
0100
0000
0100
0000
0020
0000
0000
0000
0031
0000
1000
0001
0000
1000
0001
0000
0100
0000
0100
0000
0010
0000
1000
0000
,  // measure 31
1010
0000
0010
1000
0001
0000
0100
0000
0101
0000
0001
0100
0010
0000
1000
0000
1010
0000
0010
1000
0001
0000
0010
0000
0011
0000
0010
0001
0100
0000
0001
0000
,  // measure 32
0101
0000
0000
0000
0000
0000
0001
0000
0000
1000
0000
0000
0000
0000
0000
0010
0000
0000
1000
0000
0000
0000
0000
0000
0100
0000
0000
0000
0000
0000
0100
0000
0000
0000
0000
0000
0020
0000
0000
0000
0000
0000
0000
0000
0000
0000
0000
0000
0031
0000
0000
0000
0000
0000
0100
0000
0000
0001
0000
0000
0000
0000
0000
1000
0000
0000
0010
0000
0000
0000
0000
0000
1000
0000
0000
0000
0001
0000
0000
0000
0100
0000
0000
0000
0010
0000
0000
0000
0000
0000
0000
0000
0000
0000
0000
0000
,  // measure 33
1010
0000
0010
1000
0100
0010
0000
0000
0110
0000
0010
0001
0100
0010
0000
0000
,  // measure 34
0101
0000
0001
0100
0010
1000
0100
0010
0001
0100
0000
1000
0000
0100
0001
0000
,  // measure 35
0010
0000
0100
0010
0000
1000
0010
0000
0100
0000
0100
0000
2000
0000
0000
0000
,  // measure 36
3010
0000
0100
0010
0000
0001
0010
0000
0100
0000
0001
0000
0010
0000
0100
0000
,  // measure 37
1100
0000
1000
0001
0010
0100
0000
0000
1100
0000
0100
1000
0010
0100
0000
0000
,  // measure 38
0101
0000
0001
0010
0100
1000
0010
0100
0001
1000
0000
0010
0000
0100
0001
0000
,  // measure 39
0101
0000
0100
0010
0000
0010
1000
0000
1010
0000
1010
0000
0202
0000
0303
0000
,  // measure 40
1001
0000
0010
1000
0000
0001
0100
0000
0010
0100
0001
0000
2002
0000
3003
0000
,  // measure 41
0001
0100
0010
2000
0000
0010
0000
0000
0100
0000
0000
0001
0000
0000
3100
0000
,  // measure 42
0001
0000
0010
0000
0100
1000
0001
0100
0020
0030
0010
2000
3000
1000
0002
0000
,  // measure 43
0203
0000
0010
0000
0000
0302
1000
0000
0100
0000
0000
0010
0000
0000
0103
0001
,  // measure 44
0020
0000
0100
0000
0130
0000
0100
1000
0002
0000
0103
0000
2000
0000
3100
0000
,  // measure 45
0001
0100
0010
1000
0100
0000
0010
0000
0001
0000
0100
0000
0010
0000
1000
0000
,  // measure 46
0001
0000
0010
0000
0100
0000
1000
0010
0200
0300
0100
0002
0003
0001
0020
0000
,  // measure 47
0230
0000
2300
0000
0000
3020
0000
0000
0230
0000
0000
0302
0000
0000
0013
0100
,  // measure 48
2000
0000
0000
3020
0000
0000
0130
0000
0220
0000
0000
0000
0330
0000
0000
0000
;
