#TITLE:YOUR LOVE (D.U.S Special);
#SUBTITLE:;
#ARTIST:FARGETTA;
#MUSIC:YOUR LOVE (D.U.S Special).ogg;
#BANNER:YOUR LOVE (D.U.S Special).png;
#BACKGROUND:YOUR LOVE (D.U.S Special)-bg.png;
#LYRICSPATH:;
#CDTITLE:cdtitle.png;
#SAMPLESTART:47.985;
#SAMPLELENGTH:14.765;
#BPMS:0.000000=130.040000;
#STOPS:;
#TIMESIGNATURES:0.000000=4=4;
#BGCHANGES:;
#FGCHANGES:;
#ATTACKS:;
#SPEEDS:0.000000=1.000000=0.000000=0;
#SCROLLS:0.000000=1.000000;
#KEYSOUNDS:;

//---------------dance-single - ---------------
#NOTES:
     dance-single:
     :
     Challenge:
     17:
     0,0,0,0,0:
// measure 0
0000
0000
0000
0000
,  // measure 1
2001
0000
0000
0001
0000
0000
0001
0000
0000
0001
0000
0000
0001
0000
3001
0000
,  // measure 2
1002
0000
0000
1000
0000
0000
1000
0000
0000
1000
0000
0000
1000
0000
1003
0000
,  // measure 3
0021
0000
0000
0100
0000
0000
0100
0000
0000
0100
0000
0000
0100
0000
0130
0000
,  // measure 4
2100
0000
0000
0010
0000
0000
0010
0000
0000
0010
0000
0000
0010
0000
3010
0000
,  // measure 5
1000
0000
0010
0100
0001
0000
1001
0000
0001
0100
1000
0000
1100
0000
1000
0100
,  // measure 6
0001
0000
1000
0100
0001
0000
0100
0000
1100
0000
0010
0000
0101
0000
0010
0000
,  // measure 7
1100
0000
1000
0100
0010
0000
0011
0000
0001
0100
0010
0000
1010
0000
1000
0001
,  // measure 8
0010
0000
0001
0100
0010
0000
1000
0000
0200
0000
1000
0000
0001
0000
0310
0000
,  // measure 9
1000
0010
0100
0001
0010
0100
1000
0010
0100
0001
0010
0100
1000
0010
0100
0000
,  // measure 10
0001
0100
0010
1000
0100
0010
0001
0100
0010
1000
0100
0010
0001
0100
1000
0000
,  // measure 11
0100
1000
0100
0001
0010
0001
0100
1000
0100
0001
0010
0001
0100
0010
0100
0000
,  // measure 12
0100
0001
0100
1000
0010
1000
0100
0001
0100
1000
0010
1000
0100
0010
0001
0000
,  // measure 13
0100
0001
1000
0100
1000
0001
0100
0001
1000
0100
1000
0001
0100
0001
0010
0000
,  // measure 14
0100
1000
0010
0100
0010
1000
0100
1000
0010
0100
0010
1000
0100
1000
0010
0000
,  // measure 15
0100
0001
0010
0100
0010
0001
0100
0001
0010
0100
0010
0001
0100
0010
1000
0000
,  // measure 16
1000
0001
0010
0100
0010
0001
1000
0010
0100
0010
1000
0001
0010
0100
1000
0001
,  // measure 17
2002
0000
0000
3003
1001
0000
1000
0010
0100
0001
0022
0033
0000
2200
3300
0000
,  // measure 18
1001
0000
1000
0100
0002
0003
0100
0020
0030
0002
0003
2000
3010
0000
0100
0000
,  // measure 19
0101
0000
0001
2000
3000
0002
0003
0020
0000
2030
3000
0010
0100
0000
1100
0000
,  // measure 20
0101
0000
0011
0000
1010
0000
0010
0002
0003
2000
3000
0020
0030
0200
0300
0002
,  // measure 21
0203
0320
2030
3200
,  // measure 22
0310
0000
0001
0000
0100
0000
1000
0200
0300
0002
0003
0010
0100
0000
1000
0000
,  // measure 23
1010
0000
0010
0200
0300
0002
0003
0200
0000
1000
0000
0301
1000
0000
0100
0000
,  // measure 24
0110
0000
0010
0000
0011
0000
0010
0001
0100
0000
0010
1000
0100
0000
1010
0000
,  // measure 25
0002
0000
0000
0000
2003
0000
0000
0000
3200
0000
0000
0000
0320
0000
0030
0010
,  // measure 26
0001
0100
0010
1000
0000
0100
0010
0001
0100
0010
1000
0000
1001
0000
1000
0010
,  // measure 27
0100
0000
0010
0200
0300
0002
0003
0200
1000
0000
0001
0000
0010
0000
0301
1000
,  // measure 28
0001
0010
0100
1000
0000
0010
0100
0001
1000
0100
0010
0000
0011
0000
0010
0100
,  // measure 29
2000
0000
3010
0200
0300
0002
0003
2000
3200
0000
0310
0000
0012
0000
0103
0001
,  // measure 30
0010
0100
1000
0010
0100
0001
0010
0100
1000
0010
0100
0000
0101
0000
0001
1000
,  // measure 31
0200
0300
0100
2000
3000
0020
0030
0200
0301
0000
1000
0000
1010
0000
0010
0100
,  // measure 32
0001
0010
0100
1000
0010
0100
1000
0100
0001
1000
0100
0000
0101
0000
0100
1000
,  // measure 33
0020
0000
0130
0002
0003
2000
3000
0200
2300
0000
3010
0000
0102
0000
1003
0000
,  // measure 34
1100
0000
0100
0001
0200
0000
2300
0000
3020
0000
0230
0000
0302
0000
0203
0300
,  // measure 35
0110
0000
0010
0100
0001
0000
0010
0100
1000
0000
0010
0100
0001
0000
0010
0100
,  // measure 36
1000
0000
0001
0100
0110
0000
0010
0000
1001
0000
1000
0001
0101
0000
0001
1000
,  // measure 37
1100
0000
1000
0100
0010
0000
0001
0100
0010
0000
0200
0301
2000
0000
3100
0010
,  // measure 38
0001
0000
0100
0010
1010
0000
1000
0000
0110
0000
0101
0000
1001
0000
1100
0000
,  // measure 39
1001
0000
1000
0010
0001
0000
0010
1000
0001
0000
0100
0001
0010
0000
0100
1000
,  // measure 40
0010
0000
0100
0010
1010
0000
1000
0000
0011
0000
0001
1000
1100
0000
1000
0001
,  // measure 41
0101
0000
1000
0001
0010
0000
0001
1000
0200
0000
1000
0000
0010
0000
1300
0000
,  // measure 42
1000
0010
0100
0001
0010
0100
1000
0010
0100
0001
0010
0100
1000
0001
0010
0000
,  // measure 43
0001
0010
0100
1000
0100
0010
0001
0010
0100
1000
0100
0010
0001
0100
0010
0000
,  // measure 44
1000
0100
0010
1000
0010
0100
1000
0010
0100
1000
0100
0010
1000
0100
0010
0000
,  // measure 45
0001
0100
0010
0001
0010
0100
0001
0010
0100
0001
0100
0010
0001
0100
0010
0000
,  // measure 46
1000
0010
0100
1000
0100
0010
1000
0100
0010
0100
1000
0010
0100
0001
1000
0000
,  // measure 47
0001
0010
1000
0001
1000
0010
0001
1000
0001
0010
1000
0001
1000
0010
0100
0000
,  // measure 48
0001
0100
1000
0001
1000
0100
0001
1000
0001
0100
1000
0001
1000
0001
0100
0000
,  // measure 49
0001
0100
0010
1000
0100
0001
0100
1000
0010
0100
0001
0010
0100
1000
0010
0100
,  // measure 50
0220
0000
0330
0000
;

//---------------dance-double - ---------------
#NOTES:
     dance-double:
     :
     Challenge:
     17:
     0,0,0,0,0:
// measure 0
00000000
00000000
00000000
00000000
,  // measure 1
00021000
00000000
00000000
00001000
00000000
00000000
00001000
00000000
00000000
00001000
00000000
00000000
00031000
00000000
00010000
00000000
,  // measure 2
00000200
00000000
00000000
00001000
00000000
00000000
00001000
00000000
00000000
00001000
00000000
00000000
00001300
00000000
00000001
00000000
,  // measure 3
00000020
00000000
00000000
00000001
00000000
00000000
00000001
00000000
00000000
00000001
00000000
00000000
00000031
00000000
00001000
00000000
,  // measure 4
00002000
00000000
00000000
00000001
00000000
00000000
00000001
00000000
00000000
00000001
00000000
00000000
00003001
00000000
00000010
00000000
,  // measure 5
00000110
00000000
00000010
00000100
00001000
00000000
00001100
00000000
00001000
00000001
00000100
00000000
00000101
00000000
00000001
00001000
,  // measure 6
00000100
00000000
00000100
00001000
00000010
00000000
00000100
00000000
00000101
00000000
00001100
00000000
00011000
00000000
00110000
00000000
,  // measure 7
01100000
00000000
00100000
01000000
10000000
00000000
10010000
00000000
10000000
00010000
00100000
00000000
00110000
00000000
00010000
00100000
,  // measure 8
01000000
00000000
01000000
10000000
00010000
00000000
10000000
00000000
02000000
00000000
00000000
00000000
13000000
00000000
00000000
00000000
,  // measure 9
10000000
00100000
01000000
00010000
00100000
01000000
10000000
00100000
01000000
00010000
00100000
01000000
10000000
00010000
01000000
00000000
,  // measure 10
00001000
00100000
00010000
00100000
00001000
00010000
00001000
00100000
00010000
00100000
00001000
00010000
00001000
01000000
00100000
00000000
,  // measure 11
01000000
00010000
00100000
01000000
10000000
00100000
01000000
00010000
00100000
01000000
10000000
00100000
01000000
00010000
00100000
00000000
,  // measure 12
00010000
00100000
01000000
00010000
01000000
00100000
00010000
01000000
00100000
01000000
00010000
00100000
00001000
00010000
00000100
00000000
,  // measure 13
00000100
00001000
00000010
00000100
00000001
00000010
00000100
00001000
00000010
00000100
00000001
00000010
00000100
00001000
00000010
00000000
,  // measure 14
00000100
00000001
00000010
00000100
00000010
00000001
00000100
00000010
00000100
00000001
00000010
00000100
00000010
00000001
00001000
00000000
,  // measure 15
00001000
00000010
00000100
00001000
00000100
00000001
00000010
00000100
00001000
00000010
00000100
00001000
00000100
00000001
00001000
00000000
,  // measure 16
00001000
00000001
00000010
00000100
00001000
00000010
00000100
00000010
00001000
00000100
00000001
00000100
00001000
00000010
00010000
00001000
,  // measure 17
00022000
00000000
00033000
00000000
00011000
00000000
00001000
00100000
01000000
10000000
00020000
00000000
00000000
20030000
30000000
00000000
,  // measure 18
10010000
00000000
10000000
00000000
00020000
00030000
00010000
00100000
00000000
00010000
00000000
10000000
00010000
00000000
01000000
00000000
,  // measure 19
00200000
00000000
01300000
00010000
00000000
10000000
00000000
02000000
00000000
10000000
00000000
00010000
00010000
00000000
13000000
00000000
,  // measure 20
00010000
00000000
01000000
00000000
00100000
00000000
10000000
01000000
00000000
00010000
00000000
01000000
00000000
10000000
00000000
00010000
,  // measure 21
02000000
03002000
00023000
00030200
,  // measure 22
00001300
00000000
00000100
00000000
00001000
00000000
00000001
00000010
00000000
00000001
00000000
00000200
00001300
00000000
00000100
00000000
,  // measure 23
00000020
00000000
00000130
00000001
00000000
00001000
00000000
00000200
00000000
00001000
00000000
00000001
00000001
00000000
00000310
00000000
,  // measure 24
00000022
00000000
00000033
00000000
00002200
00003300
00000000
00002002
00000000
00003003
00000000
00000000
00000110
00000000
00001010
00000000
,  // measure 25
00021000
00000000
00000000
00000000
00032000
00000000
00000000
00000000
02003000
00000000
00000000
00000000
03200000
00000000
00300000
00100000
,  // measure 26
10000000
01000000
00100000
00010000
00000000
00100000
00010000
01000000
00100000
10000000
00010000
00000000
10010000
00000000
10000000
01000000
,  // measure 27
00200000
00000000
01300000
10000000
00000000
00010000
00000000
02000000
00000000
00010000
00000000
00100000
00100000
03000000
00010000
10000000
,  // measure 28
01000000
00100000
00010000
10000000
00000000
10000000
01000000
00100000
00010000
10000000
01000000
00000000
10000000
00000000
00100000
01000000
,  // measure 29
00010000
00000000
00100000
00002000
00000000
00023000
00000000
00030000
00000200
00000000
00000000
00000000
00000320
00000000
00000030
00000010
,  // measure 30
00000001
00000100
00000010
00001000
00000000
00000010
00001000
00000100
00000010
00000001
00000100
00000000
00001000
00000000
00000100
00000001
,  // measure 31
00000020
00000030
00000100
00001000
00000000
00000001
00000000
00000200
00000000
00001000
00000000
00000001
00000001
00000000
00000310
00000100
,  // measure 32
00000001
00001000
00000100
00000010
00000000
00000010
00000100
00001000
00000001
00000100
00000010
00000000
00000100
00000000
00000001
00000100
,  // measure 33
00000020
00000030
00001000
00000001
00000000
00000200
00000000
00000000
00000320
00000000
00000000
00000000
00200030
00000000
00000000
00000000
,  // measure 34
01300000
00000000
01000000
10000000
00010000
00000000
10000000
00000000
10100000
00000000
00100000
00000000
01000000
00000000
00010000
00000000
,  // measure 35
10010000
00000000
10000000
00010000
00100000
00000000
00010000
10000000
00100000
00000000
01000000
00010000
00100000
00000000
01000000
10000000
,  // measure 36
00100000
00000000
01000000
00100000
10100000
00000000
10000000
00000000
10010000
00000000
00010000
00000000
00110000
00000000
00010000
00100000
,  // measure 37
02000000
23000000
30020000
02030000
03002000
00023000
00030200
00002300
,  // measure 38
00003001
00000000
00000001
00000100
00000110
00000000
00000010
00000000
00001010
00000000
00001000
00000000
00001001
00000000
00000001
00000000
,  // measure 39
00000101
00000000
00000001
00000100
00000010
00000000
00001000
00000100
00000010
00000000
00000001
00000010
00000100
00000000
00001000
00000010
,  // measure 40
00000100
00000000
00000100
00000001
00000101
00000000
00000001
00000000
00001001
00000000
00001000
00000000
00001100
00000000
00000100
00010000
,  // measure 41
00001000
00000000
00001000
00100000
01000000
00000000
10000000
00010000
02000000
00000000
00000000
00000000
03010000
00000000
00000000
00000000
,  // measure 42
00010000
00100000
01000000
10000000
00100000
01000000
00010000
00100000
01000000
10000000
00100000
01000000
00010000
00100000
00001000
00000000
,  // measure 43
00001000
00010000
00000010
00000100
00000010
00010000
00001000
00010000
00000010
00000100
00000010
00010000
00001000
00000100
00000010
00000000
,  // measure 44
00000010
00001000
00000001
00000010
00000100
00000010
00000001
00001000
00000010
00000100
00000010
00001000
00000001
00000100
00001000
00000000
,  // measure 45
00001000
00000100
00000001
00001000
00000100
00000001
00000100
00001000
00000001
00000100
00001000
00000100
00000001
00001000
00000010
00000000
,  // measure 46
00000010
00010000
00001000
00100000
00001000
00010000
00000010
00010000
00001000
00100000
00001000
00010000
00000010
00001000
00000100
00000000
,  // measure 47
00000100
00010000
00001000
01000000
00001000
00010000
00000100
00010000
00001000
01000000
00001000
00010000
00000100
00010000
00001000
00000000
,  // measure 48
00001000
00100000
00010000
00100000
01000000
00100000
00010000
00100000
00001000
00100000
00010000
00100000
01000000
10000000
00010000
00000000
,  // measure 49
10000000
00100000
01000000
00001000
00010000
00000010
00000100
00000001
00000010
00001000
00010000
01000000
10000000
00100000
01000000
00010000
,  // measure 50
20020000
00000000
00000000
30030000
;
