#TITLE:We've Got The World;
#SUBTITLE:(Live from Riga, Latvia, 2003);
#ARTIST:Mickey Harte;
#MUSIC:We've Got The World (Live from Riga, Latvia, 2003).ogg;
#BANNER:We've Got The World (Live from Riga, Latvia, 2003).png;
#BACKGROUND:We've Got The World (Live from Riga, Latvia, 2003)-bg.png;
#LYRICSPATH:;
#CDTITLE:;
#SAMPLESTART:34.028;
#SAMPLELENGTH:18.461;
#OFFSET:-0.566;
#BPMS:0.000000=104.000000;
#STOPS:;
#TIMESIGNATURES:0.000000=4=4;
#BGCHANGES:;
#FGCHANGES:;
#ATTACKS:;
#SPEEDS:0.000000=1.000000=0.000000=0;
#SCROLLS:0.000000=1.000000;
#KEYSOUNDS:;

//---------------dance-single - ---------------
#NOTES:
     dance-single:
     :
     Beginner:
     3:
     0,0,0,0,0:
// measure 0
0000
0000
0000
0000
,  // measure 1
0000
0000
0000
0000
,  // measure 2
1001
0000
1000
0000
,  // measure 3
0100
0000
0010
0000
,  // measure 4
0001
0000
0100
0000
,  // measure 5
1000
0000
0100
0000
,  // measure 6
0001
0000
0010
0000
,  // measure 7
0001
0000
0100
0000
,  // measure 8
0001
0000
1000
0000
,  // measure 9
0001
0000
0100
0000
,  // measure 10
0010
0000
1000
0000
,  // measure 11
0010
0000
0100
0000
,  // measure 12
0001
0000
0010
0000
,  // measure 13
0002
0000
0000
0003
,  // measure 14
0001
0000
1000
0000
,  // measure 15
0100
0000
0010
0000
,  // measure 16
0001
0000
0100
0000
,  // measure 17
0010
0000
1000
0000
,  // measure 18
0001
0000
0010
0000
,  // measure 19
0100
0000
0010
0000
,  // measure 20
0001
0000
1000
0000
,  // measure 21
0020
0000
0000
0030
,  // measure 22
0010
0000
1000
0000
,  // measure 23
0010
0000
0100
0000
,  // measure 24
0001
0000
0010
0000
,  // measure 25
0010
0000
0001
0000
,  // measure 26
0010
0000
0100
0000
,  // measure 27
1000
0000
0001
0000
,  // measure 28
0100
0000
0010
0000
,  // measure 29
2000
0000
0000
0000
,  // measure 30
0000
0000
3000
0000
,  // measure 31
1000
0000
0001
0000
,  // measure 32
0010
0000
0001
0001
,  // measure 33
0001
0000
1000
0000
,  // measure 34
0010
0000
0100
0000
,  // measure 35
0001
0000
1000
0000
,  // measure 36
0010
0000
0100
0000
,  // measure 37
0001
0000
0010
0000
,  // measure 38
0001
0000
1000
0000
,  // measure 39
0020
0000
0000
0030
,  // measure 40
0010
0000
1000
0000
,  // measure 41
0100
0000
0010
0000
,  // measure 42
0001
0000
1000
0000
,  // measure 43
0001
0000
0100
0000
,  // measure 44
1000
0000
0001
0000
,  // measure 45
0220
0000
0330
0000
;

//---------------dance-single - ---------------
#NOTES:
     dance-single:
     :
     Easy:
     6:
     0,0,0,0,0:
// measure 0
0000
0000
0000
0000
,  // measure 1
0000
0000
0000
0000
,  // measure 2
1001
1000
0010
0100
,  // measure 3
0001
0010
0100
1000
,  // measure 4
0001
0100
0010
1000
,  // measure 5
0001
0010
0100
1000
,  // measure 6
0001
0100
0010
1000
,  // measure 7
0001
0100
0001
0010
,  // measure 8
0100
1000
0100
0010
,  // measure 9
0001
1000
0010
0100
,  // measure 10
0100
0001
0010
1000
,  // measure 11
0010
0100
1000
0001
,  // measure 12
0100
0010
1000
0001
,  // measure 13
2000
0001
0010
0100
,  // measure 14
3010
1000
0001
0010
,  // measure 15
0100
1000
0010
0100
,  // measure 16
0001
1000
0100
0010
,  // measure 17
0001
2000
0100
3010
,  // measure 18
0001
0100
0001
0010
,  // measure 19
0100
1000
0010
0100
,  // measure 20
0010
1000
0100
0001
,  // measure 21
0200
1000
0010
1300
,  // measure 22
0010
0100
0001
1000
,  // measure 23
0110
0000
0010
1000
,  // measure 24
0001
0010
0100
1000
,  // measure 25
1001
0000
0001
1000
,  // measure 26
0010
0100
0001
1000
,  // measure 27
0100
1000
0002
0003
,  // measure 28
0100
0001
1000
0001
,  // measure 29
0020
0001
1000
0001
,  // measure 30
0100
0100
0001
0031
,  // measure 31
0001
0100
1000
0100
,  // measure 32
0001
1001
1000
0010
,  // measure 33
0100
0001
0010
0100
,  // measure 34
1000
0001
0100
0010
,  // measure 35
1000
0002
1000
0100
,  // measure 36
0013
0100
1000
0001
,  // measure 37
0100
0001
0010
0100
,  // measure 38
1000
0001
0100
0001
,  // measure 39
0020
1000
0001
0100
,  // measure 40
0031
0100
1000
0100
,  // measure 41
0010
1000
0001
0010
,  // measure 42
0100
1000
0001
0100
,  // measure 43
0010
2000
0001
0100
,  // measure 44
3010
0100
0001
1000
,  // measure 45
0220
0000
0330
0000
;

//---------------dance-single - ---------------
#NOTES:
     dance-single:
     :
     Medium:
     12:
     0,0,0,0,0:
// measure 0
0000
0000
0000
0000
,  // measure 1
0000
0000
0000
0000
,  // measure 2
1001
0000
1000
0000
0010
1000
0001
0000
,  // measure 3
0100
0000
0010
0000
1000
0001
0010
0000
,  // measure 4
0100
0000
0010
0000
0001
1000
0010
0000
,  // measure 5
0100
0000
0001
0000
1000
0010
0100
0000
,  // measure 6
0001
0000
0010
0000
0100
0010
0001
0000
,  // measure 7
0100
0000
0010
0000
1000
0001
0010
0000
,  // measure 8
0100
0000
1000
0000
0001
0100
0010
0000
,  // measure 9
2000
0000
0001
0000
3100
0000
0010
0100
,  // measure 10
1200
0001
0010
1300
,  // measure 11
1002
0100
0010
1003
,  // measure 12
1020
0100
0001
0130
,  // measure 13
2010
0001
0100
0010
,  // measure 14
0200
0000
0000
0000
3300
0000
0000
0000
1000
0000
0000
0010
0000
0000
0100
0000
,  // measure 15
0202
0303
0001
0010
0220
0330
0100
1000
,  // measure 16
0010
0000
0100
0000
0001
0000
0001
0000
0020
0000
0000
0230
0000
0000
2300
0000
,  // measure 17
3002
0000
0000
0203
0000
0000
0000
0000
0310
0000
0010
0000
1000
0000
0001
0000
,  // measure 18
0100
0000
0010
0000
1000
0000
0001
0000
1000
0000
0000
0010
0000
0000
1000
0000
,  // measure 19
1200
0000
0000
0301
0000
0000
0100
0000
2100
0000
0000
0000
3010
0000
0002
0000
,  // measure 20
0000
0000
0000
0000
0000
0000
0023
0000
0230
0000
0000
0302
0000
0000
2003
0000
,  // measure 21
3020
0001
1000
0100
,  // measure 22
0031
0000
0001
0000
1000
0000
1000
0000
0010
0000
0010
0000
0000
1000
0000
0000
,  // measure 23
0110
0000
0010
0000
0000
0010
0000
0000
0100
0000
0000
0100
0000
0000
0001
0000
,  // measure 24
1000
0000
0000
0100
0000
0000
0020
0000
0030
0000
0010
0000
0000
0001
0000
0000
,  // measure 25
0110
0000
0010
0000
0000
0010
0000
0000
0001
0000
0000
1000
0000
0000
0100
0000
,  // measure 26
0110
0000
0100
1100
0000
1000
1001
0001
,  // measure 27
0200
0000
0000
0320
0000
0000
2030
0000
0000
0000
0000
0000
3001
0000
0001
0000
,  // measure 28
2000
0000
3020
0032
0000
0000
0023
2030
,  // measure 29
0000
0001
0100
0010
,  // measure 30
0001
0001
0100
3010
,  // measure 31
1000
0100
0001
0100
,  // measure 32
1000
0000
0000
0000
1001
0000
0000
0000
1000
0000
0000
0010
0000
0000
0100
0000
,  // measure 33
0202
0303
0001
1000
2020
3030
1000
0010
,  // measure 34
0100
0000
0001
0000
0010
0000
0001
0000
0200
0000
0000
0320
0000
0000
0230
0000
,  // measure 35
0302
0000
0000
0000
0000
0000
2003
0000
0000
0000
0000
0000
0000
0000
0000
0000
3100
0000
0000
0000
0020
0030
0000
0000
0100
0000
0000
0000
1000
0000
0000
0000
,  // measure 36
0001
0000
0100
0000
0010
0000
1000
0000
0200
0000
0000
2300
0000
0000
3020
0030
,  // measure 37
0220
0330
0010
1000
2020
3030
1000
0010
,  // measure 38
0100
0000
0001
0000
1000
0000
0100
0000
0020
0000
0000
0230
0000
1300
0000
0000
,  // measure 39
0220
0000
0000
0330
,  // measure 40
1001
0000
0000
0000
0110
0000
0010
0000
0002
0000
0000
0023
0000
0000
0031
0000
,  // measure 41
2002
3003
1000
0010
0220
0330
0100
0001
,  // measure 42
0010
0000
0100
0000
1000
0000
0001
0000
0200
0000
0000
0320
0000
0000
0230
0000
,  // measure 43
0302
0000
0000
2003
0000
0000
0000
0000
0100
0000
0001
0000
3100
0000
0010
0000
,  // measure 44
0011
0000
0001
0000
0100
0000
0010
0000
2000
0000
0000
3020
0000
0000
0130
0000
,  // measure 45
0220
0000
0330
0000
;

//---------------dance-single - ---------------
#NOTES:
     dance-single:
     :
     Hard:
     15:
     0,0,0,0,0:
// measure 0
0000
0000
0000
0000
,  // measure 1
0000
0000
0000
0000
,  // measure 2
1001
0000
0000
0001
1000
0000
0100
0000
0020
0000
0000
0032
0000
0000
2003
0000
,  // measure 3
3200
0000
0000
0320
0000
0000
0230
0000
1300
0000
0001
0000
0100
0000
0010
0000
,  // measure 4
0100
0000
0001
1000
0100
0000
1000
0000
0020
0000
0000
0230
0000
0000
0302
0000
,  // measure 5
1003
1000
0010
0010
0100
0100
0001
0001
,  // measure 6
1001
0000
0001
1000
0010
0000
0100
0000
0020
0000
0000
2030
0000
0000
3002
0000
,  // measure 7
0023
0000
0000
0230
0000
0000
1300
0000
0001
0000
0100
0000
0010
0000
1000
0000
,  // measure 8
1001
0000
0001
0100
0010
0000
1000
0000
0200
0000
0000
0320
0000
0000
0032
0000
,  // measure 9
2003
0000
0000
0000
0100
0000
0000
0000
0001
0000
0000
0000
3010
0100
0010
0000
,  // measure 10
2010
0000
0000
0010
0000
0000
3010
0000
1002
0000
0000
1000
0000
0000
1003
0000
,  // measure 11
0201
0000
0000
0001
0000
0000
0001
0000
0000
0000
1000
0000
0000
0310
1000
0000
,  // measure 12
0102
0000
0000
0100
0000
0000
0103
0000
2010
0000
0000
0010
0000
0000
3010
0000
,  // measure 13
0220
0000
0000
0000
0000
0000
0330
0000
0100
0010
1000
0001
0010
0100
1000
0001
,  // measure 14
0200
0000
0000
0000
0301
0000
0000
0000
0002
0000
0000
0023
0000
0000
0130
0000
,  // measure 15
0110
0000
0100
1000
0010
0000
0100
0001
0011
0000
0001
0100
0010
0000
0010
1000
,  // measure 16
0001
0000
0001
0010
0100
0000
0010
0000
0002
0003
0001
1000
0000
1000
0010
0000
,  // measure 17
0120
0030
0010
0100
0000
0100
0010
0000
1000
0010
0100
0010
1000
0001
0010
0001
,  // measure 18
0100
0000
0100
0001
0010
0000
0100
0000
2000
0000
0000
3002
0000
0000
0013
0000
,  // measure 19
0011
0000
0001
0100
0010
0000
1000
0000
1010
0000
1000
0001
0010
0000
0011
0000
,  // measure 20
0001
0000
0101
0000
0100
0000
0110
0000
2010
0000
0000
3002
0000
0000
0103
0000
,  // measure 21
0120
0000
1000
0000
0001
0100
1000
0130
,  // measure 22
1000
0000
0001
0010
0100
0000
1100
0000
0100
1000
0010
0000
0100
0001
0000
1000
,  // measure 23
1010
0000
1000
0010
0100
0001
0000
0001
0010
0000
0010
0100
0000
0100
1000
0000
,  // measure 24
1100
0000
0100
1000
0000
1000
0010
0000
0100
0001
0010
0000
0100
1000
0000
1000
,  // measure 25
1010
0000
0010
0100
0001
1000
0000
1000
0010
0000
0010
1000
0000
1000
0001
0000
,  // measure 26
0101
0000
0001
0100
1000
0000
0120
0000
1000
0000
0001
0000
0100
0000
1000
0000
,  // measure 27
0230
0000
0000
0302
0000
0000
0203
0000
0000
0000
0000
0000
0301
0000
2000
0000
,  // measure 28
3002
0000
0023
2030
0000
0000
3020
0032
,  // measure 29
0000
1000
0100
0010
,  // measure 30
0103
0000
0100
0000
0010
0000
0010
0000
1000
0001
0010
0001
0100
0010
1000
0001
,  // measure 31
0100
0000
0000
0100
0010
0000
1000
0000
0001
0000
0010
0000
0100
0000
1000
0000
,  // measure 32
0010
0000
0000
0000
0011
0000
0000
0000
2000
0000
0000
3200
0000
0000
0310
0000
,  // measure 33
0110
0000
0010
0001
0100
0000
0010
1000
1100
0000
1000
0010
0100
0000
0100
0001
,  // measure 34
1000
0000
1000
0100
0010
0000
0100
0000
2000
3000
1000
0001
0000
0001
0100
0000
,  // measure 35
0210
0300
0100
0010
0000
0010
0100
0000
0001
0100
0010
0100
0001
1000
0100
1000
,  // measure 36
0010
0000
0010
1000
0100
0000
0010
0000
0002
0000
0000
2003
0000
0000
3100
0000
,  // measure 37
1100
0000
1000
0010
0100
0000
0001
0000
0101
0000
0001
1000
0100
0000
1100
0000
,  // measure 38
1000
0000
1010
0000
0010
0000
0110
0000
0102
0000
0000
2003
0000
0000
3010
0000
,  // measure 39
0210
0000
0001
0000
1000
0010
0001
0310
,  // measure 40
0001
0000
1000
0100
0010
0000
0011
0000
1100
0000
0100
1000
0000
1000
0010
0000
,  // measure 41
0110
0000
0100
0001
0010
0000
0100
1000
1001
0000
0001
0100
0010
0000
1000
0001
,  // measure 42
0010
0000
0100
1000
0001
0000
0100
0000
0020
0030
0010
1000
0000
1000
0100
0000
,  // measure 43
1200
0300
0100
1000
0000
1000
0001
0000
0001
0100
0010
0100
0001
1000
0100
0010
,  // measure 44
0200
0000
1300
0001
0100
0000
0010
0000
2010
3000
0000
0120
0030
0000
0201
0300
,  // measure 45
2002
0000
3003
0000
;
