#VERSION:0.83;
#TITLE:WHAT A WONDERFUL WORLD;
#SUBTITLE:(D.U.S Special);
#ARTIST:BEATBOX vs DJ MIKO;
#TITLETRANSLIT:;
#SUBTITLETRANSLIT:;
#ARTISTTRANSLIT:;
#GENRE:;
#CREDIT:;
#ORIGIN:;
#MUSIC:WHAT A WONDERFUL WORLD (D.U.S Special).ogg;
#BANNER:WHAT A WONDERFUL WORLD (D.U.S Special).png;
#BACKGROUND:WHAT A WONDERFUL WORLD (D.U.S Special)-bg.png;
#JACKET:WHAT A WONDERFUL WORLD (D.U.S Special)-jacket.png;
#DISCIMAGE:;
#CDIMAGE:;
#SELECTABLE:YES;
#LYRICSPATH:;
#CDTITLE:cdtitle-dancemania.png;
#SAMPLESTART:17.32;
#SAMPLELENGTH:15;
#BPMS:0.000000=142.000000;
#STOPS:;
#WARPS:;
#DELAYS:;
#SPEEDS:;
#SCROLLS:190.000000=0.900000,
192.000000=0.800000,
194.000000=0.700000,
196.000000=0.600000,
198.000000=0.500000,
200.000000=0.400000,
202.000000=0.300000,
204.000000=0.200000,
206.000000=0.100000
;
#TICKCOUNTS:;
#TIMESIGNATURES:;
#LABELS:;
#COMBOS:;
#FAKES:;
#BGCHANGES:;
#FGCHANGES:;
#ATTACKS:;

//---------------dance-single - ---------------
#NOTEDATA:;
#CHARTNAME:;
#CHARTSTYLE:;
#CREDIT:;
#STEPSTYPE:dance-single;
#DESCRIPTION:;
#DIFFICULTY:Challenge;
#METER:16;
#METERF:16;
#RADARVALUES:;
#NOTES:
// measure 0
0000
0000
0000
0000
,  // measure 1
0000
0000
0000
0000
,  // measure 2
0000
0000
0000
0000
,  // measure 3
0000
0000
0000
0000
,  // measure 4
0000
0000
0000
0000
,  // measure 5
1002
0000
0000
1003
0001
0000
0100
0000
0120
0000
0000
0130
0010
0000
1000
0000
,  // measure 6
1200
0000
0000
1300
0100
0000
0010
0000
0021
0000
0000
0031
0010
0000
0100
0000
,  // measure 7
0201
0000
0000
0301
0100
0000
1000
0000
1002
0000
0000
1003
0001
0000
0010
0000
,  // measure 8
0210
0000
0000
0310
0100
0000
1000
0000
1010
0000
0000
0101
0000
0000
0011
0000
,  // measure 9
1010
0000
0000
0011
0000
0000
0101
0000
1100
0000
0000
0101
0000
0000
0011
0000
,  // measure 10
0110
0000
1010
0000
0101
0001
0010
0100
,  // measure 11
1000
0010
0100
1000
1100
1000
0100
0001
,  // measure 12
0010
0100
1000
0010
0110
0000
0101
0000
1001
0000
1000
0000
0100
0000
0010
0000
,  // measure 13
0001
1000
0010
0001
0010
1000
0001
0010
,  // measure 14
0100
1000
0010
0100
0101
0000
0100
0000
0010
0000
1000
0100
0010
0000
0001
0100
,  // measure 15
0010
0000
1000
0010
0100
0000
0001
0010
0100
0000
1000
0001
0100
0000
1000
0100
,  // measure 16
0001
0000
1000
0100
0010
0000
0001
0010
0100
0000
1000
0010
0100
0000
0001
0010
,  // measure 17
1000
0000
0010
0001
0100
0000
0010
1000
0100
0000
0010
0001
1000
0000
0010
0100
,  // measure 18
0001
0010
0100
1000
1010
0000
1000
0010
0200
0300
0001
1000
0020
0030
0100
0001
,  // measure 19
0020
0030
0100
1000
0020
0030
0100
0001
2000
3000
0001
1000
0200
0300
0010
0100
,  // measure 20
2000
3000
0001
0010
0200
0300
1000
0001
0200
0300
0010
1000
0200
0300
0001
0100
,  // measure 21
2000
3000
0010
0100
2000
3000
0100
0001
0020
0030
0100
1000
0020
0030
0100
0001
,  // measure 22
0020
0030
0100
1000
0020
0030
0100
0001
2002
0000
0000
0000
3013
0000
0000
0000
,  // measure 23
0220
0331
2200
3310
,  // measure 24
0202
0000
0000
0000
0313
0000
0000
0000
0100
0001
0010
0001
0100
0010
1000
0001
,  // measure 25
0010
0100
1000
0010
0200
0000
0301
0000
0100
0010
1000
0100
0001
0100
0010
0001
,  // measure 26
1000
0010
0100
1000
0200
0000
0301
0000
0010
0000
0100
0000
1000
0000
0010
0000
,  // measure 27
0100
1000
0100
0001
1001
1000
0100
0010
,  // measure 28
0001
0100
0010
1000
1001
0000
1000
0000
0010
0000
0100
0000
0001
0000
0010
0000
,  // measure 29
0100
1000
0010
0100
1100
0100
0010
1000
,  // measure 30
0001
0010
0100
1000
1001
0000
1000
0000
0010
0000
0100
0001
1000
0000
0100
1000
,  // measure 31
0010
0000
0100
0001
0010
0000
0100
1000
0010
0000
0100
0010
1000
0000
0100
0010
,  // measure 32
1000
0000
0010
0100
0001
0000
0100
1000
0010
0000
0100
0001
1000
0000
0100
0010
,  // measure 33
0001
0000
1000
0010
0100
0000
0100
0001
0010
0000
0100
1000
0001
0000
0100
0010
,  // measure 34
1000
0001
0010
0100
0110
0000
0100
0010
0002
0003
0100
0010
2000
3000
0100
1000
,  // measure 35
0020
0030
0100
0001
0020
0030
0100
1000
0002
0003
0100
1000
0200
0300
0010
1000
,  // measure 36
0200
0300
0010
0001
2000
3000
0010
0001
0020
0030
1000
0100
2000
3000
0001
0100
,  // measure 37
2000
3000
0100
0001
2000
3000
0100
0010
0002
0003
1000
0010
0200
0300
1000
0100
,  // measure 38
0020
0030
1000
0001
0020
0030
0100
1000
0001
0100
0001
0100
1000
0100
0001
0100
,  // measure 39
0001
0100
0001
0100
0010
0100
0001
0100
0001
0100
0001
0100
1000
0100
0001
0100
,  // measure 40
0001
0100
0001
1000
0100
0010
0100
1000
0002
0000
2003
0000
3020
0000
0230
0000
,  // measure 41
2300
0000
3200
0000
0320
0000
2030
0000
3001
0010
0100
1000
0010
0100
0001
0010
,  // measure 42
0100
1000
0001
0100
0001
1000
0100
0020
0200
0000
0000
0000
0000
0000
0000
0000
,  // measure 43
0000
0000
0331
0000
0100
1000
1001
1000
,  // measure 44
0001
0100
0110
0100
0001
0010
0110
0010
,  // measure 45
0001
1000
1010
1000
0100
0010
1010
0010
,  // measure 46
0001
0100
1100
0100
0010
1000
1001
1000
,  // measure 47
0100
0010
0011
0010
0100
1000
1010
0010
,  // measure 48
0100
0001
0011
0010
0100
1000
1001
1000
,  // measure 49
0100
0010
1010
0010
0100
1000
1010
0010
,  // measure 50
0100
0001
0101
0001
1001
1010
1001
0011
,  // measure 51
0001
0100
0010
1000
0001
0010
0100
1000
2002
0000
0000
0000
0000
0000
0000
0000
,  // measure 52
0000
3003
0000
0000
;

//---------------dance-double - ---------------
#NOTEDATA:;
#CHARTNAME:;
#CHARTSTYLE:;
#CREDIT:;
#STEPSTYPE:dance-double;
#DESCRIPTION:;
#DIFFICULTY:Challenge;
#METER:17;
#METERF:17;
#RADARVALUES:0,0,0,0,0;
#NOTES:
// measure 0
00000000
00000000
00000000
00000000
,  // measure 1
00000000
00000000
00000000
00000000
,  // measure 2
00000000
00000000
00000000
00000000
,  // measure 3
00000000
00000000
00000000
00000000
,  // measure 4
00000000
00000000
00000000
00000000
,  // measure 5
00012000
00000000
00003000
00010000
00001000
00000000
00100000
00000000
02100000
00000000
03000000
00100000
01000000
00000000
10000000
00000000
,  // measure 6
10020000
00000000
00030000
10000000
00010000
00000000
00100000
00000000
00120000
00000000
00030000
00100000
00010000
00000000
00000010
00000000
,  // measure 7
00000210
00000000
00000300
00000010
00000100
00000000
00001000
00000000
00001002
00000000
00000003
00001000
00000001
00000000
00000100
00000000
,  // measure 8
00000210
00000000
00000300
00000010
00010000
00000000
00001000
00000000
00011000
00000000
00000000
10010000
00000000
00000000
00001001
00000000
,  // measure 9
00000110
00000000
00000000
01100000
00000000
00000000
00011000
00000000
01010000
00000000
00000000
00001010
00000000
00000000
00110000
00000000
,  // measure 10
00001100
00000000
00011000
00000000
10010000
10000000
00100000
01000000
,  // measure 11
00010000
00100000
01000000
10000000
00100000
00010000
00001000
00000010
,  // measure 12
00000001
00000100
00000010
00001000
00001001
00000000
00000001
00000000
00000010
00000000
00000100
00000000
00001000
00000000
00000010
00000000
,  // measure 13
00000100
00001000
00000100
00000001
00000010
00001000
00010000
00100000
,  // measure 14
01000000
00010000
00100000
01000000
11000000
00000000
10000000
00000000
00100000
00000000
00010000
00000000
00100000
00000000
10000000
00000000
,  // measure 15
01000000
00010000
00001000
00000100
00000010
00001000
00000001
00000010
,  // measure 16
00000100
00000010
00000001
00000100
00000110
00000000
00000010
00000000
00000100
00000000
00000001
00000000
00000010
00000000
00000100
00000000
,  // measure 17
00001000
00000010
00100000
00010000
01000000
00100000
10000000
00010000
,  // measure 18
00100000
01000000
10000000
00100000
01100000
00000000
01000000
00000000
00100000
10000000
00010000
00100000
00002000
00000000
00013000
00000000
,  // measure 19
00010000
00000010
00000100
00000001
00000020
00000000
00001030
00000000
00000010
00000001
00000100
00000010
00002000
00000000
00003100
00000000
,  // measure 20
00001000
00000100
00010000
00001000
00200000
00000000
00310000
00000000
00010000
01000000
00100000
10000000
00020000
00000000
00130000
00000000
,  // measure 21
00100000
00001000
00010000
00000010
00000200
00000000
00001300
00000000
00001000
00000100
00000001
00000010
00000200
00000000
00001300
00000000
,  // measure 22
00000100
00010000
00001000
00100000
02000000
00000000
13000000
00000000
20020000
00000000
00000000
00000000
30130000
00000000
00000000
00000000
,  // measure 23
02200000
03310000
00022000
00033100
,  // measure 24
00002002
00000000
00000000
00000000
00003103
00000000
00000000
00000000
00000001
00000010
00000100
00000010
00000001
00000100
00000010
00001000
,  // measure 25
00000100
00000010
00000001
00000010
00000100
00001000
00000020
00000000
00000130
00000000
00000100
00000001
00001000
00000000
00001000
00000100
,  // measure 26
00010000
00000000
00010000
00001000
00100000
00000000
00100000
00010000
01010000
00000000
01000000
00000000
00100000
00000000
10000000
00000000
,  // measure 27
00010000
00100000
00001000
00010000
00000100
00001000
00000010
00000100
,  // measure 28
00000001
00000010
00000100
00001000
00001010
00000000
00000010
00000000
00000110
00000000
00000100
00000000
00000001
00000000
00010000
00000000
,  // measure 29
00001000
00100000
01000000
10000000
00100000
01000000
10000000
01000000
,  // measure 30
00010000
00100000
01000000
10000000
10010000
00000000
10000000
00000000
00100000
00000000
00001000
00000000
00000010
00000000
00001000
00000000
,  // measure 31
00100000
10000000
01000000
00001000
00000100
00000010
00000001
00001000
,  // measure 32
00000010
00000100
00001000
00000100
00000101
00000000
00000001
00000000
00000010
00000000
00000100
00000000
00010000
00000000
00000100
00000000
,  // measure 33
00000010
00000001
00010000
00001000
00100000
01000000
10000000
00100000
,  // measure 34
01000000
00010000
00100000
01000000
11000000
00000000
10000000
00000000
00100000
00000000
01000000
00010000
10000000
00000000
10000000
01000000
,  // measure 35
00010000
00000000
00010000
00001000
00000100
00000000
00000100
00000001
00000010
00000000
00000010
00001000
00010000
00000000
00010000
00100000
,  // measure 36
01000000
00010000
00100000
01000000
11000000
00000000
10000000
00000000
00100000
00000000
01000000
10000000
01000000
00000000
00100000
10000000
,  // measure 37
00010000
00000000
00100000
00001000
00010000
00000000
00000010
00000100
00000001
00000000
00000001
00001000
00000100
00000000
00000100
00010000
,  // measure 38
00001000
00000000
00001000
01000000
00100000
00000000
10100000
00000000
01010000
01000000
00001000
00010000
00000010
00000100
00000001
00000010
,  // measure 39
00000100
00001000
00000010
00010000
00001000
00100000
01000000
10000000
00100000
01000000
10000000
01000000
00010000
00100000
00000010
00000100
,  // measure 40
00000001
00000010
00001000
00000010
00000001
00000100
00001000
00000100
00000010
00001000
00000001
00000010
00000100
00010000
00001000
00100000
,  // measure 41
01000000
00100000
00010000
00100000
01000000
10000000
00100000
10000000
01000000
00100000
00001000
00010000
00000010
00000100
00000001
00000010
,  // measure 42
00001000
00010000
00100000
10000000
01000000
00010000
00001000
00000200
00000020
00000000
00000000
00000000
00000000
00000000
00000000
00000000
,  // measure 43
00000000
00000000
00001330
00000000
00000100
00000001
00001001
00000001
,  // measure 44
00000100
00000010
00001010
00000010
00000100
00000001
00010001
00000001
,  // measure 45
00001000
00000010
00010010
00000010
00000100
00001000
00011000
00010000
,  // measure 46
01000000
10000000
10010000
10000000
00100000
01000000
11000000
01000000
,  // measure 47
00100000
10000000
11000000
10000000
00100000
01000000
00001000
00010000
,  // measure 48
00000010
00000100
00000001
00000010
00001000
00000010
00000100
00001000
,  // measure 49
00000010
00000100
00001000
00000100
00000001
00010000
00001000
00100000
,  // measure 50
01100000
01100000
11000000
11000000
10010000
10010000
01010000
01010000
,  // measure 51
01000000
00010000
00100000
00001000
00010000
00000010
00000100
00000001
00002002
00000000
00000000
00000000
00000000
00000000
00000000
00000000
,  // measure 52
00000000
00003003
00000000
00000000
;
