#TITLE:Vljubena;
#SUBTITLE:;
#ARTIST:Zana Aliu;
#MUSIC:Vljubena.ogg;
#BANNER:Vljubena.png;
#BACKGROUND:Vljubena-bg.png;
#LYRICSPATH:;
#CDTITLE:;
#SAMPLESTART:63.51;
#SAMPLELENGTH:16.625000000000007;
#OFFSET:-0.134;
#BPMS:0.000000=120.000000;
#STOPS:;
#TIMESIGNATURES:0.000000=4=4;
#BGCHANGES:;
#FGCHANGES:;
#ATTACKS:;
#SPEEDS:0.000000=1.000000=0.000000=0;
#SCROLLS:0.000000=1.000000;
#KEYSOUNDS:;

//---------------dance-single - ---------------
#NOTES:
     dance-single:
     :
     Easy:
     7:
     0,0,0,0,0:
// measure 0
0000
0000
0000
0000
,  // measure 1
0000
0000
0000
0000
,  // measure 2
0000
0000
0000
0000
,  // measure 3
0000
0000
0000
0000
,  // measure 4
1000
0100
0001
0100
,  // measure 5
1000
0010
0100
0101
,  // measure 6
0001
1000
0100
0010
,  // measure 7
0220
0000
0000
0330
,  // measure 8
1000
0001
0220
0330
,  // measure 9
2002
3003
0220
0330
,  // measure 10
1000
0001
0202
0303
,  // measure 11
2020
3030
0202
0303
,  // measure 12
2000
3001
0002
1003
,  // measure 13
2002
3003
0220
0330
,  // measure 14
0200
0310
0002
0013
,  // measure 15
0022
0033
1100
1001
,  // measure 16
1000
0100
0010
0100
,  // measure 17
1000
0001
1001
1001
,  // measure 18
0001
0100
0010
1000
,  // measure 19
0001
0100
0010
0110
,  // measure 20
0010
0100
0001
1000
,  // measure 21
0100
0010
0100
1100
,  // measure 22
1000
0001
0100
0010
,  // measure 23
1000
0100
0001
0100
,  // measure 24
1000
0010
0100
0001
,  // measure 25
0010
0100
1000
1001
,  // measure 26
1000
0010
0100
0010
,  // measure 27
1000
0001
0010
0110
,  // measure 28
0010
0001
0100
0010
,  // measure 29
1000
0001
0100
0110
,  // measure 30
0010
1000
0001
0100
,  // measure 31
1000
0100
0001
0010
,  // measure 32
1000
0010
0001
0100
,  // measure 33
0010
0110
1001
1000
,  // measure 34
0001
0010
0100
1000
,  // measure 35
0010
0001
0010
1000
,  // measure 36
0001
0010
1000
0010
,  // measure 37
0001
0100
0101
0001
,  // measure 38
1000
0100
0001
0100
,  // measure 39
1000
0001
1001
1000
,  // measure 40
0010
1000
0010
0001
,  // measure 41
0010
1000
0100
0001
,  // measure 42
0100
1000
0010
0100
,  // measure 43
0001
0010
1000
0010
,  // measure 44
0001
0100
1000
0100
,  // measure 45
0001
0010
0100
1000
,  // measure 46
0010
0100
0001
0010
,  // measure 47
1000
0010
0100
1000
,  // measure 48
0001
0100
1000
0100
,  // measure 49
0001
1001
0110
0010
,  // measure 50
1000
0100
0001
0100
,  // measure 51
1000
0010
0001
0010
,  // measure 52
1000
0001
0010
0100
,  // measure 53
1000
1001
1001
0001
,  // measure 54
1000
0010
0100
0001
,  // measure 55
0010
0100
1000
0001
,  // measure 56
1001
0000
0000
0000
;

//---------------dance-single - ---------------
#NOTES:
     dance-single:
     :
     Medium:
     11:
     0,0,0,0,0:
// measure 0
0000
0000
0000
0000
,  // measure 1
0000
0000
0000
0000
,  // measure 2
0000
0000
0000
0000
,  // measure 3
0000
0000
0000
0000
,  // measure 4
1001
0001
0011
1100
,  // measure 5
1001
0000
0001
0000
1001
1000
0001
0000
,  // measure 6
1001
1000
1010
0101
,  // measure 7
2002
0000
0000
0000
3003
0000
1000
0001
,  // measure 8
0010
0000
0010
0100
1000
0000
0000
0001
,  // measure 9
1000
0000
0000
1000
0001
0000
1000
0010
,  // measure 10
0100
0000
0010
0100
0001
0000
0000
1000
,  // measure 11
0001
0000
0000
0001
1000
0000
0001
1000
,  // measure 12
0010
0000
0010
0100
0001
0000
0000
0001
,  // measure 13
0001
0000
0000
1000
1000
0000
1000
0010
,  // measure 14
0100
0000
0100
0001
0010
0000
0000
1000
,  // measure 15
1000
0000
0000
0001
0001
0000
1001
0000
,  // measure 16
1100
0000
1000
0100
0010
0000
0110
0000
,  // measure 17
0010
0001
0100
0010
1000
1000
1001
0000
,  // measure 18
0101
0000
0001
0100
0010
0000
1010
0000
,  // measure 19
1000
0010
0100
0010
1000
0001
1001
0000
,  // measure 20
0110
0000
0010
0100
0001
0000
0101
0000
,  // measure 21
0001
0100
0010
0100
0001
1000
1001
0000
,  // measure 22
1100
0000
1000
0001
0100
0000
0110
0000
,  // measure 23
0020
2030
3002
1003
,  // measure 24
1010
0000
0010
0100
0002
0000
1000
0000
,  // measure 25
1003
0001
0010
0001
1000
0010
0110
0000
,  // measure 26
1000
0000
1000
0001
0020
0000
0100
0000
,  // measure 27
0130
1000
0001
0100
0010
0010
1010
0000
,  // measure 28
0101
0000
0001
0100
0020
0000
1000
0000
,  // measure 29
1030
0010
0100
0001
0010
0010
0110
0000
,  // measure 30
0011
0000
0001
0010
0200
0000
1300
0000
,  // measure 31
2000
0000
3020
0000
0230
0000
0301
1000
,  // measure 32
0100
0000
0100
1000
0020
0000
2030
0000
,  // measure 33
3001
0100
0010
0010
0010
0000
0010
1000
,  // measure 34
0100
0000
0100
0010
0002
0000
2003
0000
,  // measure 35
3100
0001
0100
1000
0001
0001
0100
0000
,  // measure 36
0001
0000
0100
0010
2000
0000
3002
0000
,  // measure 37
0013
0001
0100
0001
1000
0000
0001
0000
,  // measure 38
1000
0000
0100
1000
0020
0000
2030
0000
,  // measure 39
3100
0001
0100
1000
0001
1000
1001
0000
,  // measure 40
0001
0000
0100
0001
0010
0000
0000
0002
,  // measure 41
1003
0000
0000
2000
3001
0000
0001
0010
,  // measure 42
0100
0000
0100
1000
0010
0000
0000
2000
,  // measure 43
3001
0000
0000
0002
1003
0000
1000
0001
,  // measure 44
0010
0000
0010
0100
1000
0000
0000
0002
,  // measure 45
0013
0000
0000
0020
0130
0000
0100
1000
,  // measure 46
0001
0000
0001
0100
1000
0000
0000
2000
,  // measure 47
3100
0000
0000
0002
0103
0000
1000
0001
,  // measure 48
0010
0000
0100
1000
0002
0000
2003
0000
,  // measure 49
3001
0100
1001
1001
1001
0000
1000
0001
,  // measure 50
0100
0000
0100
0001
2000
0000
3002
0000
,  // measure 51
0103
1000
0100
0001
1000
1000
1001
0001
,  // measure 52
0010
0000
0010
0100
2000
0000
3020
0000
,  // measure 53
0130
0010
1000
0001
0010
0000
0010
0001
,  // measure 54
0100
0000
0100
0010
2000
0000
3020
0000
,  // measure 55
0130
0010
1000
0001
0010
0100
0010
0100
,  // measure 56
0110
0000
0000
0000
;

//---------------dance-single - ---------------
#NOTES:
     dance-single:
     :
     Beginner:
     4:
     0,0,0,0,0:
// measure 0
0000
0000
0000
0000
,  // measure 1
0000
0000
0000
0000
,  // measure 2
0000
0000
0000
0000
,  // measure 3
0000
0000
0000
0000
,  // measure 4
1000
0000
0001
0000
,  // measure 5
1000
1000
1000
0000
,  // measure 6
0001
0000
1000
0000
,  // measure 7
2002
0000
3003
0000
,  // measure 8
0010
0010
0010
0000
,  // measure 9
0100
0100
0100
0000
,  // measure 10
1000
1000
1000
0000
,  // measure 11
0001
0001
0001
0000
,  // measure 12
0100
0100
0100
0000
,  // measure 13
0010
0010
0010
0000
,  // measure 14
1000
1000
1000
0000
,  // measure 15
0001
0001
0001
0000
,  // measure 16
1000
0000
0001
0000
,  // measure 17
0100
0100
0100
0000
,  // measure 18
0001
0000
1000
0000
,  // measure 19
0100
0100
0100
0000
,  // measure 20
1000
0000
0001
0000
,  // measure 21
0010
0010
0010
0000
,  // measure 22
0001
0000
1000
0000
,  // measure 23
0010
0010
0010
0000
,  // measure 24
1000
0000
0100
0000
,  // measure 25
0001
0001
0001
0000
,  // measure 26
0001
0000
0100
0000
,  // measure 27
1000
1000
1000
0000
,  // measure 28
1000
0000
0001
0000
,  // measure 29
0100
0100
0100
0000
,  // measure 30
0001
0000
1000
0000
,  // measure 31
0010
0010
0010
0000
,  // measure 32
1000
0000
0001
0000
,  // measure 33
0010
0010
0010
0000
,  // measure 34
0001
0000
1000
0000
,  // measure 35
0001
0001
0001
0000
,  // measure 36
0001
0000
0100
0000
,  // measure 37
0010
0010
0010
0000
,  // measure 38
1000
0000
0100
0000
,  // measure 39
0010
0010
0010
0000
,  // measure 40
0001
0001
0001
0000
,  // measure 41
1000
1000
1000
0000
,  // measure 42
0001
0001
0001
0000
,  // measure 43
0010
0010
0010
0000
,  // measure 44
0001
0001
0001
0000
,  // measure 45
0100
0100
0100
0000
,  // measure 46
0010
0010
0010
0000
,  // measure 47
1000
1000
1000
0000
,  // measure 48
0001
0000
1000
0000
,  // measure 49
0010
0010
0010
0000
,  // measure 50
1000
0000
0001
0000
,  // measure 51
0100
0100
0100
0000
,  // measure 52
0001
0000
0010
0000
,  // measure 53
0100
0100
0100
0000
,  // measure 54
1000
0000
0010
0000
,  // measure 55
0100
0100
0100
0000
,  // measure 56
1001
0000
0000
0000
;

//---------------dance-single - ---------------
#NOTES:
     dance-single:
     :
     Hard:
     14:
     0,0,0,0,0:
// measure 0
0000
0000
0000
0000
,  // measure 1
0000
0000
0000
0000
,  // measure 2
0000
0000
0000
0000
,  // measure 3
0000
0000
0000
0000
,  // measure 4
1001
0000
0000
0001
0100
0000
0001
0000
2002
0000
3003
0000
0220
0000
0330
0000
,  // measure 5
1001
0000
0000
1000
0100
0000
1000
0000
0001
0000
0010
0000
0110
0000
0000
0000
,  // measure 6
1001
0000
0000
1000
0010
0000
1000
0000
2020
0000
3030
0000
0202
0000
0303
0000
,  // measure 7
2002
0000
0000
0000
3003
0000
1000
0001
,  // measure 8
0010
0000
0000
0010
0100
0000
1000
0000
0001
0000
0000
0001
0100
0000
0010
0000
,  // measure 9
1000
0000
0000
1000
0100
0000
0010
0000
0001
0000
1000
0000
1001
0000
1000
0000
,  // measure 10
0001
0000
0000
0001
0010
0000
0100
0000
1000
0000
0000
1000
0001
0000
0100
0000
,  // measure 11
0010
0000
0000
0010
1000
0000
0001
0000
1000
0000
0010
0000
0110
0000
0010
0000
,  // measure 12
1000
0000
0000
1000
0001
0000
0010
0000
1000
0000
0000
1000
0010
0000
0001
0000
,  // measure 13
0100
0000
0000
0100
0010
0000
1000
0000
0001
0000
0010
0000
1010
0000
0010
0000
,  // measure 14
0001
0000
0000
0001
0100
0000
0010
0000
1000
0000
0000
1000
0100
0000
0001
0000
,  // measure 15
0100
0000
0000
0100
1000
0000
0010
0000
0100
0000
0001
0000
1001
0000
0001
0000
,  // measure 16
1001
0000
0000
0001
0010
0000
0100
0000
2000
0000
0000
0000
3002
0000
0000
0000
,  // measure 17
0103
1000
0100
0001
0010
0100
0110
0010
,  // measure 18
1000
0000
0000
1000
0010
0000
0001
0000
0200
0000
0000
0000
2300
0000
0000
0000
,  // measure 19
3100
0001
0010
0100
1000
0010
1010
0010
,  // measure 20
1000
0000
0000
1000
0001
0000
0010
0000
0002
0000
0000
0000
0203
0000
0000
0000
,  // measure 21
0310
1000
0001
0100
0010
1000
1010
1000
,  // measure 22
0001
0000
0000
0001
0010
0000
0100
0000
2000
0000
0000
0000
3200
0000
0000
0000
,  // measure 23
2300
0001
3020
0100
2030
3010
1001
0000
,  // measure 24
0110
0000
0000
0010
0100
0000
0001
0000
2000
0000
0000
0000
3200
0000
0000
0000
,  // measure 25
1300
0010
0100
0010
1000
0001
0011
0001
,  // measure 26
1000
0000
0000
1000
0010
0000
0010
0000
2000
0000
0000
0000
3002
0000
0000
0000
,  // measure 27
1003
1000
0100
0010
0001
1000
1001
0000
,  // measure 28
0101
0000
0000
0001
1000
0000
0001
0000
0200
0000
0000
0000
2300
0000
0000
0000
,  // measure 29
3100
0010
1000
0001
0010
0010
0110
0000
,  // measure 30
1100
0000
0000
0100
1000
0000
0001
0000
0200
0000
0000
0000
2300
0000
0000
0000
,  // measure 31
3200
1000
0302
1000
0013
0100
0110
0010
,  // measure 32
0001
0000
0000
0001
0100
0000
0010
0000
2000
0000
0000
0000
3002
0000
0000
0000
,  // measure 33
1003
0100
1001
1001
0110
0000
1000
0010
,  // measure 34
0100
0000
0000
0100
0001
0000
0010
0000
0002
0000
0000
0000
2003
0000
0000
0000
,  // measure 35
3100
0001
0100
1000
0010
0100
0101
0100
,  // measure 36
0001
0000
0000
0001
0100
0000
0010
0000
2000
0000
0000
0000
3002
0000
0000
0000
,  // measure 37
0013
0001
0100
0001
1000
0001
1001
0001
,  // measure 38
1000
0000
0000
1000
0010
0000
0100
0000
0020
0000
0000
0000
2030
0000
0000
0000
,  // measure 39
3100
1000
0010
0100
0001
0001
1001
1000
,  // measure 40
0001
0000
0000
0001
0010
0000
0100
0000
1000
0000
0000
1000
0001
0000
0100
0000
,  // measure 41
0010
0000
0000
0010
1000
0000
0001
0000
0010
0000
0100
0000
0110
0000
0010
0000
,  // measure 42
1000
0000
0000
1000
0010
0000
0001
0000
0100
0000
0000
0100
0010
0000
1000
0000
,  // measure 43
0100
0000
0000
0100
0001
0000
0100
0000
1000
0000
0001
0000
1001
0000
1000
0000
,  // measure 44
0001
0000
0000
0001
0100
0000
1000
0000
0100
0000
0000
0100
0001
0000
0010
0000
,  // measure 45
0100
0000
0000
0100
1000
0000
0010
0000
0100
0000
0010
0000
0110
0000
0010
0000
,  // measure 46
1000
0000
0000
1000
0001
0000
0010
0000
0100
0000
0000
0100
1000
0000
0010
0000
,  // measure 47
0100
0000
0000
0100
0001
0000
0010
0000
0100
0000
0010
0000
0011
0000
0010
0000
,  // measure 48
0100
0000
0000
0100
1000
0000
0001
0000
0200
0000
0000
0000
2300
0000
0000
0000
,  // measure 49
3100
0001
1001
1001
0110
0000
0010
1000
,  // measure 50
0001
0000
0000
0001
0010
0000
0100
0000
2000
0000
0000
0000
3002
0000
0000
0000
,  // measure 51
0103
1000
0100
0001
0010
0100
1100
0100
,  // measure 52
0010
0000
0000
0010
0001
0000
0100
0000
0002
0000
0000
0000
2003
0000
0000
0000
,  // measure 53
3010
1000
0100
1000
0001
0010
1010
0010
,  // measure 54
0001
0000
0000
0001
0100
0000
0010
0000
0020
0000
0000
0000
2030
0000
0000
0000
,  // measure 55
3100
1000
0010
0100
0001
1000
1000
0001
,  // measure 56
1001
0000
0000
0000
;
