#TITLE:Viva La Dance!;
#SUBTITLE:;
#ARTIST:Sarlote and The Sea Stones;
#MUSIC:Viva La Dance!.ogg;
#BANNER:Viva La Dance!.png;
#BACKGROUND:Viva La Dance!-bg.png;
#LYRICSPATH:;
#CDTITLE:;
#SAMPLESTART:33.09;
#SAMPLELENGTH:15;
#OFFSET:-0.09;
#BPMS:0.000000=130.000000;
#STOPS:;
#TIMESIGNATURES:0.000000=4=4;
#BGCHANGES:;
#FGCHANGES:;
#ATTACKS:;
#SPEEDS:0.000000=1.000000=0.000000=0;
#SCROLLS:0.000000=1.000000;
#KEYSOUNDS:;

//---------------dance-single - ---------------
#NOTES:
     dance-single:
     :
     Beginner:
     4:
     0,0,0,0,0:
// measure 0
0000
0000
0000
0000
,  // measure 1
0000
0000
0000
0000
,  // measure 2
1000
0000
0001
0000
,  // measure 3
0001
0000
1000
0000
,  // measure 4
1000
0000
0010
0000
,  // measure 5
0010
0000
1000
0000
,  // measure 6
0010
0000
0100
0000
,  // measure 7
0001
0000
0010
0000
,  // measure 8
0010
0000
0001
0000
,  // measure 9
1000
0000
0001
0000
,  // measure 10
1000
0000
0010
0000
,  // measure 11
1000
0000
0001
0000
,  // measure 12
0100
0000
0001
0000
,  // measure 13
0100
0000
1000
0000
,  // measure 14
0010
0000
0010
0000
,  // measure 15
1000
0000
0100
0000
,  // measure 16
0020
0000
0030
0000
,  // measure 17
0220
0000
0330
0000
,  // measure 18
1001
0000
1000
0000
,  // measure 19
0001
0000
0010
0000
,  // measure 20
0001
0000
1000
0000
,  // measure 21
0100
0000
1000
0000
,  // measure 22
0010
0000
1000
0000
,  // measure 23
0001
0000
0010
0000
,  // measure 24
0001
0000
1000
0000
,  // measure 25
0001
0000
0010
0000
,  // measure 26
0110
0000
0010
0000
,  // measure 27
0001
0000
1000
0000
,  // measure 28
0001
0000
0010
0000
,  // measure 29
0100
0000
0010
0000
,  // measure 30
0001
0000
0100
0000
,  // measure 31
0010
0000
1000
0000
,  // measure 32
0001
0000
1000
0000
,  // measure 33
0001
0000
1000
0000
,  // measure 34
1001
0000
1000
0000
,  // measure 35
0001
0001
0001
0000
,  // measure 36
0001
0000
0010
0000
,  // measure 37
1000
1000
1000
0000
,  // measure 38
1000
0000
0001
0000
,  // measure 39
0100
0000
0001
0000
,  // measure 40
1000
0000
0001
0000
,  // measure 41
0020
0000
0030
0000
,  // measure 42
0220
0000
0330
0000
,  // measure 43
2002
0000
3003
0000
,  // measure 44
1000
0000
0010
0000
,  // measure 45
1000
0000
0100
0000
,  // measure 46
1000
0000
0010
0000
,  // measure 47
0100
0000
0001
0000
,  // measure 48
1000
0000
0001
0000
,  // measure 49
1000
0000
0010
0000
,  // measure 50
0110
0000
1000
0000
,  // measure 51
2002
0000
3003
0000
;

//---------------dance-single - ---------------
#NOTES:
     dance-single:
     :
     Easy:
     7:
     0,0,0,0,0:
// measure 0
0000
0000
0000
0000
,  // measure 1
0000
0000
0000
0000
,  // measure 2
1000
0001
0100
0010
,  // measure 3
1000
0010
0100
0001
,  // measure 4
1000
0100
1000
0001
,  // measure 5
0100
0010
1000
0100
,  // measure 6
1000
0001
0100
0010
,  // measure 7
1000
0001
0010
0100
,  // measure 8
1000
0010
0100
0010
,  // measure 9
0100
0010
0100
0010
,  // measure 10
0110
0101
1000
0100
,  // measure 11
0010
0100
1000
0010
,  // measure 12
0100
0001
0010
0001
,  // measure 13
0100
0010
1000
0001
,  // measure 14
0010
0100
1000
0010
,  // measure 15
0100
0010
1000
0001
,  // measure 16
1000
0010
0100
0010
,  // measure 17
0220
0000
0330
1001
,  // measure 18
1000
0010
0100
0110
,  // measure 19
1000
0001
0010
0011
,  // measure 20
1000
0100
0010
0011
,  // measure 21
1000
0001
0010
1001
,  // measure 22
1000
0010
0100
1010
,  // measure 23
1000
0100
0010
0011
,  // measure 24
1000
0010
0001
0010
,  // measure 25
1000
0100
0010
0110
,  // measure 26
0010
0100
1000
1001
,  // measure 27
0001
0100
0010
0110
,  // measure 28
0010
1000
0001
1001
,  // measure 29
1000
0100
0001
0101
,  // measure 30
0001
0100
1000
1100
,  // measure 31
1000
0010
0100
0110
,  // measure 32
0100
0001
0010
0001
,  // measure 33
0100
1000
0100
0001
,  // measure 34
1001
0001
0001
0001
,  // measure 35
1000
1000
1000
1000
,  // measure 36
0010
0010
0010
0010
,  // measure 37
0100
0100
0100
0100
,  // measure 38
0001
0100
1000
0100
,  // measure 39
0001
0010
1000
0010
,  // measure 40
0001
0100
0002
0020
,  // measure 41
0000
0000
0000
0033
,  // measure 42
2002
0000
0000
3003
,  // measure 43
0220
0000
0000
0330
,  // measure 44
1000
0010
0100
0101
,  // measure 45
0001
0010
0100
1100
,  // measure 46
1000
0001
0100
0110
,  // measure 47
0010
1000
0100
1100
,  // measure 48
1000
0001
0100
0001
,  // measure 49
0010
0100
1000
0010
,  // measure 50
0100
0001
0010
0001
,  // measure 51
1000
0001
2002
3003
;

//---------------dance-single - ---------------
#NOTES:
     dance-single:
     :
     Medium:
     10:
     0,0,0,0,0:
// measure 0
0000
0000
0000
0000
,  // measure 1
0000
0000
0000
0000
,  // measure 2
2000
0000
0000
3002
0000
0000
0013
0000
,  // measure 3
0002
0000
0000
2003
0000
0000
3010
0000
,  // measure 4
2000
0000
0000
3002
0000
0000
0103
0000
,  // measure 5
0200
0000
0000
0302
0000
0000
1003
0000
,  // measure 6
2000
0000
3200
0000
0302
0000
0103
1000
,  // measure 7
0000
1000
0001
0100
0000
0100
0010
1000
,  // measure 8
0000
1000
0001
0000
0010
0000
0100
0000
,  // measure 9
0010
0001
0010
0100
,  // measure 10
0110
0000
0100
1000
0000
1000
0001
0000
,  // measure 11
1001
0000
0001
0100
0000
0100
0010
0000
,  // measure 12
0110
0000
0010
1000
0000
1000
0100
0000
,  // measure 13
1100
0000
1000
0001
0000
0001
0100
0000
,  // measure 14
0110
0000
0010
1000
0000
0001
0100
0000
,  // measure 15
0101
0000
0001
1000
0000
0100
1000
0002
,  // measure 16
0000
2000
0000
0000
0000
0000
3003
0000
,  // measure 17
0220
0000
0330
1001
,  // measure 18
0001
0000
0001
0000
1000
0001
0100
0000
,  // measure 19
0010
0000
0010
0000
1000
0010
0100
0000
,  // measure 20
0001
0000
0010
0000
0100
0010
0001
0000
,  // measure 21
1000
0000
0100
0000
0010
0001
0100
0000
,  // measure 22
0010
0000
1000
0000
0001
0100
0010
0000
,  // measure 23
1000
0000
0001
0000
0010
0100
0010
0000
,  // measure 24
0002
0000
1003
0001
0000
0100
0000
1000
,  // measure 25
0000
0100
0000
0010
1000
0000
1001
0000
,  // measure 26
1000
0000
0100
0000
0001
0100
1000
0000
,  // measure 27
0010
0000
0100
0000
0001
0010
0100
0000
,  // measure 28
0010
0000
0001
0000
0100
1000
0100
0000
,  // measure 29
0001
0000
0010
0000
0100
1000
0010
0000
,  // measure 30
0100
0000
1000
0000
0100
0001
0010
0000
,  // measure 31
0100
0000
0010
0000
0001
0100
1000
0000
,  // measure 32
0200
0000
0301
1000
0000
0100
0000
0010
,  // measure 33
0000
0001
0000
0100
0000
0100
0010
0000
,  // measure 34
0110
0000
0010
0100
0010
0000
0110
0000
,  // measure 35
0010
1000
0010
0000
0001
0000
0010
0000
,  // measure 36
1010
0000
0010
1000
0010
0000
1010
0000
,  // measure 37
1000
0001
1000
0000
0100
0000
0010
0000
,  // measure 38
0001
0010
0001
0000
0100
0000
0010
0000
,  // measure 39
1000
0001
1000
0000
0100
0000
0010
0000
,  // measure 40
0001
0100
0001
0000
2000
0000
0020
0000
,  // measure 41
0000
0000
0000
3030
,  // measure 42
1001
2000
0000
0000
0000
0000
3000
0000
,  // measure 43
1001
0002
0000
0000
0000
0000
0003
0000
,  // measure 44
1000
0000
0001
0000
0010
0100
1000
0000
,  // measure 45
1000
0000
0100
0000
0010
0001
0100
0000
,  // measure 46
0010
0000
1000
0000
0100
1000
0010
0000
,  // measure 47
0100
0000
0001
0000
1000
0100
0001
0000
,  // measure 48
0100
0000
1000
0010
0000
0100
0000
0010
,  // measure 49
0000
1000
0000
0001
0010
0000
0110
0000
,  // measure 50
0010
0000
0001
0000
0100
0010
1000
0000
,  // measure 51
1000
0010
0010
2020
0000
0000
3030
0000
;

//---------------dance-single - ---------------
#NOTES:
     dance-single:
     :
     Hard:
     13:
     0,0,0,0,0:
// measure 0
0000
0000
0000
0000
,  // measure 1
0000
0000
0000
0000
,  // measure 2
1000
0000
0001
0010
0000
0100
0010
0000
,  // measure 3
0001
0000
0100
1000
0000
0100
0001
0000
,  // measure 4
0010
0000
0100
0010
0000
1000
0010
0000
,  // measure 5
0100
0000
1000
0010
0000
0100
0001
0000
,  // measure 6
0010
0000
0100
0010
0000
0001
0100
0000
,  // measure 7
1000
0000
0100
0001
0000
0010
0100
0010
,  // measure 8
0000
0001
0200
0000
2300
0000
3020
0000
,  // measure 9
0032
0000
0203
0000
2300
0000
3020
0030
,  // measure 10
0012
0003
1000
2001
3000
0001
1002
0003
,  // measure 11
0201
0300
0100
0120
0030
0010
0210
0300
,  // measure 12
0201
0300
0100
2100
3000
0100
0102
0003
,  // measure 13
2001
3000
0001
0201
0300
0100
0120
0230
,  // measure 14
0300
0001
2001
3002
0003
0100
0102
0003
,  // measure 15
2001
3000
1000
1200
0300
0120
0030
0012
,  // measure 16
0000
2000
0000
0000
0000
0000
3003
0000
,  // measure 17
0220
0000
0000
0000
0330
0000
1010
1000
,  // measure 18
0010
0100
0010
2000
0100
0001
3100
1000
,  // measure 19
0001
0010
1000
0020
0001
0100
0031
0100
,  // measure 20
1000
0100
0001
0200
1000
0010
1300
0001
,  // measure 21
0100
0010
1000
0020
0100
1000
0130
0010
,  // measure 22
1000
0001
1000
0020
0100
0001
0130
0001
,  // measure 23
0010
0100
1000
0002
0100
0010
0103
0010
,  // measure 24
0200
0000
0301
2000
0000
3100
0010
0200
,  // measure 25
0000
1300
0001
0020
0000
0130
0110
0010
,  // measure 26
0110
0100
1000
0020
1000
0100
1030
0100
,  // measure 27
0010
0001
0001
0020
0001
0100
0031
0001
,  // measure 28
1000
0010
0001
0020
1000
0100
1030
0010
,  // measure 29
1000
0100
1000
0020
0100
0001
1030
0010
,  // measure 30
1000
0010
0100
0020
1000
0100
1030
0100
,  // measure 31
0001
0010
0100
0020
0001
0100
0031
0010
,  // measure 32
0002
0000
0103
2000
0000
3100
0010
2000
,  // measure 33
0000
3100
0010
2000
0000
3010
0100
0000
,  // measure 34
1001
0001
1000
1000
0100
0100
0010
0010
,  // measure 35
0100
0100
1000
1000
0010
0010
0100
0100
,  // measure 36
0001
0001
0010
0010
0100
0100
0010
0010
,  // measure 37
0001
0001
1000
1000
0010
0010
0100
0100
,  // measure 38
0001
0100
2000
0000
3200
0000
0320
0000
,  // measure 39
1030
0100
0002
0000
0203
0000
0320
0000
,  // measure 40
0031
0100
2000
0000
3200
0000
0020
0000
,  // measure 41
0000
0000
0000
0330
,  // measure 42
1001
2002
0000
0000
0000
0000
3003
0000
,  // measure 43
0110
0220
0000
0000
0000
0000
0330
0000
,  // measure 44
1000
0010
0001
0020
1000
0130
1010
1000
,  // measure 45
0001
0100
0010
0200
0001
0310
0110
0010
,  // measure 46
1000
0001
0010
0200
0001
0310
0110
0100
,  // measure 47
1000
0001
0100
0020
1000
0130
0110
0010
,  // measure 48
2000
0000
3100
0002
0000
0103
1000
0020
,  // measure 49
0000
0130
0001
0020
0000
0130
0010
0001
,  // measure 50
1001
0000
0001
0000
1000
0000
0200
0000
0001
0300
0100
0000
1000
0000
0001
0000
,  // measure 51
1001
0011
1010
0220
0000
0000
0330
0000
;
