#TITLE:Ven Conmigo;
#SUBTITLE:(Solamente Tu);
#ARTIST:Christina Aguilera;
#MUSIC:Ven Conmigo (Solamente Tu).ogg;
#BANNER:Ven Conmigo (Solamente Tu).png;
#BACKGROUND:Ven Conmigo (Solamente Tu)-bg.png;
#LYRICSPATH:;
#CDTITLE:;
#SAMPLESTART:46.841;
#SAMPLELENGTH:16.165;
#OFFSET:-4.46;
#BPMS:0.000000=118.880000;
#STOPS:;
#TIMESIGNATURES:0.000000=4=4;
#BGCHANGES:;
#FGCHANGES:;
#ATTACKS:;
#SPEEDS:0.000000=1.000000=0.000000=0;
#SCROLLS:0.000000=1.000000;
#KEYSOUNDS:;

//---------------dance-single - ---------------
#NOTES:
     dance-single:
     :
     Beginner:
     4:
     0,0,0,0,0:
// measure 0
0000
0000
0000
0000
,  // measure 1
0000
0000
0000
0000
,  // measure 2
1000
0000
0001
0000
,  // measure 3
0010
0000
0001
0000
,  // measure 4
1000
1000
1000
1000
,  // measure 5
1000
0000
0000
0000
,  // measure 6
0001
0000
0010
0000
,  // measure 7
0001
0000
0100
0000
,  // measure 8
0010
0000
1000
0000
,  // measure 9
0100
0000
0010
0000
,  // measure 10
0001
0001
0001
0000
,  // measure 11
1000
1000
1000
0000
,  // measure 12
0100
0000
1000
0000
,  // measure 13
0001
0000
0100
0000
,  // measure 14
0000
0001
0000
1000
,  // measure 15
0000
0010
0010
0010
,  // measure 16
0000
0100
0000
0010
,  // measure 17
0000
1000
1000
1000
,  // measure 18
1000
0000
0001
0000
,  // measure 19
0010
0000
0001
0000
,  // measure 20
0100
0000
0001
0000
,  // measure 21
2000
0000
3000
0000
,  // measure 22
0100
0100
0100
0000
,  // measure 23
1000
0000
0001
0000
,  // measure 24
0100
0100
0100
0000
,  // measure 25
0001
0000
1000
0000
,  // measure 26
0010
0010
0010
0000
,  // measure 27
1000
1000
1000
0000
,  // measure 28
0100
0100
0100
0000
,  // measure 29
0010
0000
0001
0000
,  // measure 30
0100
0000
0001
0000
,  // measure 31
1000
0000
0010
0000
,  // measure 32
0100
0100
0100
0000
,  // measure 33
0001
0000
1000
0000
,  // measure 34
0100
0100
0100
0000
,  // measure 35
1000
0000
0010
0000
,  // measure 36
0100
0000
0001
0000
,  // measure 37
1000
0000
0100
0000
,  // measure 38
0001
0001
0001
0000
,  // measure 39
1000
1000
1000
0000
,  // measure 40
0010
0010
0010
0000
,  // measure 41
0100
0100
0100
0000
,  // measure 42
0002
0000
0003
0000
,  // measure 43
2000
0000
3000
0000
,  // measure 44
0020
0000
0030
0000
,  // measure 45
0010
0010
0010
0010
,  // measure 46
0010
0000
1000
0000
,  // measure 47
0001
0000
0100
0000
,  // measure 48
0001
0000
0010
0000
,  // measure 49
0100
0000
1000
0000
,  // measure 50
0001
0001
0001
0000
,  // measure 51
1000
1000
1000
0000
,  // measure 52
0010
0000
0100
0000
,  // measure 53
0001
0001
0001
0001
,  // measure 54
0001
0000
1000
0000
,  // measure 55
0010
0000
0100
0000
,  // measure 56
0001
0000
1000
0000
,  // measure 57
0100
0000
0010
0010
,  // measure 58
0010
0000
0001
0000
,  // measure 59
1000
0000
0010
0000
,  // measure 60
0100
0000
0010
0000
,  // measure 61
1000
1000
1000
1000
;

//---------------dance-single - ---------------
#NOTES:
     dance-single:
     :
     Easy:
     7:
     0,0,0,0,0:
// measure 0
0000
0000
0000
0000
,  // measure 1
0000
0000
0000
0000
,  // measure 2
0100
1000
0010
0100
,  // measure 3
0001
0010
0001
1000
,  // measure 4
0001
1001
1000
1001
,  // measure 5
0220
0000
0330
1001
,  // measure 6
1000
0100
0010
0100
,  // measure 7
1000
0001
0100
0010
,  // measure 8
0200
0001
1000
0301
,  // measure 9
0100
0010
1000
0001
,  // measure 10
0010
0001
0100
1000
,  // measure 11
0100
0001
1000
0100
,  // measure 12
0200
1000
0001
1300
,  // measure 13
1000
0010
0100
0010
,  // measure 14
1000
0100
1000
0100
,  // measure 15
0010
0001
0100
0010
,  // measure 16
1000
0010
0100
0010
,  // measure 17
1000
0001
0001
0100
,  // measure 18
0100
0010
1000
0100
,  // measure 19
0010
0001
1000
0001
,  // measure 20
0200
1000
0001
1300
,  // measure 21
0010
1000
0001
0010
,  // measure 22
0110
1000
0010
0001
,  // measure 23
0010
1000
0001
0010
,  // measure 24
0110
1000
0001
0100
,  // measure 25
1000
0001
0010
0100
,  // measure 26
0110
0010
1000
0010
,  // measure 27
0100
0001
1000
0010
,  // measure 28
0100
0100
0001
0010
,  // measure 29
0011
1100
1010
0101
,  // measure 30
1001
1000
0010
0100
,  // measure 31
0001
0010
0100
1000
,  // measure 32
0020
1000
0001
1030
,  // measure 33
1000
0001
0010
0001
,  // measure 34
0100
0100
0010
1000
,  // measure 35
0001
0010
0001
0100
,  // measure 36
0010
1000
0001
0100
,  // measure 37
1000
0100
0010
1000
,  // measure 38
0001
0010
1000
0010
,  // measure 39
0001
0100
1000
0100
,  // measure 40
0001
0010
0100
1000
,  // measure 41
0010
0100
0001
1000
,  // measure 42
0200
0000
0000
0300
,  // measure 43
2000
0000
0000
3000
,  // measure 44
0002
0000
0000
0003
,  // measure 45
0010
0010
0001
0010
,  // measure 46
0020
0001
1000
0031
,  // measure 47
0100
0010
1000
0001
,  // measure 48
1001
1000
0010
0100
,  // measure 49
0001
0010
0100
1000
,  // measure 50
1100
1000
0010
0100
,  // measure 51
0001
0100
0001
0010
,  // measure 52
0100
1000
0001
0010
,  // measure 53
0100
0010
0001
1000
,  // measure 54
0100
0020
0001
1000
,  // measure 55
0031
0001
0100
0010
,  // measure 56
0110
0100
0001
1000
,  // measure 57
0200
1000
0301
0110
,  // measure 58
0100
1000
0010
0001
,  // measure 59
0010
1000
0001
0010
,  // measure 60
0100
1000
0001
0010
,  // measure 61
0100
0000
0010
0000
0001
0000
1000
0100
;

//---------------dance-single - ---------------
#NOTES:
     dance-single:
     :
     Medium:
     12:
     0,0,0,0,0:
// measure 0
0000
0000
0000
0000
,  // measure 1
0000
0000
0000
0000
,  // measure 2
1000
0000
0010
0000
0100
0001
1000
0000
,  // measure 3
0001
0000
0010
0000
0100
1000
0001
0000
,  // measure 4
0100
0010
0000
1000
0000
0001
0000
0010
,  // measure 5
0220
0000
0330
1001
,  // measure 6
1000
0000
0100
0000
0010
0001
0100
0000
,  // measure 7
0001
0000
0100
0000
0010
1000
0100
0000
,  // measure 8
2000
0000
0001
0000
3100
0100
1000
0002
,  // measure 9
0000
0100
0000
0013
0020
0030
0220
0330
,  // measure 10
0010
0010
0001
0001
0100
0100
0110
0000
,  // measure 11
0010
0010
1000
1000
0100
0100
0110
0200
,  // measure 12
0000
1000
0000
0001
0000
0010
0000
1300
,  // measure 13
0000
2000
0000
0010
3001
0000
0110
0000
,  // measure 14
0100
0010
0001
0000
0100
0010
1000
0000
,  // measure 15
1000
0001
0010
0001
1000
0010
1000
0000
,  // measure 16
0001
0100
0010
0000
1000
0100
0010
0000
,  // measure 17
0001
1000
0010
1000
0001
0100
0010
0000
,  // measure 18
0200
0000
0301
0000
0001
1000
0010
0000
,  // measure 19
0010
0010
1000
0001
0010
0100
1000
0200
,  // measure 20
0000
1000
0000
0001
0000
0010
0000
1300
,  // measure 21
1000
0100
0010
0002
1000
1000
1003
0000
,  // measure 22
0110
0000
1001
0000
0001
0010
1000
0000
,  // measure 23
0010
0000
0001
0000
0100
0010
1000
0000
,  // measure 24
1100
0000
0011
0000
0001
1000
0001
0000
,  // measure 25
0100
0000
0010
0000
1000
0001
1000
0000
,  // measure 26
1001
1000
0010
0010
1000
1000
0001
0000
,  // measure 27
0100
0100
0010
0010
1000
1000
0001
0000
,  // measure 28
0001
0001
0010
0010
0100
0100
0010
0000
,  // measure 29
0011
1100
1010
0101
,  // measure 30
1000
0000
0010
0000
0100
0010
1000
0000
,  // measure 31
0001
0000
0010
0000
0100
0010
0001
0000
,  // measure 32
0100
0000
0010
0000
1000
0001
0010
0000
,  // measure 33
0001
0000
0010
0000
0100
1000
0001
0000
,  // measure 34
0100
0000
0010
0000
1000
0010
0100
0000
,  // measure 35
1000
0000
0100
0000
0001
0010
0100
0010
,  // measure 36
0000
0001
0000
0100
0000
0010
0000
1010
,  // measure 37
0000
0001
0000
0101
1000
0000
1001
0000
,  // measure 38
1000
1000
0001
0001
0010
0010
0100
0000
,  // measure 39
0010
0010
0100
0100
1000
0001
1000
0001
,  // measure 40
0100
0100
0001
0000
0001
0001
1000
0000
,  // measure 41
1000
1000
0001
0001
0100
0010
0100
0010
,  // measure 42
0220
0000
0000
0300
,  // measure 43
2000
0030
0002
3000
,  // measure 44
0200
0000
0000
0303
,  // measure 45
0101
0000
1010
0000
1000
0010
0100
0010
,  // measure 46
1010
0000
0001
0000
0010
0001
1000
0000
,  // measure 47
0010
0000
0100
0000
0010
0100
0001
1000
,  // measure 48
0110
0000
0100
0000
0001
0010
0100
0000
,  // measure 49
1000
0000
0001
0000
0100
0001
0010
0001
,  // measure 50
0101
0100
0001
0001
0010
0010
0100
0000
,  // measure 51
0100
0100
1000
1000
0001
0001
0010
0000
,  // measure 52
0001
0010
0100
0010
0001
1000
0010
0000
,  // measure 53
0110
0000
1001
0000
1000
0001
0010
0001
,  // measure 54
0101
0000
0001
0000
0010
0100
1000
0000
,  // measure 55
0001
0000
0100
0000
0010
0100
0001
1000
,  // measure 56
1001
0000
1000
0000
0010
0100
0001
2000
,  // measure 57
0001
0010
3100
0110
,  // measure 58
0011
0001
0010
0010
0100
0100
0010
0000
,  // measure 59
0100
0100
1000
1000
0001
0001
0010
0000
,  // measure 60
0100
0010
0001
1000
0010
0100
0010
0000
,  // measure 61
1010
0000
0101
0000
1001
0000
1200
0310
;

//---------------dance-single - ---------------
#NOTES:
     dance-single:
     :
     Hard:
     16:
     0,0,0,0,0:
// measure 0
0000
0000
0000
0000
,  // measure 1
0000
0000
0000
0000
,  // measure 2
0100
0000
1000
0001
0100
0000
0001
1000
0010
0000
0100
0000
0101
0000
0001
0000
,  // measure 3
1000
0100
0010
0100
1000
0001
0100
0010
,  // measure 4
1000
1010
0001
0011
1000
1100
0001
0101
,  // measure 5
2002
0000
3003
0110
,  // measure 6
0012
0003
0000
0000
1200
0300
0000
0000
1000
0000
0010
0000
0210
0300
0000
0000
,  // measure 7
0100
0001
0010
0100
1000
0100
0010
0002
,  // measure 8
1003
0010
1010
0000
0001
0010
0011
0010
,  // measure 9
0100
1000
0001
0100
0010
1000
1010
0000
,  // measure 10
1010
0000
0101
0000
0011
0000
1100
0000
1001
0000
0110
0000
2002
3003
0000
0000
,  // measure 11
1010
0011
1100
0101
2100
3000
1001
0201
,  // measure 12
0010
1000
0010
0001
1000
0001
0310
0000
,  // measure 13
0010
0000
0100
0000
0001
0000
1000
0000
1100
0000
0001
0000
0101
0001
1000
0000
,  // measure 14
0010
0100
0101
0001
1000
0100
0110
0100
,  // measure 15
1000
1010
0101
0011
1100
1001
0101
1000
,  // measure 16
0010
0100
0110
0100
0001
0010
0110
0100
,  // measure 17
1000
1100
0011
0101
1010
1001
0110
0000
,  // measure 18
0201
0300
1200
0300
0110
0010
1010
0000
,  // measure 19
0010
1000
0001
0010
0100
1000
0001
0200
,  // measure 20
1000
0010
0001
0010
1000
0010
0001
0301
,  // measure 21
0001
0100
0010
1000
0100
0010
0001
1000
,  // measure 22
2001
3100
1002
0103
0101
0100
0110
0010
,  // measure 23
1010
1000
1001
2000
3001
0010
0100
1000
,  // measure 24
1002
0103
2001
3100
1001
1000
1100
0100
,  // measure 25
0110
0010
0011
0001
2000
3010
0100
0001
,  // measure 26
1001
0000
1000
0100
0010
0000
0010
0000
0001
0000
0010
0000
0110
0000
0000
0000
,  // measure 27
0010
0100
1000
0100
0010
0001
0011
0010
,  // measure 28
0210
1000
0001
0310
,  // measure 29
0220
0330
2020
3030
0202
0303
0011
0110
,  // measure 30
0100
1000
0001
0100
0010
1000
0010
0100
,  // measure 31
0001
0000
0010
0000
0100
0000
0010
0000
0001
0000
1000
0000
0010
0000
0100
0010
,  // measure 32
1000
0000
1000
0001
0010
0000
0021
0000
0130
0000
1000
0000
0010
0000
0100
0010
,  // measure 33
1000
0000
0001
0010
0100
0000
0010
0000
0210
0000
1300
0000
2100
0000
3001
0000
,  // measure 34
1001
0000
1000
0001
0010
0000
0001
1000
0020
0000
0130
0010
1000
0000
0001
0000
,  // measure 35
0100
0010
1000
0100
0010
0001
0100
0110
,  // measure 36
0010
1010
1000
1001
0001
0011
0001
0101
,  // measure 37
1000
1010
1000
1100
0210
1300
1002
0103
,  // measure 38
1001
0000
1000
0100
0010
0000
0001
0100
1000
0000
0100
0010
1000
0000
0001
0010
,  // measure 39
0100
0000
1000
0001
0010
0000
0100
0010
1000
0000
0010
0100
1000
0000
0010
0100
,  // measure 40
0001
0000
0010
0100
1000
0000
0010
0100
0001
0000
0010
0100
0110
0000
0010
0100
,  // measure 41
1000
0000
0010
0100
1000
0000
0100
0001
2000
0000
3100
0000
0002
0000
0103
0000
,  // measure 42
2001
0000
3100
1000
0010
0000
0010
0000
0100
0000
0001
0000
0020
0000
0030
0000
,  // measure 43
0012
0100
1000
0103
0120
1030
2010
3100
,  // measure 44
0210
0001
0010
1000
0010
0010
0020
0330
,  // measure 45
0022
0000
0033
0000
2020
0000
3030
0000
0001
0010
0100
0010
0100
1000
0010
0100
,  // measure 46
0110
0120
1000
0001
0100
1000
0001
1000
,  // measure 47
0130
0010
0110
0010
0100
0001
1000
0100
,  // measure 48
0110
0020
0032
0203
2300
3200
0320
2030
,  // measure 49
3002
0000
0023
0000
0230
0000
0320
0000
0031
0010
0100
0000
1000
0010
0100
0001
,  // measure 50
1001
0000
0001
0100
0010
0000
0010
0000
1000
0000
0010
0000
0220
0000
0330
0000
,  // measure 51
0101
0000
0110
0000
1010
0000
1100
0000
0110
0000
0011
0000
1001
0000
0001
1000
,  // measure 52
2010
0010
0100
0010
0001
0100
0010
3100
,  // measure 53
1100
0100
0110
0010
0011
1001
1010
0110
,  // measure 54
0101
0000
0001
0100
0020
0000
1000
0000
0001
0000
0100
0000
1000
0000
0100
0000
,  // measure 55
0001
0000
0100
0000
1030
0000
2000
0000
3020
0000
0230
0000
0302
0000
2003
3000
,  // measure 56
1001
0000
1000
0100
0010
0000
0001
0000
0100
0000
0010
0000
2000
0000
3200
0000
,  // measure 57
0010
0001
0010
1000
0020
0330
2002
3003
,  // measure 58
0110
0000
0100
0010
1000
0000
1000
0000
0001
0000
0010
0000
0220
0000
0330
0000
,  // measure 59
1100
0101
1100
1010
0011
1010
2002
3003
,  // measure 60
1001
1000
0100
0010
0001
0100
0020
0030
,  // measure 61
2020
3030
0202
0303
2002
3003
1100
0220
,  // measure 62
0330
0000
0000
0000
;
