#TITLE:Usual Days;
#SUBTITLE:;
#ARTIST:EGOISTIC LEMONTEA;
#MUSIC:Usual Days.ogg;
#BANNER:Usual Days.png;
#BACKGROUND:Usual Days-bg.png;
#LYRICSPATH:;
#CDTITLE:;
#SAMPLESTART:51.36;
#SAMPLELENGTH:13.060000000000002;
#OFFSET:-1.733;
#BPMS:0.000000=134.000000;
#STOPS:;
#TIMESIGNATURES:0.000000=4=4;
#BGCHANGES:;
#FGCHANGES:;
#ATTACKS:;
#SPEEDS:0.000000=1.000000=0.000000=0;
#SCROLLS:0.000000=1.000000;
#KEYSOUNDS:;

//---------------dance-single - ---------------
#NOTES:
     dance-single:
     :
     Beginner:
     5:
     0,0,0,0,0:
// measure 0
0000
0000
0000
0000
,  // measure 1
0000
0000
0000
0000
,  // measure 2
0000
0000
0000
0000
,  // measure 3
0000
0000
0000
0000
,  // measure 4
1000
0000
0001
0000
,  // measure 5
1000
0000
0010
0000
,  // measure 6
1000
0000
0100
0000
,  // measure 7
1000
0000
0001
0000
,  // measure 8
1000
0000
0010
0000
,  // measure 9
0100
0000
0010
0000
,  // measure 10
1000
0000
0001
0000
,  // measure 11
0100
0000
1001
0000
,  // measure 12
0100
0100
0100
0000
,  // measure 13
0001
0001
0001
0000
,  // measure 14
1000
1000
1000
0000
,  // measure 15
0010
0010
0010
0000
,  // measure 16
1000
1000
1000
0000
,  // measure 17
0001
0001
0001
0000
,  // measure 18
0100
0000
0100
0000
,  // measure 19
0001
0001
0001
0000
,  // measure 20
1000
1000
1000
0000
,  // measure 21
0001
0001
0001
0000
,  // measure 22
0010
0010
0010
0000
,  // measure 23
0001
0001
0001
0000
,  // measure 24
1000
1000
1000
0000
,  // measure 25
0100
0100
0100
0000
,  // measure 26
0010
0010
0010
0000
,  // measure 27
0110
0110
0110
0000
,  // measure 28
1000
0000
1000
0000
,  // measure 29
0001
0001
0001
0000
,  // measure 30
1000
0000
1000
0000
,  // measure 31
0010
0010
0010
0000
,  // measure 32
1000
0000
0001
0000
,  // measure 33
0100
0100
0100
0000
,  // measure 34
0001
0000
1000
0000
,  // measure 35
0010
0010
0010
0000
,  // measure 36
1000
0000
0001
0000
,  // measure 37
0010
0000
0010
0000
,  // measure 38
0001
0000
0100
0000
,  // measure 39
0010
0000
0010
0000
,  // measure 40
0000
1000
0000
0001
,  // measure 41
0000
0010
0010
0010
,  // measure 42
0010
0000
0001
0000
,  // measure 43
1000
0000
0100
0000
,  // measure 44
1000
0000
0010
0000
,  // measure 45
0100
0000
0010
0000
,  // measure 46
1000
0000
0100
0000
,  // measure 47
0001
0000
0100
0000
,  // measure 48
1000
0000
0010
0000
,  // measure 49
0100
0000
0000
0000
0010
0000
0000
0220
,  // measure 50
0000
0000
0000
0000
,  // measure 51
0000
0000
0000
0000
,  // measure 52
0000
0000
0000
0000
,  // measure 53
0330
0000
0000
0000
;

//---------------dance-single - ---------------
#NOTES:
     dance-single:
     :
     Easy:
     9:
     0,0,0,0,0:
// measure 0
0000
0000
0000
0000
,  // measure 1
0000
0000
0000
0000
,  // measure 2
0000
0000
0000
0000
,  // measure 3
0000
0000
0000
0000
,  // measure 4
1000
0010
0100
0110
,  // measure 5
1000
0100
0010
0110
,  // measure 6
0001
0100
0010
0110
,  // measure 7
1000
0100
0001
0101
,  // measure 8
1000
0010
0100
0101
,  // measure 9
1000
0010
0100
1100
,  // measure 10
0001
0010
0100
1100
,  // measure 11
1000
1010
0011
1001
,  // measure 12
0001
0001
0001
0100
,  // measure 13
1000
1000
1000
0100
,  // measure 14
0010
0010
0010
1000
,  // measure 15
0001
0001
0001
0010
,  // measure 16
0100
0100
0100
1000
,  // measure 17
0001
0001
0001
0010
,  // measure 18
0100
0010
0001
0010
,  // measure 19
1000
0010
0010
0010
,  // measure 20
0001
0100
0010
0010
,  // measure 21
1000
0100
0010
0010
,  // measure 22
0001
0100
1000
1000
,  // measure 23
0001
0010
1000
1000
,  // measure 24
0001
0010
0100
0100
,  // measure 25
1000
0010
0100
0100
,  // measure 26
0001
0010
0100
1000
,  // measure 27
1001
1001
0110
0000
,  // measure 28
1000
1000
0100
0010
,  // measure 29
0001
0001
0100
0010
,  // measure 30
1000
0100
0010
0001
,  // measure 31
0100
0010
1000
1010
,  // measure 32
1000
1000
0001
0010
,  // measure 33
0100
0100
1000
0010
,  // measure 34
0100
0100
0001
1000
,  // measure 35
0100
0100
0010
0011
,  // measure 36
0001
0100
1000
0100
,  // measure 37
0001
0010
1000
0010
,  // measure 38
0001
0100
0010
1000
,  // measure 39
0001
0001
0010
0100
,  // measure 40
0020
0001
0000
1000
,  // measure 41
0000
0001
0001
0031
,  // measure 42
0002
0003
0020
0030
,  // measure 43
0002
0003
0200
0300
,  // measure 44
0020
0030
2000
3000
,  // measure 45
0200
0300
0020
0030
,  // measure 46
0002
0003
2000
3000
,  // measure 47
0200
0300
2000
3000
,  // measure 48
0002
0003
0020
0030
,  // measure 49
0200
0000
0300
0000
0020
0000
0030
0220
,  // measure 50
0000
0000
0000
0000
,  // measure 51
0000
0000
0000
0000
,  // measure 52
0000
0000
0000
0000
,  // measure 53
0330
0000
0000
0000
;

//---------------dance-single - ---------------
#NOTES:
     dance-single:
     :
     Medium:
     12:
     0,0,0,0,0:
// measure 0
0000
0000
0000
0000
,  // measure 1
0000
0000
0000
0000
,  // measure 2
0000
0000
0000
0000
,  // measure 3
0000
0000
0000
0000
,  // measure 4
1000
0010
0000
0000
0110
0000
0100
0000
,  // measure 5
0001
0010
0000
0000
0110
0000
0100
0000
,  // measure 6
1000
0001
0000
0000
1001
0000
0001
0000
,  // measure 7
0001
0000
0100
0000
0000
0000
0000
0010
0000
0000
0010
0000
1000
0000
1000
0000
,  // measure 8
0001
0010
0000
0000
0110
0000
0100
0000
,  // measure 9
1000
0010
0000
0000
0110
0000
0100
0000
,  // measure 10
0001
1000
0000
0000
1001
0000
0100
0000
,  // measure 11
1000
0000
0000
0000
0010
0000
0000
0010
0000
0000
0100
0000
0010
0000
0000
0000
,  // measure 12
1000
0000
0000
1000
0000
0000
2000
0000
0000
0000
0000
0000
3000
0000
0000
0000
,  // measure 13
0001
0000
0000
0001
0000
0000
0002
0000
0000
0000
0000
0000
0003
0000
0000
0000
,  // measure 14
0010
0000
0000
0010
0000
0000
0020
0000
0000
0000
0000
0000
0030
0000
0000
0000
,  // measure 15
0001
0000
0000
0001
0000
0000
0002
0000
0000
0000
0000
0000
0003
0000
0000
0000
,  // measure 16
1000
0000
0000
1000
0000
0000
2000
0000
0000
0000
0000
0000
3000
0000
0000
0000
,  // measure 17
0010
0000
0000
0010
0000
0000
0020
0000
0000
0000
0000
0000
0030
0000
0000
0000
,  // measure 18
0100
0000
0000
0000
0110
0000
0000
0100
0000
0000
0100
0000
0101
0000
0000
0000
,  // measure 19
0100
0000
0000
0000
1100
0000
0000
0101
0000
0000
1001
0000
1001
0000
0000
0000
,  // measure 20
1000
0000
0010
0000
0000
0010
0000
0000
0100
0000
0000
0000
0001
0000
0000
0000
,  // measure 21
1000
0000
0010
0000
0000
0010
0000
0000
1000
0000
0000
0000
0100
0000
0000
0000
,  // measure 22
0001
0000
0100
0000
0000
0100
0000
0000
1000
0000
0000
0000
0010
0000
0000
0000
,  // measure 23
0100
0000
0001
0000
0000
0001
0000
0000
1000
0000
0000
0000
0010
0000
0000
0000
,  // measure 24
0010
0000
1000
0000
0000
0100
0000
0000
0001
0000
0000
0000
0100
0000
0000
0000
,  // measure 25
1000
0000
0010
0000
0000
0100
0000
0000
0001
0000
0000
0000
1000
0000
0000
0000
,  // measure 26
0100
0000
0010
0000
0000
1000
0000
0000
0010
0000
0000
0000
0001
0000
0000
0000
,  // measure 27
0011
0000
0000
1010
0000
0000
1001
0000
2002
0000
0000
0000
3003
0000
0000
0000
,  // measure 28
1000
0000
0010
0000
0100
0010
1000
0000
,  // measure 29
0001
0000
0010
0000
0100
0010
0001
0000
,  // measure 30
0100
0000
0010
0000
1000
0001
0010
0000
,  // measure 31
0001
0000
0100
0000
1000
0100
0010
0000
,  // measure 32
1000
0000
0001
0000
0010
0001
1000
0000
,  // measure 33
0001
0000
0100
0000
0010
1000
0001
0000
,  // measure 34
1000
0000
0100
0000
0001
0100
1000
0000
,  // measure 35
0001
0000
0100
0000
1000
0100
0001
0000
,  // measure 36
1000
0000
0000
1000
0000
0000
1000
0000
0000
0001
0000
0000
0002
0000
0003
0000
,  // measure 37
0001
0000
0000
0001
0000
0000
0001
0000
0000
1000
0000
0000
2000
0000
3000
0000
,  // measure 38
1000
0000
0000
1000
0000
0000
1000
0000
0000
0010
0000
0000
0020
0000
0030
0000
,  // measure 39
0010
0000
0000
0010
0000
0000
0010
0000
0000
0100
0000
0000
0100
0000
0001
0000
,  // measure 40
1000
1100
0001
0101
,  // measure 41
1000
0000
0000
0000
1010
0000
0000
0010
0000
0000
0010
0000
1000
0000
0001
0000
,  // measure 42
1000
0100
0010
0000
0011
0000
0010
0000
,  // measure 43
0100
1000
0010
0000
0101
0000
1000
0000
,  // measure 44
0010
1000
0001
0000
0011
0000
0010
0000
,  // measure 45
0100
0000
1000
0000
0010
0000
0000
0010
0000
0000
0010
0000
0100
0000
0010
0000
,  // measure 46
1000
0001
0010
0000
0110
0000
0100
0000
,  // measure 47
1000
0010
0100
0000
0101
0000
0100
0000
,  // measure 48
0010
1000
0100
0000
0110
0000
0001
0000
,  // measure 49
0100
0010
1000
0000
1100
0000
0100
0220
,  // measure 50
0000
0000
0000
0000
,  // measure 51
0000
0000
0000
0000
,  // measure 52
0000
0000
0000
0000
,  // measure 53
0330
0000
0000
0000
;

//---------------dance-single - ---------------
#NOTES:
     dance-single:
     :
     Hard:
     16:
     0,0,0,0,0:
// measure 0
0000
0000
0000
0000
,  // measure 1
0000
0000
0000
0000
,  // measure 2
0000
0000
0000
0000
,  // measure 3
0000
0000
0000
0000
0000
0000
0000
1000
0000
0000
1000
0000
0010
0000
0100
0000
,  // measure 4
0110
0000
0100
0010
1000
0001
0000
0000
0100
0010
1000
0001
0000
0000
1000
0000
,  // measure 5
0100
0000
0010
0001
1000
0100
0000
0000
0010
0001
1000
0100
0000
0000
0001
0000
,  // measure 6
0100
0000
1000
0010
0100
0001
0000
0000
1000
0010
0100
0001
0000
0000
0100
0000
,  // measure 7
0010
0000
1000
0100
0010
0001
0000
0010
0000
0100
0000
1000
0001
0000
0100
0000
,  // measure 8
0001
0000
0010
0100
1000
0001
0000
0000
0010
0100
1000
0001
0000
0000
1000
0000
,  // measure 9
0100
0000
0010
0100
1000
0001
0000
0000
0010
0100
1000
0001
0000
0100
0000
0010
,  // measure 10
0000
0000
1000
0010
0100
0001
0000
0000
1000
0010
0100
0001
0000
0000
0010
0000
,  // measure 11
0100
0000
0000
0000
1100
0000
0000
1000
0100
0000
0010
0000
0011
0000
0010
0000
,  // measure 12
0100
0000
0000
1000
0100
0000
0010
0000
0100
0000
1000
0000
1001
0000
0001
0000
,  // measure 13
0101
0000
0000
0001
0100
0000
0010
0000
0100
0000
0001
0000
1001
0000
1000
0000
,  // measure 14
1010
0000
0000
0010
0100
0000
0010
0000
0100
0000
0001
0000
1001
0000
1000
0000
,  // measure 15
1001
0000
0000
0001
0010
0000
0100
0000
1000
0000
0010
0000
0110
0000
0100
0000
,  // measure 16
0101
0000
0000
0001
0100
0000
0010
0000
1000
0000
0100
0000
0110
0000
0010
0000
,  // measure 17
0011
0000
0000
0001
1000
0000
0010
0000
0100
0000
0010
0000
1010
0000
1000
0010
,  // measure 18
0100
0000
0001
0000
0101
0000
0001
0100
0010
0000
1000
0000
1010
0000
0010
0000
,  // measure 19
0100
0000
0001
0000
1001
0000
0000
1010
0000
0000
0110
0000
0101
0000
1001
0000
,  // measure 20
1100
0000
1000
0000
0100
1000
0000
1000
0001
1000
0000
1000
0010
1000
0000
1000
,  // measure 21
0100
0000
0010
0000
0001
0100
0000
0100
0010
0100
0000
0100
1000
0100
0000
0100
,  // measure 22
0001
0000
0010
0000
0100
1000
0000
1000
0010
1000
0000
1000
0001
1000
0000
1000
,  // measure 23
0100
0000
0001
0000
0100
0010
0000
0010
0001
0010
0000
0010
1000
0010
0000
0010
,  // measure 24
0100
0000
1000
0000
0001
0100
0000
0100
0001
0100
0000
0100
1000
0100
0000
0100
,  // measure 25
0010
0000
0100
0000
0010
1000
0000
1000
0001
1000
0000
1000
0100
1000
0000
1000
,  // measure 26
0010
0000
0100
0000
0001
1000
0000
1000
0001
1000
0000
1000
0100
1000
0000
1000
,  // measure 27
0001
0000
0001
0010
0000
0010
0100
0000
0220
0330
0000
0000
0100
0000
1000
0000
,  // measure 28
0010
0000
0100
0000
0001
0000
0010
0100
0000
0100
1000
0000
0001
0000
0100
0000
,  // measure 29
0010
0000
0100
0000
0001
0000
0010
0100
0000
0100
0001
0000
0100
0000
1000
0000
,  // measure 30
0010
0000
0100
0000
1000
0000
0100
0001
0000
0001
0010
0000
0100
0000
1000
0000
,  // measure 31
0010
0000
0100
0000
0001
0000
1000
1001
0000
0001
1001
0000
1001
0000
1100
0000
,  // measure 32
1001
0000
0001
0000
0101
0000
0001
0100
0000
0100
0010
0000
1000
0000
0100
0000
,  // measure 33
0001
0000
0100
0000
1000
0000
0010
0100
0000
0100
1000
0000
0100
0000
0001
0000
,  // measure 34
0010
0000
0100
0000
1000
0000
0010
0100
0000
0100
0001
0000
0010
0000
1000
0000
,  // measure 35
0010
0000
0100
0000
1000
0000
0001
1000
0000
1000
0001
0000
0100
0000
0010
0000
,  // measure 36
1000
0000
0000
0010
1000
0000
0001
0000
0100
0010
0000
0000
0110
0000
0000
0000
,  // measure 37
1001
0000
0000
1000
0001
0000
1000
0000
0100
0010
0000
0000
0011
0000
0000
0000
,  // measure 38
1100
0000
0000
1000
0100
0000
1000
0000
0010
0100
0000
0000
0101
0000
0000
0000
,  // measure 39
1001
0000
0000
1000
0001
0000
1000
0000
0100
0010
0000
0000
0011
0000
1010
0000
,  // measure 40
2001
0100
0000
0010
,  // measure 41
0000
0000
0000
0000
0100
0000
3000
1000
0100
0000
1000
0000
0010
0000
0100
0000
,  // measure 42
0001
0000
0010
0100
1000
0001
0000
0000
0010
0100
1000
0001
0000
0000
0100
0000
,  // measure 43
0010
0000
1000
0010
0100
0001
0000
0000
1000
0010
0100
0001
0000
0000
1000
0000
,  // measure 44
0100
0000
0010
0001
1000
0100
0000
0000
0010
0001
1000
0100
0000
0000
0010
0000
,  // measure 45
0100
0000
1000
0010
0100
0001
0000
1000
0000
0100
0000
0001
0100
0000
1000
0000
,  // measure 46
0001
0000
0100
0010
1000
0001
0000
0000
0100
0010
1000
0001
0000
0000
1000
0000
,  // measure 47
0100
0000
0010
0100
1000
0001
0000
0000
0010
0100
1000
0001
0000
0100
0000
0010
,  // measure 48
0000
0000
1000
0010
0100
0001
0000
0000
1000
0010
0100
0001
0000
0000
0010
0000
,  // measure 49
0200
0000
0000
0000
1300
0000
0000
1000
0010
0100
0010
0000
1000
0000
2002
0000
,  // measure 50
0000
0000
0000
0000
,  // measure 51
0000
0000
0000
0000
,  // measure 52
0000
0000
0000
0000
,  // measure 53
3003
0000
0000
0000
;
