#VERSION:0.83;
#TITLE:Tu esi vasarā;
#SUBTITLE:;
#ARTIST:Dzintars Čīča;
#TITLETRANSLIT:;
#SUBTITLETRANSLIT:;
#ARTISTTRANSLIT:;
#GENRE:;
#CREDIT:;
#ORIGIN:;
#MUSIC:Tu esi vasarā.ogg;
#BANNER:Tu esi vasarā.png;
#BACKGROUND:Tu esi vasarā-bg.png;
#JACKET:Tu esi vasarā-jacket.png;
#DISCIMAGE:;
#CDIMAGE:;
#SELECTABLE:YES;
#LYRICSPATH:;
#CDTITLE:;
#SAMPLESTART:65.227;
#SAMPLELENGTH:15.36;
#OFFSET:0.053;
#BPMS:0.000000=125.000000;
#STOPS:;
#WARPS:;
#DELAYS:;
#SPEEDS:0.000000=1.000000=0.000000=0;
#SCROLLS:0.000000=1.000000;
#TICKCOUNTS:;
#TIMESIGNATURES:0.000000=4=4;
#LABELS:;
#COMBOS:;
#FAKES:;
#BGCHANGES:;
#FGCHANGES:;
#ATTACKS:;
#KEYSOUNDS:;

//---------------dance-single - ---------------
#NOTEDATA:;
#CHARTNAME:;
#CHARTSTYLE:;
#CREDIT:;
#STEPSTYPE:dance-single;
#DESCRIPTION:;
#DIFFICULTY:Beginner;
#METER:3;
#METERF:3;
#RADARVALUES:0,0,0,0,0;
#NOTES:
// measure 0
0000
0000
0000
0000
,  // measure 1
0000
0000
0000
0000
,  // measure 2
2000
0000
3000
0000
,  // measure 3
0002
0000
0003
0000
,  // measure 4
0020
0000
0030
0000
,  // measure 5
0002
0000
0003
0000
,  // measure 6
2000
0000
3000
0000
,  // measure 7
0002
0000
0003
0000
,  // measure 8
0020
0000
0030
0000
,  // measure 9
0110
0000
0000
0000
,  // measure 10
0100
0100
0100
0000
,  // measure 11
1000
1000
1000
0000
,  // measure 12
0001
0001
0001
0000
,  // measure 13
0100
0100
0100
0000
,  // measure 14
0010
0010
0010
0000
,  // measure 15
0100
0100
0100
0000
,  // measure 16
0001
0001
0001
0000
,  // measure 17
1000
1000
1000
0000
,  // measure 18
0100
0000
0100
0000
,  // measure 19
0010
0010
0010
0000
,  // measure 20
0001
0000
0001
0000
,  // measure 21
1000
1000
1000
0000
,  // measure 22
0010
0000
0100
0000
,  // measure 23
0001
0000
0001
0000
,  // measure 24
1000
0000
0001
0000
,  // measure 25
2000
0000
3000
0000
,  // measure 26
0100
0000
0100
0000
,  // measure 27
1000
1000
1000
0000
,  // measure 28
0001
0000
0001
0000
,  // measure 29
1000
1000
1000
0000
,  // measure 30
0010
0000
0100
0000
,  // measure 31
0001
0000
0010
0000
,  // measure 32
0100
0000
1000
0000
,  // measure 33
0020
0000
0030
0000
,  // measure 34
0100
0100
0100
0000
,  // measure 35
0001
0001
0001
0000
,  // measure 36
1000
1000
1000
0000
,  // measure 37
0010
0010
0010
0000
,  // measure 38
0100
0000
0010
0000
,  // measure 39
1000
1000
1000
0000
,  // measure 40
0001
0000
0010
0000
,  // measure 41
0100
0100
0100
0000
,  // measure 42
1000
0000
0001
0000
,  // measure 43
0100
0100
0100
0000
,  // measure 44
0001
0000
1000
0000
,  // measure 45
0010
0010
0010
0000
,  // measure 46
1000
0000
0001
0000
,  // measure 47
0010
0000
0100
0000
,  // measure 48
1000
0000
0001
0000
,  // measure 49
0010
0000
0001
0000
,  // measure 50
0100
0000
0010
0000
,  // measure 51
1000
1000
1000
0000
,  // measure 52
0100
0000
0010
0000
,  // measure 53
0001
0001
0001
0000
,  // measure 54
0100
0000
0010
0000
,  // measure 55
1000
0000
0001
0000
,  // measure 56
0010
0000
0001
0000
,  // measure 57
0100
0100
0100
0000
,  // measure 58
0010
0010
0010
0000
,  // measure 59
1000
1000
1000
0000
,  // measure 60
0001
0001
0001
0000
,  // measure 61
2002
0000
0000
3003
;

//---------------dance-single - ---------------
#NOTEDATA:;
#CHARTNAME:;
#CHARTSTYLE:;
#CREDIT:;
#STEPSTYPE:dance-single;
#DESCRIPTION:;
#DIFFICULTY:Easy;
#METER:7;
#METERF:7;
#RADARVALUES:0,0,0,0,0;
#NOTES:
// measure 0
0000
0000
0000
0000
,  // measure 1
0000
0000
0000
0000
,  // measure 2
2000
0000
3002
0000
,  // measure 3
0023
0000
0000
0000
,  // measure 4
0032
0000
0203
0000
,  // measure 5
0320
0000
0000
0000
,  // measure 6
2030
0000
3002
0000
,  // measure 7
0203
0000
0302
0000
,  // measure 8
0020
0000
0000
0033
,  // measure 9
1001
0000
0000
0000
,  // measure 10
1000
0010
0001
0010
,  // measure 11
0100
0001
0010
0100
,  // measure 12
1000
0010
0001
0010
,  // measure 13
0100
0001
0010
0100
,  // measure 14
1000
0100
1000
0010
,  // measure 15
0100
0001
0001
0100
,  // measure 16
0010
1000
0001
0010
,  // measure 17
0100
1000
0001
0100
,  // measure 18
0010
0100
0001
1000
,  // measure 19
1000
0100
0010
0000
,  // measure 20
0001
1000
0100
0010
,  // measure 21
0001
0010
0100
0000
,  // measure 22
0100
1000
0010
0100
,  // measure 23
0001
0010
0101
0000
,  // measure 24
0100
0001
0010
1000
,  // measure 25
0020
0001
0100
0031
,  // measure 26
0001
0100
0010
1000
,  // measure 27
0100
0010
0001
0000
,  // measure 28
0001
0100
0010
1000
,  // measure 29
0100
0010
0001
0000
,  // measure 30
0010
0100
1000
0001
,  // measure 31
0100
0010
0100
0000
,  // measure 32
0001
0100
1000
0100
,  // measure 33
0020
1000
0100
1030
,  // measure 34
1010
1000
0100
0010
,  // measure 35
0001
0100
0010
0100
,  // measure 36
0001
1000
0100
0010
,  // measure 37
0100
1000
0010
0100
,  // measure 38
0001
0010
1000
0010
,  // measure 39
0100
1000
0010
0100
,  // measure 40
0001
0010
0100
1000
,  // measure 41
0010
0100
1000
0100
,  // measure 42
0001
0010
0100
1000
,  // measure 43
0020
0001
1000
0031
,  // measure 44
0010
0100
1000
0001
,  // measure 45
2000
0100
0010
3100
,  // measure 46
0001
0100
0010
1000
,  // measure 47
0100
0010
0001
0100
,  // measure 48
0010
1000
0001
1000
,  // measure 49
0100
0010
0001
1000
,  // measure 50
0010
0100
0001
1000
,  // measure 51
0002
0100
0010
0103
,  // measure 52
1000
0001
0010
0100
,  // measure 53
2000
0001
0001
3001
,  // measure 54
0001
0100
0010
1000
,  // measure 55
0100
0010
0001
1000
,  // measure 56
0020
0100
0001
0130
,  // measure 57
0001
0010
0100
1000
,  // measure 58
0010
0100
0001
1000
,  // measure 59
0100
0010
0001
1000
,  // measure 60
0010
0100
0001
1000
,  // measure 61
2002
0000
0000
3003
;

//---------------dance-single - ---------------
#NOTEDATA:;
#CHARTNAME:;
#CHARTSTYLE:;
#CREDIT:;
#STEPSTYPE:dance-single;
#DESCRIPTION:;
#DIFFICULTY:Medium;
#METER:12;
#METERF:12;
#RADARVALUES:0,0,0,0,0;
#NOTES:
// measure 0
0000
0000
0000
0000
,  // measure 1
0000
0000
0000
0000
,  // measure 2
2000
0000
3020
0000
0230
0000
0320
2000
,  // measure 3
0000
0000
0000
3030
,  // measure 4
2000
0000
3002
0000
0023
0000
0032
0020
,  // measure 5
0000
0000
0000
0033
,  // measure 6
0002
0000
0023
0000
0230
0000
2300
3002
,  // measure 7
0000
0203
0302
0000
0023
0000
0230
0020
,  // measure 8
0000
0000
0000
0330
,  // measure 9
1001
0000
0000
0000
,  // measure 10
0001
0100
0010
1000
0001
0000
0001
0010
,  // measure 11
0000
0100
0000
0100
1000
0001
1000
0010
,  // measure 12
0000
0100
0010
1000
0001
0000
0001
1000
,  // measure 13
0000
0100
0000
0100
1000
0001
1000
0010
,  // measure 14
1000
0100
0010
0001
1000
0000
0001
0010
,  // measure 15
0000
0100
0000
0100
1000
0001
1000
0010
,  // measure 16
0000
0100
0001
0010
0001
0000
0001
0010
,  // measure 17
0000
0100
0000
0100
1000
0001
0100
0010
,  // measure 18
1000
0000
0000
1000
0000
0000
0000
0000
0001
0000
0000
0001
0000
0000
0000
0000
,  // measure 19
0001
0100
0010
0000
0110
0000
0000
0000
,  // measure 20
1000
0000
0000
1000
0000
0000
0000
0000
0010
0000
0000
0010
0000
0000
0000
0000
,  // measure 21
0100
0010
1000
0000
1010
0000
0000
0001
,  // measure 22
1000
0000
0000
1000
0000
0000
0000
0000
0010
0000
0000
0010
0000
0000
0000
0000
,  // measure 23
0100
0000
0000
0100
0000
0000
0000
0000
0101
0000
0000
0000
0000
0000
0001
0000
,  // measure 24
0010
0000
0000
0010
0000
0000
0000
0000
0100
0000
0100
0000
0010
0000
0000
0000
,  // measure 25
0002
0203
0320
2030
,  // measure 26
3001
0000
0000
0001
0000
0000
0000
0000
1000
0000
0000
1000
0000
0000
0000
0000
,  // measure 27
0010
0100
0001
0000
1001
0000
0000
0000
,  // measure 28
1000
0000
0000
1000
0000
0000
0000
0000
0100
0000
0000
0100
0000
0000
0000
0000
,  // measure 29
0010
0001
1000
0000
1010
0000
0000
1000
,  // measure 30
0100
0000
0000
0100
0000
0000
0000
0000
0010
0000
0000
0010
0000
0000
0000
0000
,  // measure 31
0001
0100
0010
0000
1010
0000
0000
1000
,  // measure 32
0001
0000
0000
0001
0000
0000
0000
0000
0001
0000
0100
0000
0010
0000
0000
0000
,  // measure 33
2000
3200
0320
0032
,  // measure 34
0103
0001
0010
0100
1000
0000
1000
0010
,  // measure 35
0000
0100
0000
0100
0001
1000
0100
0010
,  // measure 36
0000
0100
1000
0001
0100
0000
0010
1000
,  // measure 37
0000
0100
0000
0100
0010
0100
1000
0001
,  // measure 38
0000
0100
0010
1000
0001
0000
1000
0010
,  // measure 39
0000
0100
0000
0100
0001
0010
1000
0010
,  // measure 40
0000
0100
1000
0001
0100
0000
0100
0010
,  // measure 41
0000
1000
0000
1000
0001
0010
0100
0010
,  // measure 42
0002
0000
0023
0000
0230
0000
0310
0002
,  // measure 43
0000
0000
0100
0010
0100
0010
0103
0000
,  // measure 44
2000
0000
3002
0000
0023
0000
0230
2300
,  // measure 45
0000
0000
0010
0100
0010
0100
3010
0010
,  // measure 46
2000
0000
3020
0000
0230
0000
0302
2003
,  // measure 47
0000
3100
1000
0001
0020
0000
0230
0320
,  // measure 48
0000
0001
0100
0001
0000
0001
1000
0031
,  // measure 49
0000
0001
0100
0010
1000
0001
1001
0001
,  // measure 50
2000
0000
3020
0000
0230
0000
0320
2030
,  // measure 51
0000
0000
0001
0010
0001
0010
3001
0000
,  // measure 52
0002
0000
0023
0000
0230
0000
2300
3020
,  // measure 53
0000
1000
0001
1000
0001
1000
0001
1030
,  // measure 54
0200
0000
0320
0000
0032
0000
2003
3020
,  // measure 55
0000
0130
0010
1000
0020
0000
0031
0020
,  // measure 56
0000
1000
0100
1000
0000
1000
0001
1030
,  // measure 57
1000
0100
0010
0001
0010
0000
0100
0010
,  // measure 58
0001
0100
0010
1000
0001
0010
1000
0010
,  // measure 59
0001
0100
0010
1000
0001
0000
0001
0010
,  // measure 60
0000
0100
0000
0100
1000
0010
0100
0010
,  // measure 61
2020
0000
0000
3030
;

//---------------dance-single - ---------------
#NOTEDATA:;
#CHARTNAME:;
#CHARTSTYLE:;
#CREDIT:;
#STEPSTYPE:dance-single;
#DESCRIPTION:;
#DIFFICULTY:Hard;
#METER:15;
#METERF:15;
#RADARVALUES:0,0,0,0,0;
#NOTES:
// measure 0
0000
0000
0000
0000
,  // measure 1
0000
0000
0000
0000
,  // measure 2
2000
0000
3020
0000
0230
0000
0320
2000
,  // measure 3
0000
0000
3030
0000
,  // measure 4
0002
0000
2003
0000
3020
0000
0032
0020
,  // measure 5
0000
0000
0033
0000
,  // measure 6
2000
0000
3020
0000
0230
0000
0302
2003
,  // measure 7
0000
3200
0320
0032
0023
0000
0230
2000
,  // measure 8
0000
0000
0000
3300
,  // measure 9
2002
0000
0000
0000
3003
0000
0000
0000
0001
1000
0001
1000
2002
0000
3003
0000
,  // measure 10
1000
0000
0010
0000
0110
0000
0100
0000
0101
0000
0001
0100
0110
0000
1010
0000
,  // measure 11
1000
0000
1000
0100
0010
0000
0001
0100
0020
0000
2030
0000
3020
0000
0032
0000
,  // measure 12
0013
0000
1000
0000
1010
0000
0010
0000
0110
0000
0001
0100
0110
0000
1010
0000
,  // measure 13
1000
0000
0001
0010
0100
0000
1000
0010
0200
0000
0302
0000
2003
0000
3020
0000
,  // measure 14
0130
0000
0010
0000
1010
0000
1000
0000
1001
0000
0001
0010
0110
0000
1100
0000
,  // measure 15
0001
0000
0100
0010
1000
0000
0100
0010
0002
0000
0203
0000
0320
0000
2030
0000
,  // measure 16
3001
0000
0010
0000
0110
0000
1000
0000
0110
0000
0001
0010
0110
0000
1001
0000
,  // measure 17
0001
0000
0100
0001
1000
0000
0100
1000
0020
0000
0230
0000
0302
0000
0023
0000
,  // measure 18
0130
0000
0100
1000
0000
1000
0001
0000
0100
0000
0010
0100
0000
0100
0001
0000
,  // measure 19
0010
0000
0010
0000
0110
0000
0100
1000
0010
0000
0100
0000
0101
0000
0100
0000
,  // measure 20
0010
0000
1000
0010
0000
0010
1000
0000
0100
0000
0010
0001
0000
0001
0010
0000
,  // measure 21
0110
0000
1100
0000
1001
0000
0001
0100
0010
0000
0100
0000
0101
0000
0001
0000
,  // measure 22
0200
0000
0000
0320
0000
0000
2030
0000
3002
0000
0000
0023
0000
0000
0230
0000
,  // measure 23
1300
0000
1000
0002
0000
0000
0103
0000
0101
0000
0100
0000
0110
0000
0010
0000
,  // measure 24
1010
0000
0010
1000
0000
1000
0001
0000
1001
0000
0011
0000
0110
0000
0100
0010
,  // measure 25
0002
0000
0103
0000
0020
0000
1030
0000
0100
0010
0001
0010
0100
1000
0010
0100
,  // measure 26
0110
0000
1010
1000
0000
0001
0010
0000
0100
0000
0010
0001
0000
0001
1000
0000
,  // measure 27
0010
0000
0100
0000
0101
0000
1000
0100
0010
0000
0100
0000
1100
0000
1000
0000
,  // measure 28
1010
0000
0011
0010
0000
1000
0010
0000
0100
0000
0001
1000
0000
0100
0010
0000
,  // measure 29
0001
0000
0100
0000
0110
0000
0100
0001
1000
0000
0100
0000
0101
0000
0100
0000
,  // measure 30
2000
0000
0000
3020
0000
0000
0230
0000
0320
0000
0000
2030
0000
0000
3200
0000
,  // measure 31
0301
0000
0100
2000
0000
0000
3002
0000
0013
0000
0100
0000
1100
0000
0100
0000
,  // measure 32
0020
0000
0000
0032
0000
0000
0203
0000
2300
0000
3200
0000
0320
0000
0000
1030
,  // measure 33
0020
2030
3200
0320
,  // measure 34
0031
0000
0010
0000
0110
0000
0100
0000
1100
0000
1000
0010
0110
0000
0101
0000
,  // measure 35
1000
0000
0100
0010
0001
0000
0100
0010
2000
0000
3200
0000
0320
0000
0230
0000
,  // measure 36
1300
0000
0010
0000
0110
0000
0100
0000
0101
0000
1000
0100
0101
0000
1100
0000
,  // measure 37
0001
0000
0100
0010
1000
0000
0001
0010
2000
0000
3020
0000
0032
0000
0203
0000
,  // measure 38
0310
0000
0100
0000
0101
0000
0001
0000
0011
0000
0001
0010
0110
0000
1100
0000
,  // measure 39
1000
0000
0010
0100
1000
0000
0100
0010
2000
0000
3200
0000
0320
0000
0032
0000
,  // measure 40
0103
0000
0010
0000
1010
0000
1000
0000
1001
0000
0001
0010
0110
0000
1001
0000
,  // measure 41
1000
0000
0010
0100
0001
0000
0010
0100
2000
0000
3020
0000
0032
0000
0023
0000
,  // measure 42
2030
0000
3020
0000
0230
0000
0320
2030
,  // measure 43
0000
0000
0001
0010
0100
0010
3001
0000
,  // measure 44
0002
0000
2003
0000
3020
0000
0230
0302
,  // measure 45
0000
0000
0010
0100
0010
0103
0110
0010
,  // measure 46
2010
0000
3020
0000
0230
0000
0302
2003
,  // measure 47
0000
3200
0320
0032
0023
0000
0230
2300
,  // measure 48
0000
0001
0010
0001
0000
0001
0100
0001
,  // measure 49
0000
0001
0010
3100
1000
0010
0110
0100
,  // measure 50
0102
0000
0003
0000
2010
0000
3000
0000
1200
0000
0300
0000
0021
0030
1002
0000
,  // measure 51
0000
0000
0100
0010
1000
0010
0103
0000
,  // measure 52
0201
0300
0000
0000
2010
3000
0000
0000
0021
0030
0000
0000
1200
0300
1020
0000
,  // measure 53
0000
1000
0001
1000
0001
1000
0001
1030
,  // measure 54
2000
0000
3020
0000
0032
0000
0023
2030
,  // measure 55
0000
3200
0320
0032
0023
0000
0230
0320
,  // measure 56
0000
0001
0100
0001
0000
0001
1000
0031
,  // measure 57
0001
0000
0100
0000
0110
0000
0010
0000
1010
0000
1000
0100
0110
0000
0011
0000
,  // measure 58
1000
0000
0001
0100
0010
0000
1000
0100
0020
0000
0032
0000
0203
0000
0320
0000
,  // measure 59
1030
0000
0010
0000
0110
0000
0100
0000
0101
0000
0001
0010
0110
0000
1100
0000
,  // measure 60
0001
0000
0100
0010
1000
0000
0100
0010
0002
0000
0203
0000
0320
0000
0130
0000
,  // measure 61
2002
0000
0000
3003
;
