#TITLE:Tornero;
#SUBTITLE:(Live from Athens, Greece, 2006);
#ARTIST:Mihai Trăistariu;
#MUSIC:Tornero (Live from Athens, Greece, 2006).ogg;
#BANNER:Tornero (Live from Athens, Greece, 2006).png;
#BACKGROUND:Tornero (Live from Athens, Greece, 2006)-bg.png;
#LYRICSPATH:;
#CDTITLE:;
#SAMPLESTART:87.823;
#SAMPLELENGTH:16.59700000000001;
#OFFSET:-6.1;
#BPMS:0.000000=130.000000,
104.000000=65.000000,
119.000000=127.500000,
120.000000=130.000000,
160.000000=65.000000,
161.000000=130.000000,
162.000000=260.000000,
164.000000=130.000000
;
#STOPS:160.000000=0.924000;
#TIMESIGNATURES:0.000000=4=4;
#BGCHANGES:;
#FGCHANGES:;
#ATTACKS:;
#SPEEDS:0.000000=1.000000=0.000000=0;
#SCROLLS:0.000000=1.000000;
#KEYSOUNDS:;

//---------------dance-single - ---------------
#NOTES:
     dance-single:
     :
     Beginner:
     4:
     0,0,0,0,0:
// measure 0
0000
0000
0000
0000
,  // measure 1
0000
0000
0000
0000
,  // measure 2
2000
0000
3000
0000
,  // measure 3
0002
0000
0003
0000
,  // measure 4
2002
0000
3003
0000
,  // measure 5
0220
0000
0330
0000
,  // measure 6
0200
0000
0300
0000
,  // measure 7
0020
0000
0030
0000
,  // measure 8
0220
0000
0330
0000
,  // measure 9
1001
0000
0000
0000
,  // measure 10
1000
1000
1000
0000
,  // measure 11
0001
0001
0001
0000
,  // measure 12
0010
0010
0010
0000
,  // measure 13
0001
0001
0001
0000
,  // measure 14
1000
1000
1000
0000
,  // measure 15
0001
0001
0001
0000
,  // measure 16
0020
0000
0030
0000
,  // measure 17
0110
0000
0000
0000
,  // measure 18
0100
0100
0100
0000
,  // measure 19
0100
0100
0100
0000
,  // measure 20
1000
0000
0001
0000
,  // measure 21
0100
0000
0100
0000
,  // measure 22
0010
0010
0010
0000
,  // measure 23
0010
0010
0010
0000
,  // measure 24
0001
0000
1000
0000
,  // measure 25
0220
0000
0330
0000
,  // measure 26
0010
0000
0010
0000
,  // measure 27
1000
0000
0001
0000
,  // measure 28
0020
0000
0000
0000
0000
0000
0000
0000
0000
0000
0000
0000
0000
0200
0000
0000
,  // measure 29
0000
0000
0000
0000
0000
0000
0000
0000
0000
0000
0000
0330
0000
0000
0000
0000
0000
0000
0000
0000
0000
0000
0000
0000
0000
0000
0000
0000
0000
0000
0000
0000
,  // measure 30
0020
0000
0030
0000
,  // measure 31
0020
0000
0030
0000
,  // measure 32
0010
0000
0001
0000
,  // measure 33
1000
0000
0100
0000
,  // measure 34
0020
0000
0030
0000
,  // measure 35
0020
0000
0030
0000
,  // measure 36
0200
0000
0000
0300
,  // measure 37
0100
0100
0100
0100
,  // measure 38
0200
0000
0000
0000
,  // measure 39
0000
0000
0000
0300
,  // measure 40
0100
0001
0000
0000
0000
0000
0000
0000
0000
0000
0000
0000
0000
0000
0000
0000
0000
0000
0000
0000
0000
0000
0000
0000
0000
0000
0000
0000
0000
0000
0000
0000
0000
0000
0000
0000
0000
0000
0000
0000
0000
0000
0000
0000
0000
0000
0000
0000
1000
0000
0000
0000
0000
0000
0000
0000
0000
0000
0000
0000
0000
0000
0000
0000
0000
0000
0000
0000
0000
0000
0000
0000
0000
0000
0000
0000
0000
0000
0000
0000
0000
0000
0000
0000
0000
0000
0000
0000
0000
0000
0000
0000
0000
0000
0000
0000
0000
0000
0000
0000
0000
0000
0000
0000
0000
0000
0000
0000
0000
0000
0000
0000
0000
0000
0000
0000
0000
0000
0000
0000
0000
0000
0000
0000
0000
0000
0000
0000
0000
0000
0000
0000
0000
0000
0000
0000
0000
0000
0000
0000
0000
0000
0000
0000
0000
0000
0000
0000
0000
0000
0000
0000
0000
0000
0000
0000
0000
0000
0000
0000
0000
0000
0000
0000
0000
0000
0000
0000
0000
0000
0000
0000
0000
0000
0000
0000
0000
0000
0000
0000
0000
0000
0000
0000
0000
0000
0000
0000
0000
0000
0000
0000
,  // measure 41
0100
0100
0100
0000
,  // measure 42
0100
0100
0100
0000
,  // measure 43
1000
0000
0001
0000
,  // measure 44
0100
0000
0001
0000
,  // measure 45
0010
0010
0010
0000
,  // measure 46
0010
0010
0010
0000
,  // measure 47
0001
0000
1000
0000
,  // measure 48
0010
0000
1000
0000
,  // measure 49
0100
0100
0100
0000
,  // measure 50
0100
0100
0100
0000
,  // measure 51
1000
0000
0001
0000
,  // measure 52
0100
0000
0001
0000
,  // measure 53
0010
0010
0010
0000
,  // measure 54
0010
0010
0010
0000
,  // measure 55
0001
0001
1000
1000
,  // measure 56
2002
0000
0000
3003
;

//---------------dance-single - ---------------
#NOTES:
     dance-single:
     :
     Easy:
     7:
     0,0,0,0,0:
// measure 0
0000
0000
0000
0000
,  // measure 1
0000
0000
0000
0000
,  // measure 2
2000
0000
3020
0000
,  // measure 3
0230
0000
0302
0000
,  // measure 4
2003
0000
0000
0000
,  // measure 5
0002
0000
3000
0000
,  // measure 6
2003
0000
3002
0000
,  // measure 7
0023
0000
0230
0000
,  // measure 8
2300
0000
0000
0000
3020
0000
0000
0030
,  // measure 9
0220
0000
0330
0000
,  // measure 10
0010
1000
0001
0011
,  // measure 11
0010
0001
1000
1001
,  // measure 12
1000
0100
0010
0001
,  // measure 13
1000
1010
0001
0011
,  // measure 14
1000
0010
0100
0101
,  // measure 15
0001
0010
0100
1100
,  // measure 16
2020
0000
0000
3030
,  // measure 17
0220
0330
0100
0001
,  // measure 18
0100
0010
0100
0001
,  // measure 19
1000
0100
0010
0100
,  // measure 20
1000
0010
0001
0010
,  // measure 21
1000
0100
0001
0100
,  // measure 22
0010
0001
0100
0001
,  // measure 23
0010
0100
1000
0001
,  // measure 24
0100
1000
0100
0010
,  // measure 25
2002
0000
0000
3003
,  // measure 26
2000
3100
0002
0103
,  // measure 27
2000
3010
0002
0013
,  // measure 28
2002
0000
0000
0000
0000
0000
0000
0000
0000
0000
0003
0000
0000
0010
0000
0010
,  // measure 29
0000
0000
0000
0010
0000
0000
0000
0000
0000
0010
0000
0000
0000
0000
0000
0000
0020
0000
0000
0000
0000
0000
0000
0000
3030
0000
0000
0000
0000
2000
0000
0000
0000
0000
0000
0000
3020
0000
0000
0000
0000
0000
0000
0000
0000
0000
0000
0000
,  // measure 30
0130
0001
0010
0110
,  // measure 31
0010
0001
0100
0101
,  // measure 32
2000
3010
0002
0013
,  // measure 33
0200
0000
0310
0000
2000
0000
3020
0030
,  // measure 34
0100
0001
0010
0110
,  // measure 35
0100
1000
0010
0110
,  // measure 36
0200
0000
0000
0000
,  // measure 37
0010
0010
0010
0010
,  // measure 38
0020
0000
0000
0000
,  // measure 39
0000
0000
0000
0000
,  // measure 40
0330
0002
0000
0000
0000
0000
0000
0000
0000
0000
0000
0000
0000
0000
0000
0000
0000
0000
0000
0000
0000
0000
0000
0000
0000
0000
0000
0000
0000
0000
0000
0000
0000
0000
0000
0000
0000
0000
0000
0000
0000
0000
0000
0000
0000
0000
0000
0000
2003
0000
0000
0000
0000
0000
0000
0000
0000
0000
0000
0000
0000
0000
0000
0000
0000
0000
0000
0000
0000
0000
0000
0000
0000
0000
0000
0000
0000
0000
0000
0000
0000
0000
0000
0000
0000
0000
0000
0000
0000
0000
0000
0000
0000
0000
0000
0000
0000
0000
0000
0000
0000
0000
0000
0000
0000
0000
0000
0000
0000
0000
0000
0000
0000
0000
0000
0000
0000
0000
0000
0000
0000
0000
0000
0000
0000
0000
0000
0000
0000
0000
0000
0000
0000
0000
0000
0000
0000
0000
0000
0000
0000
0000
0000
0000
0000
0000
0000
0000
0000
0000
0000
0000
0000
0000
0000
0000
0000
0000
0000
0000
0000
0000
0000
0000
0000
0000
0000
0000
0000
0000
0000
0000
0000
0000
0000
0000
0000
0000
0000
0000
0000
0000
0000
0000
0000
0000
0000
0000
0000
0000
0000
0000
,  // measure 41
3100
0010
0001
0011
,  // measure 42
0010
0100
1000
1100
,  // measure 43
1000
0010
0001
0010
,  // measure 44
1000
0100
0001
0100
,  // measure 45
1000
0001
0100
0101
,  // measure 46
0001
1000
0100
1100
,  // measure 47
1000
0100
0001
0100
,  // measure 48
1000
0010
0001
0010
,  // measure 49
1000
0100
0001
0101
,  // measure 50
0001
0100
1000
1100
,  // measure 51
1000
0010
0100
0001
,  // measure 52
0010
0100
1000
0010
,  // measure 53
0100
0001
0010
0110
,  // measure 54
0010
0001
0100
0010
,  // measure 55
1000
1000
0001
0010
,  // measure 56
0220
0000
0000
0330
;

//---------------dance-single - ---------------
#NOTES:
     dance-single:
     :
     Medium:
     12:
     0,0,0,0,0:
// measure 0
0000
0000
0000
0000
,  // measure 1
0000
0000
0000
0000
0000
0000
0000
0001
,  // measure 2
2000
0000
3020
0000
,  // measure 3
0230
0000
0302
0000
,  // measure 4
2003
0000
0000
0000
,  // measure 5
3020
0000
0000
0000
,  // measure 6
2030
0000
3200
0000
,  // measure 7
0302
0000
0203
0000
,  // measure 8
2300
0000
0000
0002
0000
0000
3003
0000
,  // measure 9
0220
0000
0330
0010
1000
0001
1000
0000
,  // measure 10
1000
0001
0100
0000
0010
0000
0110
0000
,  // measure 11
0010
1000
0100
0000
1000
0000
1001
0000
,  // measure 12
0001
0100
0010
0000
0100
0000
0110
0000
,  // measure 13
0020
2030
3002
0103
,  // measure 14
0001
1000
0100
0000
0010
0000
0110
0000
,  // measure 15
0010
0100
1000
0000
0001
0000
0101
0000
,  // measure 16
2002
0000
0000
3003
,  // measure 17
0220
0330
0200
2300
,  // measure 18
3001
0100
1000
0000
0100
0000
0101
0000
,  // measure 19
0001
0010
1000
0000
0010
0000
0011
0000
,  // measure 20
0010
0001
0100
0000
0010
1000
0100
0000
,  // measure 21
1000
0001
0100
0000
0200
0000
0302
0000
,  // measure 22
0013
0100
1000
0000
0001
0000
1001
0000
,  // measure 23
1000
0001
0010
0000
0100
0000
0110
0000
,  // measure 24
2000
0000
3002
0000
0203
0000
0320
0030
,  // measure 25
2020
0000
0000
3030
,  // measure 26
2000
0000
3001
0000
0002
0100
0020
0033
,  // measure 27
0002
0000
2003
0000
3020
0100
1030
0000
,  // measure 28
2002
0000
0000
0000
0000
0000
0000
0000
0000
0000
0003
0000
0000
0010
0000
0010
,  // measure 29
0000
0000
0000
0010
0000
0000
0000
0000
0000
0010
0000
0000
0000
0000
0000
0000
0020
0000
0000
0000
0000
0000
0000
0000
3030
0000
0000
0000
0000
2000
0000
0000
0000
0000
0000
0000
3020
0000
0000
0000
0000
0000
0000
0000
0000
0000
0000
0000
,  // measure 30
0130
0010
1000
0000
0100
0010
0001
0000
,  // measure 31
1000
0001
0100
0000
0001
1000
0100
0000
,  // measure 32
2000
3001
0002
1003
,  // measure 33
2001
3100
1002
0103
,  // measure 34
0001
1000
0100
0000
1000
0001
0100
0000
,  // measure 35
0001
0010
0100
0000
1000
0010
0100
0000
,  // measure 36
0200
0000
0000
0000
,  // measure 37
0010
0010
0010
0010
,  // measure 38
0020
0000
0000
0000
,  // measure 39
0000
0000
0000
0000
,  // measure 40
0330
0200
0000
0000
0000
0000
0000
0000
0000
0000
0000
0000
0000
0000
0000
0000
0000
0000
0000
0000
0000
0000
0000
0000
0000
0000
0000
0000
0000
0000
0000
0000
0000
0000
0000
0000
0000
0000
0000
0000
0000
0000
0000
0000
0000
0000
0000
0000
0302
0000
0000
0000
0000
0000
0000
0000
0000
0000
0000
0000
0000
0000
0000
0000
0000
0000
0000
0000
0000
0000
0000
0000
0000
0000
0000
0000
0000
0000
0000
0000
0000
0000
0000
0000
0000
0000
0000
0000
0000
0000
0000
0000
0000
0000
0000
0000
0000
0000
0000
0000
0000
0000
0000
0000
0000
0000
0000
0000
0000
0000
0000
0000
0000
0000
0000
0000
0000
0000
0000
0000
0000
0000
0000
0000
0000
0000
0000
0000
0000
0000
0000
0000
0000
0000
0000
0000
0000
0000
0000
0000
0000
0000
0000
0000
0000
0000
0000
0000
0000
0000
0000
0000
0000
0000
0000
0000
0000
0000
0000
0000
0000
0000
0000
0000
0000
0000
0000
0000
0000
0000
0000
0000
0000
0000
0000
0000
0000
0000
0000
0000
0000
0000
0000
0000
0000
0000
0000
0000
0000
0000
0000
0000
,  // measure 41
0103
0000
0001
0000
0100
0010
1000
0000
,  // measure 42
0001
0000
0100
0000
0010
1000
0100
0000
,  // measure 43
1000
0001
0010
0000
0001
1000
0010
0000
,  // measure 44
0200
0302
2003
3200
,  // measure 45
1300
0000
0100
0000
0010
0001
0100
0000
,  // measure 46
0001
0000
0100
0000
0010
1000
0100
0000
,  // measure 47
1000
0100
0001
0000
0001
0100
1000
0000
,  // measure 48
1001
0000
0110
0000
0100
0010
2000
0000
,  // measure 49
3001
0000
0010
0000
0100
1000
0001
0000
,  // measure 50
0100
0000
0010
0000
1000
0010
0100
0000
,  // measure 51
0001
0010
1000
0000
1000
0010
0001
0000
,  // measure 52
0001
0100
0010
0000
1000
0100
0020
0000
,  // measure 53
0031
0000
0100
0000
1000
0100
0001
0000
,  // measure 54
0010
0000
0100
0000
1000
0001
0100
0000
,  // measure 55
0010
0000
0000
0000
0010
0000
0000
0000
0010
0000
0010
0000
1000
0001
1000
0000
,  // measure 56
2002
0000
0000
3003
;

//---------------dance-single - ---------------
#NOTES:
     dance-single:
     :
     Hard:
     15:
     0,0,0,0,0:
// measure 0
0000
0000
0000
0000
,  // measure 1
0000
0000
0000
0000
0000
0000
0000
0010
,  // measure 2
1000
0001
0100
0020
0000
1030
0100
0020
,  // measure 3
0000
0000
0000
0000
0031
0010
0100
0010
,  // measure 4
0001
0100
0010
1000
0100
0010
0110
0000
,  // measure 5
0010
0001
0100
0010
1000
0001
1001
1000
,  // measure 6
0001
0001
0010
0200
0000
0310
0001
0200
,  // measure 7
0000
0301
1000
0100
0001
0100
1000
0010
,  // measure 8
0100
0001
1000
0020
0000
0000
0030
0000
,  // measure 9
0220
0000
0330
0010
0100
0100
1000
0100
,  // measure 10
0001
0010
0100
1000
0001
0100
0010
0100
,  // measure 11
0001
1000
0100
0001
0001
1000
0001
0100
,  // measure 12
1000
0100
0010
0001
0100
0010
1000
0010
,  // measure 13
0100
1000
0001
1000
0100
0001
1000
0100
,  // measure 14
0010
0001
0100
0010
1000
0001
1001
0001
,  // measure 15
1000
0010
0100
0001
1000
0100
0010
0120
,  // measure 16
0100
0100
1000
1000
0001
0001
0130
0000
,  // measure 17
2002
3003
0200
0302
,  // measure 18
1003
0100
0010
0100
1000
0001
0100
0001
,  // measure 19
1000
0100
0100
1000
0001
0100
0010
1000
,  // measure 20
0100
0001
0100
1000
0010
0100
0001
0100
,  // measure 21
0010
0010
0001
0010
1000
0100
0001
0100
,  // measure 22
0010
0001
0100
0010
1000
0100
0010
1000
,  // measure 23
0010
0010
0001
0010
0100
1000
0001
0100
,  // measure 24
1000
0100
0001
0010
0100
1000
0001
0100
,  // measure 25
2002
0000
0000
0000
0000
0000
3003
1000
,  // measure 26
0001
0100
0010
1000
0100
0010
0001
0100
0020
0000
2030
0000
3002
0000
0000
0013
,  // measure 27
0100
0010
0001
0100
0010
1000
0100
0001
0100
0000
1000
0000
1001
0000
0001
1000
,  // measure 28
2002
0000
0000
0000
0000
0000
0000
0000
0000
0000
0003
0000
0000
0010
0010
0010
,  // measure 29
0010
0000
0000
0010
0000
0000
0010
0000
0000
0010
0000
0000
0010
0000
0000
0000
0020
0000
0000
0000
0000
0000
0000
0000
3030
0000
0000
0000
0000
0002
0000
0000
0000
0000
0000
0000
0023
0000
0000
0000
0000
0000
0000
0000
0000
0000
0000
0000
,  // measure 30
0230
1000
0001
0010
1000
1000
0301
0020
,  // measure 31
0001
0100
1000
0001
1000
1000
0130
0000
,  // measure 32
0100
1000
0010
0100
0001
0100
1000
0100
,  // measure 33
0001
0010
0100
1000
0010
0100
0110
0010
,  // measure 34
2000
0001
0100
0010
0100
0001
3010
0002
,  // measure 35
0100
0000
0000
0010
0000
0000
1000
0000
0000
0103
0000
0000
1000
0000
0000
0000
0001
0000
0000
0000
1000
0000
0000
0000
,  // measure 36
2002
0000
0000
0003
,  // measure 37
0010
0000
0010
0000
0100
0100
0001
3001
,  // measure 38
0220
0000
0000
0000
,  // measure 39
0000
0000
0000
0000
,  // measure 40
0330
0200
0000
0000
0000
0000
0000
0000
0000
0000
0000
0000
0000
0000
0000
0000
0000
0000
0000
0000
0000
0000
0000
0000
0000
0000
0000
0000
0000
0000
0000
0000
0000
0000
0000
0000
0000
0000
0000
0000
0000
0000
0000
0000
0000
0000
0000
0000
2300
0000
0000
0000
0000
0000
0000
0000
0000
0000
0000
0000
0000
0000
0000
0000
0000
0000
0000
0000
0000
0000
0000
0000
0000
0000
0000
0000
0000
0000
0000
0000
0000
0000
0000
0000
0000
0000
0000
0000
0000
0000
0000
0000
0000
0000
0000
0000
0000
0000
0000
0000
0000
0000
0000
0000
0000
0000
0000
0000
0000
0000
0000
0000
0000
0000
0000
0000
0000
0000
0000
0000
0000
0000
0000
0000
0000
0000
0000
0000
0000
0000
0000
0000
0000
0000
0000
0000
0000
0000
0000
0000
0000
0000
0000
0000
0000
0000
0000
0000
0000
0000
0000
0000
0000
0000
0000
0000
0000
0000
0000
0000
0000
0000
0000
0000
0000
0000
0000
0000
0000
0000
0000
0000
0000
0000
0000
0000
0000
0000
0000
0000
0000
0000
0000
0000
0000
0000
0000
0000
0000
0000
0000
0000
,  // measure 41
3100
0000
1000
0001
0100
0000
0001
0000
0011
0000
0010
0000
1010
0000
0010
0000
,  // measure 42
0110
1100
1001
0101
0001
0010
0100
0010
,  // measure 43
0001
0000
1000
0001
0010
0000
0001
1000
0010
0000
1000
0001
0100
0000
0001
1000
,  // measure 44
0100
1000
1001
1000
0001
0100
1000
0100
,  // measure 45
0001
0000
0010
0100
1000
0000
0001
0010
0100
0000
1000
0000
1001
0000
0001
0000
,  // measure 46
0011
0101
1100
1010
1000
0100
0001
0100
,  // measure 47
2000
3010
0002
0013
2000
3100
0002
0103
,  // measure 48
2001
3001
1002
1003
1000
0010
0110
0010
,  // measure 49
1000
0000
0001
0010
0100
0000
1000
0100
0010
0000
0001
0000
1001
0000
1000
0000
,  // measure 50
1010
1100
0101
0011
0100
0010
1010
0010
,  // measure 51
0001
0000
0100
0001
0010
0000
0100
1000
0010
0000
0100
0001
0010
0000
0100
0000
,  // measure 52
1000
0010
0100
0010
2000
3020
0032
0023
,  // measure 53
1030
0000
0001
0010
0100
0000
1000
0000
1001
0000
0001
0000
1001
0000
1000
0000
,  // measure 54
1010
0110
0101
1001
1000
0100
0001
0100
,  // measure 55
1100
0000
1000
0000
1001
0000
0001
0000
0011
0000
0110
0000
0010
0001
0100
0010
,  // measure 56
0220
0000
0000
0330
;
