#TITLE:To Dream Again;
#SUBTITLE:(Live from Riga, Latvia, 2003);
#ARTIST:Lynn Chircop;
#MUSIC:To Dream Again (Live from Riga, Latvia, 2003).ogg;
#BANNER:To Dream Again (Live from Riga, Latvia, 2003).png;
#BACKGROUND:To Dream Again (Live from Riga, Latvia, 2003)-bg.png;
#LYRICSPATH:;
#CDTITLE:;
#SAMPLESTART:67.916;
#SAMPLELENGTH:15.384;
#OFFSET:-0.229;
#BPMS:0.000000=117.011000;
#STOPS:;
#TIMESIGNATURES:0.000000=4=4;
#BGCHANGES:;
#FGCHANGES:;
#ATTACKS:;
#SPEEDS:0.000000=1.000000=0.000000=0;
#SCROLLS:0.000000=1.000000;
#KEYSOUNDS:;

//---------------dance-single - ---------------
#NOTES:
     dance-single:
     :
     Beginner:
     4:
     0,0,0,0,0:
// measure 0
0000
0000
0000
0000
,  // measure 1
0000
0000
0000
0000
,  // measure 2
0000
0000
0000
0000
,  // measure 3
0000
0000
0000
0000
,  // measure 4
1000
0000
0001
0000
,  // measure 5
1000
0000
0001
0000
,  // measure 6
0100
0000
0001
0000
,  // measure 7
0010
0000
0100
0000
,  // measure 8
1000
0000
0010
0000
,  // measure 9
0100
0000
0010
0000
,  // measure 10
1000
0000
0100
0000
,  // measure 11
0010
0000
0001
0000
,  // measure 12
1000
0000
0010
0000
,  // measure 13
0100
0000
0001
0000
,  // measure 14
1000
0000
0100
0000
,  // measure 15
0001
0000
0100
0000
,  // measure 16
1000
0000
0001
0000
,  // measure 17
0020
0000
0030
0000
,  // measure 18
0200
0000
0300
0000
,  // measure 19
0100
0100
0100
0000
,  // measure 20
1000
1000
1000
0000
,  // measure 21
0001
0001
0001
0000
,  // measure 22
0100
0100
0100
0000
,  // measure 23
1000
1000
1000
0000
,  // measure 24
0001
0001
0001
0000
,  // measure 25
0010
0010
0010
0000
,  // measure 26
0001
0001
0001
0000
,  // measure 27
0010
0000
0001
0000
,  // measure 28
1000
1000
1000
0000
,  // measure 29
0001
0000
0010
0000
,  // measure 30
0020
0000
0030
0000
,  // measure 31
0002
0000
0003
0000
,  // measure 32
2000
0000
3000
0000
,  // measure 33
0200
0000
0300
0000
,  // measure 34
1000
1000
1000
0000
,  // measure 35
0001
0001
0001
0000
,  // measure 36
0010
0010
0010
0000
,  // measure 37
0001
0001
0001
0000
,  // measure 38
1000
1000
1000
0000
,  // measure 39
0010
0010
0010
0000
,  // measure 40
0100
0100
0100
0000
,  // measure 41
0001
0001
0001
0000
,  // measure 42
0100
0100
0100
0000
,  // measure 43
0001
0001
0001
0000
,  // measure 44
1000
1000
1000
0000
,  // measure 45
0010
0010
0010
0000
,  // measure 46
0100
0100
0100
0000
,  // measure 47
0001
0001
0001
0000
,  // measure 48
1000
1000
1000
0000
,  // measure 49
0100
0100
0100
0000
,  // measure 50
1000
0000
0001
0000
,  // measure 51
0010
0000
0010
0000
,  // measure 52
0001
0000
0001
0000
,  // measure 53
1000
0000
1000
0000
,  // measure 54
0010
0000
0010
0000
,  // measure 55
0100
0000
0100
0000
,  // measure 56
0001
0000
0001
0000
,  // measure 57
1000
0000
1000
0000
,  // measure 58
0100
0000
0100
0000
,  // measure 59
0110
0000
0000
0000
;

//---------------dance-single - ---------------
#NOTES:
     dance-single:
     :
     Easy:
     7:
     0,0,0,0,0:
// measure 0
0000
0000
0000
0000
,  // measure 1
0000
0000
0000
0000
,  // measure 2
0000
0000
0000
0000
,  // measure 3
0000
0000
0000
1000
,  // measure 4
0001
0010
0001
0100
,  // measure 5
1000
0100
0001
1000
,  // measure 6
0200
0001
1000
0310
,  // measure 7
0100
1000
0001
0100
,  // measure 8
1000
0100
0010
1000
,  // measure 9
0001
0010
0100
1000
,  // measure 10
0001
0100
0010
1000
,  // measure 11
0002
0010
2003
0100
,  // measure 12
3001
0010
0100
1000
,  // measure 13
0002
0100
2003
0010
,  // measure 14
3001
0001
0010
0100
,  // measure 15
1000
0001
0100
0010
,  // measure 16
2000
3001
0002
1003
,  // measure 17
2002
0000
0000
3003
,  // measure 18
0220
0000
0330
1010
,  // measure 19
0101
0001
0010
0100
,  // measure 20
1000
0001
0010
0100
,  // measure 21
1000
0200
1000
0010
,  // measure 22
1300
0001
1000
1000
,  // measure 23
0001
0010
0001
0100
,  // measure 24
0010
1000
0001
0010
,  // measure 25
0001
0200
0001
0010
,  // measure 26
1300
0001
0010
0001
,  // measure 27
1001
1000
0010
0100
,  // measure 28
0001
1000
0010
0100
,  // measure 29
0001
0010
0100
1000
,  // measure 30
0020
0100
0001
1030
,  // measure 31
0100
0010
0001
1000
,  // measure 32
0010
0100
0001
1000
,  // measure 33
2002
0000
3003
0110
,  // measure 34
1010
0001
0010
0100
,  // measure 35
1000
0001
0010
0100
,  // measure 36
1000
0200
0001
0010
,  // measure 37
1300
0001
0100
0010
,  // measure 38
1000
0001
0010
0001
,  // measure 39
0100
0010
1000
0001
,  // measure 40
0010
0200
1000
0001
,  // measure 41
1300
0010
0100
0001
,  // measure 42
1001
1000
0010
0100
,  // measure 43
0001
0010
0100
0010
,  // measure 44
0001
0200
1000
0010
,  // measure 45
0301
1000
0010
0100
,  // measure 46
0001
0010
1000
0010
,  // measure 47
0001
0100
1000
0001
,  // measure 48
0010
0200
0001
1000
,  // measure 49
0310
0001
0100
0010
,  // measure 50
2000
3200
0320
0230
,  // measure 51
1300
0001
0010
0100
,  // measure 52
1000
0001
0100
0010
,  // measure 53
1000
0001
0010
0001
,  // measure 54
0200
0320
2030
3020
,  // measure 55
0130
0001
0010
0100
,  // measure 56
1000
0001
0100
1000
,  // measure 57
0100
0010
1000
0001
,  // measure 58
0010
0100
1000
0001
,  // measure 59
1001
0000
0000
0000
;

//---------------dance-single - ---------------
#NOTES:
     dance-single:
     :
     Medium:
     12:
     0,0,0,0,0:
// measure 0
0000
0000
0000
0000
,  // measure 1
0000
0000
0000
0000
,  // measure 2
0000
0000
0000
0000
,  // measure 3
0000
0000
0000
0000
0000
0000
1000
0001
,  // measure 4
1000
0000
0100
0000
1000
0000
0001
0100
,  // measure 5
0010
0000
0100
0000
0001
0000
0010
0100
,  // measure 6
1000
0000
0001
0000
0100
0000
1000
0100
,  // measure 7
0001
0000
0010
0000
0100
0000
0010
0100
,  // measure 8
1000
0000
0001
0000
0100
0000
0010
0100
,  // measure 9
0001
0000
1000
0000
0010
0000
0100
0010
,  // measure 10
1000
0000
0001
0000
0010
0000
0100
1000
,  // measure 11
0010
0000
0100
0001
0000
1000
0010
0100
,  // measure 12
0010
0000
1000
0010
0000
0100
0000
0001
,  // measure 13
2000
0100
0001
3100
,  // measure 14
0100
2000
0000
3020
0000
0230
0000
0302
,  // measure 15
0000
0203
0000
2300
0000
3100
0010
0000
,  // measure 16
2000
0000
3100
0002
0000
0000
0103
0020
,  // measure 17
0000
0001
1000
0031
,  // measure 18
2002
0000
3003
0110
,  // measure 19
0100
0001
1000
0001
0100
0000
0010
0000
,  // measure 20
0100
0001
1000
0010
0010
0000
0100
0001
,  // measure 21
0000
0200
0000
0000
1000
0000
0301
0000
,  // measure 22
0002
0000
0023
0000
0130
1000
0000
0001
,  // measure 23
0000
0100
0010
0100
0001
0000
1000
0010
,  // measure 24
0000
1000
0010
0100
0001
0000
0010
0100
,  // measure 25
0000
2000
0000
0000
0001
0000
3100
0000
,  // measure 26
0001
0100
1000
0100
0001
0000
1001
0000
,  // measure 27
1000
0010
0000
0100
0000
0010
0000
1000
,  // measure 28
0000
0001
0010
0100
0020
0000
0031
0000
,  // measure 29
0001
0100
0010
2000
0000
3002
0000
0023
,  // measure 30
0000
0001
1000
0031
,  // measure 31
0200
1000
0001
1300
,  // measure 32
0020
0100
1000
0031
,  // measure 33
2002
0000
3003
0110
,  // measure 34
0100
0010
1000
0010
0100
0000
0001
0000
,  // measure 35
0010
0100
1000
0100
0010
0000
0001
1000
,  // measure 36
0000
0010
0200
0000
0001
0000
1300
0000
,  // measure 37
0001
0100
0010
0100
0001
0000
1001
1000
,  // measure 38
0000
1000
0010
0100
0001
0000
1000
0010
,  // measure 39
0000
0100
0010
1000
0001
0000
0010
0100
,  // measure 40
0000
2000
0001
0000
0100
0000
3001
0000
,  // measure 41
0001
1000
0001
1000
0010
0000
1010
0000
,  // measure 42
0101
0001
0010
0100
1000
0000
0001
0000
,  // measure 43
0100
0010
1000
0010
0100
0000
0001
1000
,  // measure 44
0000
0010
0200
0000
0001
0000
1300
0000
,  // measure 45
1000
0100
0001
1000
0100
0000
0110
0100
,  // measure 46
0000
0100
1000
0001
0100
0000
0010
0100
,  // measure 47
0000
0001
0010
0100
1000
0000
0001
0010
,  // measure 48
0000
0100
2000
0000
0001
0000
3100
0000
,  // measure 49
0100
1000
0001
0100
0010
0000
1010
0000
,  // measure 50
1000
1000
0001
0000
0001
0001
1000
0000
,  // measure 51
1001
0000
0110
0000
0100
0010
1000
0000
,  // measure 52
1010
0000
0101
0000
0100
0001
0010
0000
,  // measure 53
0011
0000
1100
0000
0100
1000
0001
0000
,  // measure 54
0100
0010
1000
0000
0100
0010
0001
0000
,  // measure 55
0011
0000
1100
0000
0100
1000
0010
0000
,  // measure 56
1010
0000
0101
0000
0001
0010
0100
0000
,  // measure 57
0110
0000
1001
0000
1000
0010
0100
0000
,  // measure 58
0100
0001
1000
0000
0100
0010
0001
0000
,  // measure 59
1001
0000
0000
0000
;

//---------------dance-single - ---------------
#NOTES:
     dance-single:
     :
     Hard:
     14:
     0,0,0,0,0:
// measure 0
0000
0000
0000
0000
,  // measure 1
0000
0000
0000
0000
,  // measure 2
0000
0000
0000
0000
,  // measure 3
0000
0000
0000
0000
0000
0000
0000
0000
0000
0000
0000
0000
1000
0100
0010
0100
,  // measure 4
1000
0010
0100
0001
0010
0100
1100
0100
,  // measure 5
0001
0100
0010
0001
0100
0010
1010
0010
,  // measure 6
0100
1000
0100
0010
1000
0001
1001
0001
,  // measure 7
0010
0100
1000
0001
0100
0010
1010
0010
,  // measure 8
0100
0001
0010
0100
0010
0001
1001
0001
,  // measure 9
0010
0100
1000
0010
0100
1000
1100
1000
,  // measure 10
0100
0010
1000
0001
0010
0100
0120
0000
,  // measure 11
0032
0000
0000
0000
0203
0000
0320
0000
2030
0000
3002
0003
0010
0000
0010
0000
,  // measure 12
0200
0001
2300
3002
0000
0023
0000
2030
,  // measure 13
0000
0010
0100
0010
,  // measure 14
3020
0032
0000
2003
0000
3020
0000
0230
,  // measure 15
0000
2300
0000
3200
0000
0301
1001
0000
,  // measure 16
1000
0100
0010
0100
1000
0010
0100
0001
,  // measure 17
0010
0100
1000
0001
0100
0010
1010
0010
,  // measure 18
0100
0000
0100
0000
0001
0000
0001
0000
1000
0100
1000
0100
0010
0100
0010
0100
,  // measure 19
0110
0010
0011
0001
1001
0000
1001
1000
,  // measure 20
1010
0010
0110
0100
0101
0000
0101
0001
,  // measure 21
2000
3200
0320
0032
0203
0320
1030
0001
,  // measure 22
2000
3020
0230
2300
3200
0302
1003
0100
,  // measure 23
0010
0100
1000
0001
0100
0010
1010
0010
,  // measure 24
0100
0001
0010
0100
1000
0001
1001
0001
,  // measure 25
0200
0320
2030
3002
0023
0230
2300
3001
,  // measure 26
0020
0032
0203
2300
3200
0320
1030
0001
,  // measure 27
0011
0020
0000
0230
0000
2300
0000
3002
,  // measure 28
0000
0103
0010
0100
0002
0000
1003
0000
,  // measure 29
1000
0200
0000
0320
0000
0130
1000
0001
,  // measure 30
0200
1000
0001
0310
,  // measure 31
0020
1000
0001
0130
,  // measure 32
0200
0001
1000
0310
,  // measure 33
2002
0000
3003
0110
,  // measure 34
1001
0001
0011
0010
0110
0000
0110
0100
,  // measure 35
1100
1000
1001
0001
0101
0100
0010
0100
,  // measure 36
0002
0023
0230
2300
3002
0203
1300
0100
,  // measure 37
0002
2003
3200
0320
0230
2300
3001
0100
,  // measure 38
0010
0100
0001
0010
0100
1000
1001
1000
,  // measure 39
0010
0100
1000
0100
0001
0010
0110
0010
,  // measure 40
0002
2003
3020
0230
2300
3200
0301
1000
,  // measure 41
0200
0000
0302
0000
0203
0000
2300
0000
3002
0000
0203
0300
0110
0000
0000
0000
,  // measure 42
1010
1000
1001
0001
0101
0000
0101
0001
,  // measure 43
0011
0010
0110
0100
1100
1000
1001
1000
,  // measure 44
0200
2300
3002
0203
0320
0230
0301
1000
,  // measure 45
0200
0302
0203
2300
3002
0203
0310
1000
,  // measure 46
0001
0010
0100
1000
0001
0100
0110
0100
,  // measure 47
0001
0010
0100
1000
0001
0100
0101
0100
,  // measure 48
0002
0023
0230
2300
3020
0230
1300
0100
,  // measure 49
0002
2003
3200
0320
0032
2003
3100
0010
,  // measure 50
0001
0000
0001
0000
1000
0000
1000
0000
0010
0100
0010
0100
0001
1000
0001
1000
,  // measure 51
0100
0010
0011
0010
0110
1100
1000
1001
,  // measure 52
0001
0010
1010
0010
0110
1100
1000
1010
,  // measure 53
0010
0100
1100
0100
0101
1001
1000
0200
,  // measure 54
0302
0203
2300
3020
0230
2300
3200
0302
,  // measure 55
0013
0100
1100
0100
0110
0011
0001
1001
,  // measure 56
1000
1010
0010
0110
0100
1100
0100
0101
,  // measure 57
0001
0011
0010
0110
0100
1100
1001
0000
,  // measure 58
0001
0000
0100
0000
0010
0000
0100
0000
0001
0010
0100
1000
0010
0100
1000
0100
,  // measure 59
2002
0000
3003
0000
;
