#VERSION:0.83;
#TITLE:Tic Toc;
#SUBTITLE:;
#ARTIST:Klea;
#TITLETRANSLIT:;
#SUBTITLETRANSLIT:;
#ARTISTTRANSLIT:;
#GENRE:;
#CREDIT:;
#ORIGIN:;
#MUSIC:Tic Toc.ogg;
#BANNER:Tic Toc.png;
#BACKGROUND:Tic Toc-bg.png;
#JACKET:Tic Toc-jacket.png;
#DISCIMAGE:;
#CDIMAGE:;
#SELECTABLE:YES;
#LYRICSPATH:;
#CDTITLE:;
#SAMPLESTART:97.456;
#SAMPLELENGTH:15.23599999999999;
#OFFSET:-0.32;
#BPMS:0.000000=126.010000;
#STOPS:200.000000=1.905000;
#WARPS:;
#DELAYS:;
#SPEEDS:0.000000=1.000000=0.000000=0;
#SCROLLS:0.000000=1.000000;
#TICKCOUNTS:;
#TIMESIGNATURES:0.000000=4=4;
#LABELS:;
#COMBOS:;
#FAKES:;
#BGCHANGES:;
#FGCHANGES:;
#ATTACKS:;
#KEYSOUNDS:;

//---------------dance-single - ---------------
#NOTEDATA:;
#CHARTNAME:;
#CHARTSTYLE:;
#CREDIT:;
#STEPSTYPE:dance-single;
#DESCRIPTION:;
#DIFFICULTY:Beginner;
#METER:4;
#METERF:4;
#RADARVALUES:0,0,0,0,0;
#NOTES:
// measure 0
0000
0000
0000
0000
,  // measure 1
0000
0000
0000
0000
,  // measure 2
1000
1000
1000
0000
,  // measure 3
0001
0001
0001
0000
,  // measure 4
0010
0010
0010
0000
,  // measure 5
0001
0001
0001
0000
,  // measure 6
1000
1000
1000
0000
,  // measure 7
0001
0001
0001
0000
,  // measure 8
0100
0100
0100
0000
,  // measure 9
0010
0010
0010
0000
,  // measure 10
1000
0000
1000
0000
,  // measure 11
0100
0100
0000
0000
,  // measure 12
0010
0010
0000
0000
,  // measure 13
0001
0001
0000
0000
,  // measure 14
1000
0000
0001
0000
,  // measure 15
0010
0010
0010
0010
,  // measure 16
0010
0000
0001
0000
,  // measure 17
1000
1000
0000
0000
,  // measure 18
1000
1000
1000
0000
,  // measure 19
0010
0010
0010
0000
,  // measure 20
0100
0100
0100
0000
,  // measure 21
0001
0001
0000
0000
,  // measure 22
2000
0000
3000
0000
,  // measure 23
0200
0000
0300
0000
,  // measure 24
1000
0000
0001
0000
,  // measure 25
0010
0010
0000
0000
,  // measure 26
0001
0001
0000
0000
,  // measure 27
0001
0000
1000
0000
,  // measure 28
0001
0000
1000
0000
,  // measure 29
0010
0010
0000
0000
,  // measure 30
0100
0100
0000
0000
,  // measure 31
0001
0000
0010
0000
,  // measure 32
0001
0000
0010
0000
,  // measure 33
0100
0100
0000
0000
,  // measure 34
1000
1000
0000
0000
,  // measure 35
0010
0000
0100
0000
,  // measure 36
0010
0000
0100
0000
,  // measure 37
0001
0001
0000
0000
,  // measure 38
0010
0010
0000
0000
,  // measure 39
0100
0000
1000
0000
,  // measure 40
0100
0000
1000
0000
,  // measure 41
0100
0100
0000
0000
,  // measure 42
1000
1000
1000
0000
,  // measure 43
0001
0001
0001
0000
,  // measure 44
0010
0010
0010
0000
,  // measure 45
0100
0100
0100
0000
,  // measure 46
1000
1000
0000
0000
,  // measure 47
0001
0001
0000
0000
,  // measure 48
1000
0000
0001
0000
,  // measure 49
0010
0010
0010
0010
,  // measure 50
0110
1000
0000
0000
0000
0000
0000
0000
0000
0000
0000
0000
0000
0000
0000
0000
0000
0000
0000
0000
0000
0000
0000
0000
0000
0000
0000
0000
0000
0000
0000
0000
0000
0000
0000
0000
0000
0000
0000
0000
0000
0000
0000
0000
0000
0000
0000
0000
1000
0000
0000
0000
0000
0000
0000
0000
0000
0000
0000
0000
0000
0000
0000
0000
0000
0000
0000
0000
0000
0000
0000
0000
0000
0000
0000
0000
0000
0000
0000
0000
0000
0000
0000
0000
0000
0000
0000
0000
0000
0000
0000
0000
0000
0000
0000
0000
0000
0000
0000
0000
0000
0000
0000
0000
0000
0000
0000
0000
0000
0000
0000
0000
0000
0000
0000
0000
0000
0000
0000
0000
0000
0000
0000
0000
0000
0000
0000
0000
0000
0000
0000
0000
0000
0000
0000
0000
0000
0000
0000
0000
0000
0000
0000
0000
0000
0000
0000
0000
0000
0000
0000
0000
0000
0000
0000
0000
0000
0000
0000
0000
0000
0000
0000
0000
0000
0000
0000
0000
0000
0000
0000
0000
0000
0000
0000
0000
0000
0000
0000
0000
0000
0000
0000
0000
0000
0000
0000
0000
0000
0000
0000
0000
,  // measure 51
0001
0000
1000
0000
,  // measure 52
0001
0000
1000
0000
,  // measure 53
0100
0100
0000
0000
,  // measure 54
0010
0010
0000
0000
,  // measure 55
0001
0000
0100
0000
,  // measure 56
0001
0000
0100
0000
,  // measure 57
0001
0001
0000
0000
,  // measure 58
1000
1000
0000
0000
,  // measure 59
0010
0000
0100
0000
,  // measure 60
0010
0000
0100
0000
,  // measure 61
0010
0010
0000
0000
,  // measure 62
1000
1000
0000
0000
,  // measure 63
0100
0000
0010
0000
,  // measure 64
0100
0000
0010
0000
,  // measure 65
0100
0000
1000
0000
,  // measure 66
0100
0000
0001
0000
,  // measure 67
0100
0000
1000
0000
,  // measure 68
0001
0001
0000
0000
;

//---------------dance-single - ---------------
#NOTEDATA:;
#CHARTNAME:;
#CHARTSTYLE:;
#CREDIT:;
#STEPSTYPE:dance-single;
#DESCRIPTION:;
#DIFFICULTY:Easy;
#METER:7;
#METERF:7;
#RADARVALUES:0,0,0,0,0;
#NOTES:
// measure 0
0000
0000
0000
0000
,  // measure 1
0000
0000
0000
0000
,  // measure 2
1100
0101
1100
0101
,  // measure 3
1000
0010
0001
0010
,  // measure 4
1010
0011
1010
0011
,  // measure 5
1000
0100
0001
0100
,  // measure 6
1100
0011
2002
3003
,  // measure 7
0101
1010
2002
3003
,  // measure 8
0011
0110
2200
3300
,  // measure 9
1100
0110
0022
0033
,  // measure 10
0001
0100
1000
0100
,  // measure 11
0010
0010
1000
0001
,  // measure 12
0010
0010
0100
1000
,  // measure 13
0010
0010
0100
0001
,  // measure 14
1000
0100
0010
0001
,  // measure 15
0100
0010
1000
0010
,  // measure 16
0001
0010
0100
0001
,  // measure 17
1000
0100
0001
0100
,  // measure 18
1000
0010
0001
0010
,  // measure 19
0100
0010
1000
0001
,  // measure 20
0010
0100
0010
0001
,  // measure 21
1000
2020
3030
1000
,  // measure 22
0002
0000
0023
0000
,  // measure 23
2030
0000
3200
0000
,  // measure 24
0301
0100
1000
0001
,  // measure 25
0220
0000
0000
0330
,  // measure 26
0110
1001
0000
1000
,  // measure 27
0001
0010
1000
0010
,  // measure 28
0100
1000
0001
0100
,  // measure 29
0010
0010
1000
1010
,  // measure 30
0101
1001
0000
0001
,  // measure 31
0010
1000
0010
0100
,  // measure 32
1000
0001
0100
1000
,  // measure 33
0100
0100
0001
0010
,  // measure 34
0011
1100
0000
0100
,  // measure 35
1000
0010
0001
0010
,  // measure 36
0100
0010
1000
0001
,  // measure 37
0010
0010
0100
0010
,  // measure 38
1010
0101
0000
0001
,  // measure 39
0010
1000
0010
0100
,  // measure 40
1000
0001
0100
1000
,  // measure 41
0100
0010
1000
0010
,  // measure 42
0110
0010
1000
0001
,  // measure 43
0011
0010
0100
0010
,  // measure 44
0110
0100
1000
0001
,  // measure 45
0100
1000
0100
0001
,  // measure 46
1001
1000
0100
0010
,  // measure 47
0110
0100
1000
0001
,  // measure 48
0011
1000
1010
0001
,  // measure 49
0011
0110
1100
0110
,  // measure 50
1001
1001
0000
0000
0000
0000
0000
0000
0000
0000
0000
0000
0000
0000
0000
0000
0000
0000
0000
0000
0000
0000
0000
0000
0000
0000
0000
0000
0000
0000
0000
0000
0000
0000
0000
0000
0000
0000
0000
0000
0000
0000
0000
0000
0000
0000
0000
0000
0110
0000
0000
0000
0000
0000
0000
0000
0000
0000
0000
0000
0000
0000
0000
0000
0000
0000
0000
0000
0000
0000
0000
0000
0000
0000
0000
0000
0000
0000
0000
0000
0000
0000
0000
0000
0000
0000
0000
0000
0000
0000
0000
0000
0000
0000
0000
0000
0000
0000
0000
0000
0000
0000
0000
0000
0000
0000
0000
0000
0000
0000
0000
0000
0000
0000
0000
0000
0000
0000
0000
0000
0000
0000
0000
0000
0000
0000
0000
0000
0000
0000
0000
0000
0000
0000
0000
0000
0000
0000
0000
0000
0000
0000
0000
0000
0100
0000
0000
0000
0000
0000
0000
0000
0000
0000
0000
0000
0000
0000
0000
0000
0000
0000
0000
0000
0000
0000
0000
0000
0000
0000
0000
0000
0000
0000
0000
0000
0000
0000
0000
0000
0000
0000
0000
0000
0000
0000
0000
0000
0000
0000
0000
0000
,  // measure 51
0010
1000
0001
0010
,  // measure 52
0100
0010
0001
1000
,  // measure 53
0010
0100
0001
1000
,  // measure 54
1100
0011
0000
0010
,  // measure 55
0001
0100
1000
0100
,  // measure 56
0001
1000
0100
0001
,  // measure 57
0100
0010
0001
1000
,  // measure 58
1010
0101
0000
0100
,  // measure 59
0001
0010
1000
0010
,  // measure 60
0100
1000
0001
0100
,  // measure 61
0010
0010
1000
0001
,  // measure 62
1001
0110
0000
0100
,  // measure 63
0001
0010
1000
0010
,  // measure 64
0001
0100
1000
0100
,  // measure 65
0001
0010
1000
0100
,  // measure 66
0001
0010
1000
0100
,  // measure 67
0001
0010
1000
0100
,  // measure 68
0002
0103
0000
0000
;

//---------------dance-single - ---------------
#NOTEDATA:;
#CHARTNAME:;
#CHARTSTYLE:;
#CREDIT:;
#STEPSTYPE:dance-single;
#DESCRIPTION:;
#DIFFICULTY:Medium;
#METER:11;
#METERF:11;
#RADARVALUES:0,0,0,0,0;
#NOTES:
// measure 0
0000
0000
0000
0000
,  // measure 1
0000
0000
0000
0000
,  // measure 2
1000
0000
1100
0000
1000
0001
0100
0000
,  // measure 3
0001
0000
0011
0000
0001
0010
0100
0000
,  // measure 4
1000
0000
1010
0000
1000
0001
0010
0000
,  // measure 5
0100
0000
0110
0000
0100
0010
0001
0000
,  // measure 6
2000
3200
0301
0100
,  // measure 7
2000
3020
0031
0010
,  // measure 8
2000
3002
0013
0001
,  // measure 9
0200
2300
3001
1000
,  // measure 10
0100
0000
0100
0001
0100
0000
1000
0000
,  // measure 11
0100
0000
0010
0000
1000
0001
0010
0000
,  // measure 12
0100
0000
0010
0000
0001
0100
0010
0000
,  // measure 13
1000
0010
0001
0010
,  // measure 14
0100
0000
0001
1000
0010
0000
0100
0010
,  // measure 15
2000
3020
0230
0320
,  // measure 16
2030
0000
3001
0010
0001
0000
0100
0000
,  // measure 17
0010
1000
0001
0000
0010
0001
1000
0000
,  // measure 18
0100
0000
0010
0000
0001
0010
0100
0000
,  // measure 19
1000
0000
0010
0000
0100
0010
1000
0000
,  // measure 20
0001
0010
1000
0010
,  // measure 21
0001
0000
1001
0000
1000
0010
0110
0000
,  // measure 22
0100
0001
0001
0001
,  // measure 23
0010
0100
0100
0100
,  // measure 24
1000
0000
0001
0000
0100
0001
0010
0000
,  // measure 25
0100
0200
0020
0000
0000
0000
0330
0000
,  // measure 26
0110
0000
1001
0000
1000
0001
0010
0000
,  // measure 27
0100
0000
0010
0000
0001
0100
0010
0000
,  // measure 28
1000
0000
0010
0000
0100
0001
0010
0000
,  // measure 29
0100
0000
0110
0000
0100
0010
0011
0000
,  // measure 30
0001
0000
0100
0000
0010
1000
0001
0000
,  // measure 31
0010
0000
0100
0000
1000
0001
0100
0000
,  // measure 32
0010
0000
0100
0000
0001
1000
0100
0000
,  // measure 33
0010
0000
0110
0000
0100
1000
1001
0000
,  // measure 34
0001
0000
0100
0000
0010
1000
0001
0000
,  // measure 35
0010
0000
0001
0000
0100
0010
1000
0000
,  // measure 36
0010
0000
1000
0000
0100
0010
0001
0000
,  // measure 37
1000
0000
1010
0000
0001
0100
0101
0000
,  // measure 38
0001
0000
0010
0000
0100
1000
0001
0000
,  // measure 39
0100
0000
1000
0000
0100
0001
1000
0000
,  // measure 40
0100
0000
0001
0000
0100
1000
0001
0000
,  // measure 41
0100
0000
0110
0000
0010
1000
1010
0000
,  // measure 42
1001
0001
0001
0001
,  // measure 43
0101
0100
0100
0100
,  // measure 44
0110
0010
0010
0010
,  // measure 45
2000
3020
0032
0203
,  // measure 46
1300
0000
1010
0000
1000
0010
0100
0000
,  // measure 47
0001
0000
0011
0000
0001
0010
0100
0000
,  // measure 48
1000
0100
0010
0000
1000
0001
1000
0000
,  // measure 49
1000
0010
0100
0010
1000
0001
0010
0100
,  // measure 50
0110
1001
0000
0000
0000
0000
0000
0000
0000
0000
0000
0000
0000
0000
0000
0000
0000
0000
0000
0000
0000
0000
0000
0000
0000
0000
0000
0000
0000
0000
0000
0000
0000
0000
0000
0000
0000
0000
0000
0000
0000
0000
0000
0000
0000
0000
0000
0000
0110
0000
0000
0000
0000
0000
0000
0000
0000
0000
0000
0000
0000
0000
0000
0000
0000
0000
0000
0000
0000
0000
0000
0000
0000
0000
0000
0000
0000
0000
0000
0000
0000
0000
0000
0000
0000
0000
0000
0000
0000
0000
0000
0000
0000
0000
0000
0000
0100
0000
0000
0000
0000
0000
0000
0000
0000
0000
0000
0000
0000
0000
0000
0000
0000
0000
0000
0000
0000
0000
0000
0000
0010
0000
0000
0000
0000
0000
0000
0000
0000
0000
0000
0000
0000
0000
0000
0000
0000
0000
0000
0000
0000
0000
0000
0000
1000
0000
0000
0000
0000
0000
0000
0000
0000
0000
0000
0000
0000
0000
0000
0000
0000
0000
0000
0000
0000
0000
0000
0000
0000
0000
0000
0000
0000
0000
0000
0000
0000
0000
0000
0000
0000
0000
0000
0000
0000
0000
0000
0000
0000
0000
0000
0000
,  // measure 51
0001
0000
0010
0000
0100
0010
0001
0000
,  // measure 52
0100
0000
0010
0000
1000
0010
0100
0000
,  // measure 53
0001
0000
1001
0000
1000
0010
1010
0000
,  // measure 54
1010
0000
0101
0000
0001
0010
0100
0000
,  // measure 55
1000
0000
0001
0000
0100
0010
1000
0000
,  // measure 56
0100
0000
0010
0000
0001
1000
0010
0000
,  // measure 57
0100
0000
0101
0000
0001
1000
1001
0000
,  // measure 58
1100
0000
0011
0000
0001
0010
0100
0000
,  // measure 59
1000
0000
0010
0000
0100
0001
1000
0000
,  // measure 60
0100
0000
0001
0000
0100
1000
0001
0000
,  // measure 61
0100
0000
0110
0000
1000
0010
0110
0000
,  // measure 62
0110
0000
1001
0000
1000
0001
0010
0000
,  // measure 63
0100
0000
0010
0000
0001
0100
0010
0000
,  // measure 64
1000
0000
0010
0000
0100
0001
1000
0000
,  // measure 65
1000
0000
0010
0000
0100
0001
1000
0000
,  // measure 66
1000
0000
0010
0000
0100
0001
1000
0000
,  // measure 67
1000
0000
0010
0000
0100
0001
1000
0000
,  // measure 68
0002
1003
0000
0000
;

//---------------dance-single - ---------------
#NOTEDATA:;
#CHARTNAME:;
#CHARTSTYLE:;
#CREDIT:;
#STEPSTYPE:dance-single;
#DESCRIPTION:;
#DIFFICULTY:Hard;
#METER:14;
#METERF:14;
#RADARVALUES:0,0,0,0,0;
#NOTES:
// measure 0
0000
0000
0000
0000
,  // measure 1
0000
0000
0000
0000
,  // measure 2
0001
0000
1000
0000
1010
0000
1000
0000
0001
0010
0100
1000
0010
0000
0100
0000
,  // measure 3
0001
0000
1000
0000
1010
0000
1000
0000
0010
1000
0001
0010
0100
0000
1000
0000
,  // measure 4
0010
0000
0100
0000
0101
0000
0100
0000
0010
1000
0001
0010
0100
0000
1000
0000
,  // measure 5
0001
0000
0100
0000
0110
0000
0100
0000
0010
1000
0001
0010
1000
0000
0010
0000
,  // measure 6
0002
0000
0203
0000
0310
1000
1010
0000
,  // measure 7
2000
0000
3200
0000
0310
0001
0011
0000
,  // measure 8
0002
0000
0023
0000
1030
0010
0011
0000
,  // measure 9
0002
0000
0203
0000
1300
0100
0101
0000
,  // measure 10
0001
0010
1000
0010
0100
1000
0010
0100
,  // measure 11
0002
0000
0013
0000
0001
0010
0100
1000
,  // measure 12
0010
0100
2000
0000
3100
0001
0010
0100
,  // measure 13
2000
0000
3001
0000
0001
1000
1001
0000
,  // measure 14
0011
0000
0001
1000
0010
0100
0001
0010
,  // measure 15
0200
2300
3020
0032
,  // measure 16
0023
0000
1030
0000
1000
0001
0100
0010
,  // measure 17
1000
0001
0020
0000
0031
1000
0020
0000
,  // measure 18
0130
0010
1000
0001
0010
0100
1000
0001
,  // measure 19
0100
0010
0020
0000
2030
0000
3001
0001
,  // measure 20
0010
0010
0100
0100
1000
0001
1000
0001
,  // measure 21
0100
0010
1010
0000
0001
0010
0011
0000
,  // measure 22
0002
0203
2300
3020
,  // measure 23
0032
0023
2030
3200
,  // measure 24
0301
0010
1000
0010
0001
0100
1000
0100
,  // measure 25
0001
0010
0220
0000
0000
0000
0330
0000
,  // measure 26
1100
0000
0011
0000
0001
0100
0010
1000
,  // measure 27
0200
0000
0320
0000
1030
0010
0100
1000
,  // measure 28
0020
0000
0230
0000
0301
0010
0100
0010
,  // measure 29
0002
0003
2002
3003
1000
0010
0110
0000
,  // measure 30
0101
0000
1010
0000
1000
0010
0100
0001
,  // measure 31
0020
0000
0032
0000
0103
1000
0100
0001
,  // measure 32
0020
0000
2030
0000
3010
0001
0100
0010
,  // measure 33
2000
3000
2002
3003
0001
0010
0110
0000
,  // measure 34
1100
0000
0011
0000
0001
0100
0010
1000
,  // measure 35
0002
0000
2003
0000
3100
1000
0010
0100
,  // measure 36
0002
0000
2003
0000
3100
1000
0010
0100
,  // measure 37
0002
0003
2002
3003
1000
0100
1100
0000
,  // measure 38
0011
0000
0110
0000
0100
1000
0010
0100
,  // measure 39
2000
0000
3200
0000
0301
1000
0100
0001
,  // measure 40
0200
0000
2300
0000
3001
0100
1000
0100
,  // measure 41
0002
0003
2002
3003
1000
0010
0110
0010
,  // measure 42
1010
1000
1000
1000
,  // measure 43
0101
0000
0001
0010
0100
0010
0100
0010
,  // measure 44
0110
0100
0100
0100
,  // measure 45
1000
0100
0001
0100
1000
0010
0001
0010
,  // measure 46
2000
3000
1001
0000
0001
0010
0100
1000
,  // measure 47
0020
0030
0110
0000
0100
0010
1000
0001
,  // measure 48
1001
0001
0010
0100
1100
1000
0010
0100
,  // measure 49
0101
1010
0011
1100
1001
0110
1010
1100
,  // measure 50
0011
1100
0000
0000
0000
0000
0000
0000
0000
0000
0000
0000
0000
0000
0000
0000
0000
0000
0000
0000
0000
0000
0000
0000
0000
0000
0000
0000
0000
0000
0000
0000
0000
0000
0000
0000
0000
0000
0000
0000
0000
0000
0000
0000
0000
0000
0000
0000
0011
0000
0000
0000
0000
0000
0000
0000
0000
0000
0000
0000
0000
0000
0000
0000
0000
0000
0000
0000
0000
0000
0000
0000
0000
0000
0000
0000
0000
0000
0000
0000
0000
0000
0000
0000
0000
0000
0000
0000
0000
0000
0000
0000
0000
0000
0000
0000
0001
0000
0000
0000
0000
0000
0000
0000
0000
0000
0000
0000
0000
0000
0000
0000
0000
0000
0000
0000
0000
0000
0000
0000
0100
0000
0000
0000
0000
0000
0000
0000
0000
0000
0000
0000
0000
0000
0000
0000
0000
0000
0000
0000
0000
0000
0000
0000
1000
0000
0000
0000
0000
0000
0000
0000
0000
0000
0000
0000
0000
0000
0000
0000
0000
0000
0000
0000
0000
0000
0000
0000
0100
0000
0000
0000
0000
0000
0000
0000
0000
0000
0000
0000
0000
0000
0000
0000
0000
0000
0000
0000
0000
0000
0000
0000
,  // measure 51
0002
0000
0023
0000
1030
0010
0100
1000
,  // measure 52
0002
0000
0203
0000
1300
0100
0001
0010
,  // measure 53
0200
0300
0220
0330
0100
1000
1100
0000
,  // measure 54
0011
0000
1100
0000
1000
0010
0100
1000
,  // measure 55
0200
0000
0302
0000
0013
0100
1000
0001
,  // measure 56
0020
0000
0230
0000
1300
0001
0100
1000
,  // measure 57
0200
0300
0220
0330
0100
0001
0101
0000
,  // measure 58
1010
0000
1001
0000
1000
0100
0010
0100
,  // measure 59
2000
0000
3002
0000
0103
1000
0100
0001
,  // measure 60
2000
0000
3200
0000
0301
0100
1000
0001
,  // measure 61
0200
0300
0220
0330
0100
0010
1010
0000
,  // measure 62
0101
0000
0011
0000
0001
0010
0100
1000
,  // measure 63
0002
0000
0203
0000
1300
0100
0001
0010
,  // measure 64
0200
0000
0320
0000
0031
0100
1000
0001
,  // measure 65
0020
0000
0230
0000
0301
1000
0100
0001
,  // measure 66
2000
0000
3020
0000
0130
1000
0001
0100
,  // measure 67
2000
0000
3002
0000
0013
1000
0100
0001
,  // measure 68
0200
0000
0310
0100
0000
0000
0000
0000
;
