#TITLE:This Is Our Night;
#SUBTITLE:(Live from Moscow, Russia, 2009);
#ARTIST:Sakis Rouvas;
#MUSIC:This Is Our Night (Live from Moscow, Russia, 2009).ogg;
#BANNER:This Is Our Night (Live from Moscow, Russia, 2009).png;
#BACKGROUND:This Is Our Night (Live from Moscow, Russia, 2009)-bg.png;
#LYRICSPATH:;
#CDTITLE:;
#SAMPLESTART:51.635;
#SAMPLELENGTH:15.000000000000007;
#OFFSET:-0.072;
#BPMS:0.000000=128.000000;
#STOPS:;
#TIMESIGNATURES:0.000000=4=4;
#BGCHANGES:;
#FGCHANGES:;
#ATTACKS:;
#SPEEDS:0.000000=1.000000=0.000000=0;
#SCROLLS:0.000000=1.000000,
239.500000=8.000000,
243.500000=1.000000
;
#KEYSOUNDS:;

//---------------dance-single - ---------------
#NOTES:
     dance-single:
     :
     Beginner:
     3:
     0,0,0,0,0:
// measure 0
0000
0000
0000
0000
,  // measure 1
0000
0000
0000
0000
,  // measure 2
0000
0000
0000
0000
,  // measure 3
0000
0000
0000
0000
,  // measure 4
1000
0000
0001
0000
,  // measure 5
0010
0000
0001
0000
,  // measure 6
1000
0000
0010
0000
,  // measure 7
1000
0000
0001
0000
,  // measure 8
1000
1000
1000
0000
,  // measure 9
0001
0001
0001
0000
,  // measure 10
0100
0100
0100
0000
,  // measure 11
0010
0010
0010
0000
,  // measure 12
1000
1000
1000
0000
,  // measure 13
0001
0001
0001
0000
,  // measure 14
0010
0010
0010
0000
,  // measure 15
0001
0001
0002
0003
,  // measure 16
1000
1000
1000
0000
,  // measure 17
0010
0010
0010
0000
,  // measure 18
0100
0100
0100
0000
,  // measure 19
0001
0001
0001
0000
,  // measure 20
1000
1000
1000
0000
,  // measure 21
0100
0100
0100
0000
,  // measure 22
0010
0010
0010
0000
,  // measure 23
0001
0001
0001
0000
,  // measure 24
2000
0000
3000
0000
,  // measure 25
0020
0000
0030
0000
,  // measure 26
0200
0000
0300
0000
,  // measure 27
0002
0000
0003
0000
,  // measure 28
0000
1001
0000
1000
,  // measure 29
1000
1000
1000
0000
,  // measure 30
0010
0010
0010
0000
,  // measure 31
0001
0001
0001
0000
,  // measure 32
1000
1000
1000
0000
,  // measure 33
0010
0010
0010
0000
,  // measure 34
0100
0100
0100
0000
,  // measure 35
0001
0001
0001
0000
,  // measure 36
2000
0000
3000
0000
,  // measure 37
0002
0000
0003
0000
,  // measure 38
0020
0000
0030
0000
,  // measure 39
0200
0000
0300
0000
,  // measure 40
2000
0000
3000
0000
,  // measure 41
0002
0000
0003
0000
,  // measure 42
0200
0000
0300
0000
,  // measure 43
0020
0000
0030
0000
,  // measure 44
0000
0110
0000
0010
,  // measure 45
0010
0010
0010
0000
,  // measure 46
1000
1000
1000
0000
,  // measure 47
0001
0001
0001
0000
,  // measure 48
0010
0010
0010
0000
,  // measure 49
0100
0100
0100
0000
,  // measure 50
1000
1000
1000
0000
,  // measure 51
0001
0001
0001
0000
,  // measure 52
1000
1000
1000
0000
,  // measure 53
0010
0010
0010
0000
,  // measure 54
0100
0100
0100
0000
,  // measure 55
0001
0001
0001
0000
,  // measure 56
0010
0010
0010
0000
,  // measure 57
0100
0100
0100
0000
,  // measure 58
1000
1000
1000
0000
,  // measure 59
0001
0001
0001
0002
,  // measure 60
0000
0000
0000
0000
0000
0000
0003
1001
;

//---------------dance-single - ---------------
#NOTES:
     dance-single:
     :
     Easy:
     7:
     0,0,0,0,0:
// measure 0
0000
0000
0000
0000
,  // measure 1
0000
0000
0000
0000
,  // measure 2
0000
0000
0000
0000
,  // measure 3
0000
0000
0000
0000
,  // measure 4
2000
0000
3002
0000
,  // measure 5
0023
0000
0230
0000
,  // measure 6
2300
0000
3020
0000
,  // measure 7
0230
0000
0302
0000
,  // measure 8
1003
0100
0010
0001
,  // measure 9
0100
0010
1000
0001
,  // measure 10
0010
0100
1000
0001
,  // measure 11
0100
0010
1000
0001
,  // measure 12
0010
0100
1000
0010
,  // measure 13
0100
1000
0100
0010
,  // measure 14
1000
0001
0010
0100
,  // measure 15
0001
0100
0010
0001
,  // measure 16
0101
0100
0010
1000
,  // measure 17
0001
0010
0100
1000
,  // measure 18
1100
1000
0010
0100
,  // measure 19
0001
0010
0100
1000
,  // measure 20
1001
1000
0010
0100
,  // measure 21
0001
0010
0100
1000
,  // measure 22
1010
1000
0100
0010
,  // measure 23
0001
0100
0010
1000
,  // measure 24
0200
0000
2300
0000
,  // measure 25
3002
0000
0023
0000
,  // measure 26
0230
0000
2300
0000
,  // measure 27
0002
3003
1000
0010
,  // measure 28
0000
0110
0010
1000
,  // measure 29
0001
0010
1000
0010
,  // measure 30
0100
1000
0001
0100
,  // measure 31
0010
0100
0001
0010
,  // measure 32
0100
1100
0100
0010
,  // measure 33
0001
1000
0010
0100
,  // measure 34
1000
0100
0010
1000
,  // measure 35
0001
0010
0100
1000
,  // measure 36
0002
0000
2003
0000
,  // measure 37
3200
0000
0001
0000
,  // measure 38
2300
0000
3020
0000
,  // measure 39
0230
0000
1000
0000
,  // measure 40
0302
0000
0023
0000
,  // measure 41
2030
0000
0010
0000
,  // measure 42
3020
0000
0032
0000
,  // measure 43
2003
0000
3010
0010
,  // measure 44
0000
0110
0010
1000
,  // measure 45
0001
0010
0100
1000
,  // measure 46
0001
0100
0010
1000
,  // measure 47
0001
0010
1000
0010
,  // measure 48
0001
1001
1000
0010
,  // measure 49
0100
1000
0100
0001
,  // measure 50
1000
0010
0100
0001
,  // measure 51
0010
0100
1000
0010
,  // measure 52
0100
0101
0100
0010
,  // measure 53
1000
0001
0010
0100
,  // measure 54
1000
0001
0100
0010
,  // measure 55
1000
0100
0010
0001
,  // measure 56
1000
1010
0010
0100
,  // measure 57
0001
0010
0100
1000
,  // measure 58
0001
0100
0010
1000
,  // measure 59
0001
0000
0010
0000
0100
0000
1000
0020
,  // measure 60
0000
0000
0000
0000
0000
0000
0030
0110
;

//---------------dance-single - ---------------
#NOTES:
     dance-single:
     :
     Medium:
     12:
     0,0,0,0,0:
// measure 0
0000
0000
0000
0000
,  // measure 1
0000
0000
0000
0000
,  // measure 2
0000
0000
0000
0000
,  // measure 3
0000
0000
0000
0000
,  // measure 4
2000
0000
0000
0000
0000
0001
3000
0000
2000
0000
0000
0000
0000
0010
3000
0000
,  // measure 5
2000
0000
0000
0000
0000
0001
3000
0000
2000
0000
0000
0001
3000
0000
0000
0000
,  // measure 6
0002
0000
0000
0000
0000
0010
0003
0000
0002
0000
0000
0000
0000
1000
0003
0000
,  // measure 7
0002
0000
0000
0000
0000
0010
0003
0000
0002
0000
0000
1000
0003
0000
0000
0000
,  // measure 8
1000
0000
0001
0000
0100
0010
1000
0000
,  // measure 9
0001
0000
0010
0000
0100
0010
0001
0000
,  // measure 10
0100
0000
0010
0000
1000
0001
0010
0000
,  // measure 11
0100
0000
1000
0000
0001
0100
0010
0000
,  // measure 12
1000
0000
0010
0000
0100
0001
1000
0000
,  // measure 13
0100
0000
0010
0000
0001
0010
0100
0000
,  // measure 14
1000
0000
0001
0000
0100
0010
1000
0000
,  // measure 15
0001
0000
0010
0000
0100
1000
0010
0000
,  // measure 16
0100
0000
1000
0000
0100
0010
1000
0000
,  // measure 17
0001
0000
0010
0000
0100
0001
0100
0000
,  // measure 18
1000
0000
0010
0000
0100
0001
0010
0000
,  // measure 19
0100
0000
1000
0000
0010
1000
0100
0000
,  // measure 20
0010
0000
0001
0000
1000
0010
0100
0000
,  // measure 21
1000
0000
0100
0000
0001
0010
0100
0000
,  // measure 22
1000
0000
0010
0000
0100
0001
0010
0000
,  // measure 23
0100
0000
1000
0000
0001
0100
0010
0200
,  // measure 24
0000
0000
0000
0302
0000
0023
0000
0000
,  // measure 25
0000
0000
1000
0000
0000
0030
0001
0002
,  // measure 26
0000
0000
0000
2003
0000
3020
0000
0230
,  // measure 27
0000
0000
0010
0000
0310
1000
0001
0010
,  // measure 28
0000
0000
0110
0000
0010
0001
1000
0000
,  // measure 29
0010
0000
0100
0000
0010
1000
0001
0000
,  // measure 30
0010
0000
0100
0000
1000
0010
0100
0000
,  // measure 31
1000
0000
0100
0000
0010
1000
0001
0010
,  // measure 32
0000
0000
0110
0000
0010
0001
0100
0000
,  // measure 33
0010
1000
0001
0000
0010
0001
1000
0000
,  // measure 34
0010
0100
0001
0000
0010
0100
1000
0000
,  // measure 35
1001
0000
1000
0000
0010
0100
0001
0010
,  // measure 36
0100
0100
0000
1000
1000
0000
0001
0001
,  // measure 37
0200
0001
0000
0310
,  // measure 38
0010
0010
0000
1000
1000
0000
0001
0001
,  // measure 39
2000
0010
0000
3001
,  // measure 40
0001
0001
0000
0100
0100
0000
0010
0010
,  // measure 41
0200
1000
0000
0301
,  // measure 42
0001
0001
0000
1000
1000
0000
0100
0100
,  // measure 43
0020
0000
0031
0000
0001
1000
0010
0100
,  // measure 44
0000
0000
0110
0000
0100
0010
1000
0000
,  // measure 45
0001
0000
0010
0000
0100
0010
0001
0000
,  // measure 46
0100
0000
0010
0000
1000
0001
0010
0000
,  // measure 47
0100
0000
0010
0000
0001
1000
0010
0100
,  // measure 48
0000
0000
0110
0000
0010
1000
0100
0000
,  // measure 49
1000
0000
0010
0100
0001
0010
0100
0000
,  // measure 50
1000
0001
0100
0000
0010
0100
0001
0000
,  // measure 51
0010
0000
0100
0000
1000
0001
0100
0010
,  // measure 52
0000
0000
0110
0000
0010
1000
0001
0000
,  // measure 53
0010
0000
0100
0000
1000
0001
0100
0000
,  // measure 54
0010
0000
0100
0000
0001
0010
0100
0000
,  // measure 55
1000
0000
0001
0000
0100
0010
1000
0001
,  // measure 56
0000
0000
0011
0000
0010
0001
1000
0000
,  // measure 57
0010
0100
0001
0010
0100
1000
0001
0000
,  // measure 58
0100
0010
0100
0000
0001
0010
0001
0000
,  // measure 59
1000
0010
0100
0000
0001
1000
0010
0020
,  // measure 60
0000
0000
0000
0000
0000
0000
0030
0110
;

//---------------dance-single - ---------------
#NOTES:
     dance-single:
     :
     Hard:
     15:
     0,0,0,0,0:
// measure 0
0000
0000
0000
0000
,  // measure 1
0000
0000
0000
0000
,  // measure 2
0000
0000
0000
0000
,  // measure 3
0000
0000
0000
0000
,  // measure 4
2000
0000
0000
0000
0000
0000
0000
0000
0000
0000
3001
1000
0001
1000
0001
1000
0002
0000
0000
0000
0000
0000
0000
0000
0000
0000
1003
0001
1000
0001
1000
0001
,  // measure 5
2000
0000
0000
0000
0000
0000
0000
0000
0000
0000
3010
1000
0010
1000
0010
1000
0020
0000
0000
0000
0000
0000
0130
0000
0000
0000
0000
0000
0000
0000
0000
0000
,  // measure 6
0200
0000
0000
0000
0000
0000
0000
0000
0000
0000
0301
0100
0001
0100
0001
0100
0002
0000
0000
0000
0000
0000
0000
0000
0000
0000
1003
0001
1000
0001
1000
0001
,  // measure 7
2000
0000
0000
0000
0000
0000
0000
0000
0000
0000
3010
1000
0010
1000
0010
1000
0020
0000
0000
0000
0000
0000
0100
0000
0030
0000
0000
0000
0000
0000
0000
0000
,  // measure 8
0100
0001
1000
0000
2001
0000
0100
0000
0001
0000
0100
0000
3001
0000
0001
0000
,  // measure 9
0100
0010
1000
0000
1020
0000
0100
0000
1000
0000
0100
0000
1030
0000
0000
0000
,  // measure 10
1000
0100
0010
0000
0021
0000
0100
0000
0001
0000
0100
0000
0031
0000
0001
0000
,  // measure 11
0001
1000
0010
0000
0120
0000
0001
0000
0100
0000
0001
0000
0130
0000
0000
0000
,  // measure 12
0100
0010
1000
0000
2001
0000
0100
0000
0010
0000
0100
0000
3001
0000
1000
0000
,  // measure 13
0010
0100
0001
0000
0102
0000
1000
0000
0010
0000
0100
0000
1003
0000
0000
0000
,  // measure 14
1000
0001
0010
0000
0210
0000
1000
0000
0010
0000
1000
0000
0310
0000
0010
0000
,  // measure 15
0001
1000
0010
0000
0210
0000
0001
0000
1000
0000
0001
0000
0310
0000
0000
0000
,  // measure 16
0100
0001
1000
0000
2001
0000
0100
0000
0010
0000
0100
0000
3001
0000
0001
0000
,  // measure 17
0100
0010
1000
0000
2100
0000
0001
0000
0010
0000
0100
0000
3010
0000
0000
0000
,  // measure 18
0010
0100
0001
0000
0012
0000
0100
0000
1000
0000
0010
0000
0103
0000
0100
0000
,  // measure 19
0010
0100
0001
0000
0021
0000
0100
0000
1000
0000
0001
0000
0130
0000
0100
0000
,  // measure 20
0001
1000
0010
0000
0210
0000
1000
0000
0001
0000
0010
0000
1300
0000
1000
0000
,  // measure 21
0100
0001
0010
0000
0210
0000
1000
0000
0001
0000
0010
0000
1300
0000
0000
0000
,  // measure 22
0100
1000
0001
0000
0201
0000
1000
0000
0010
0000
0001
0000
1300
0000
1000
0000
,  // measure 23
0100
0001
1000
0000
1200
0000
0001
0000
0310
0000
0010
0000
0001
0000
0200
0000
,  // measure 24
0000
0000
0001
1000
0001
0020
0000
0000
,  // measure 25
0030
0000
0001
0000
0000
0000
1000
0302
,  // measure 26
0000
0000
1000
0100
1000
0020
0000
0030
,  // measure 27
2003
0000
0001
0000
3001
1000
0010
0010
,  // measure 28
0000
0000
0000
0000
0110
0000
0000
0000
0100
0000
0010
1000
0000
0010
1000
0000
,  // measure 29
0100
0000
0010
0000
0001
0000
0010
0000
0100
0000
1000
0001
0000
1000
0001
0000
,  // measure 30
0100
0000
0010
0000
1000
0000
0001
0000
0010
0000
0100
1000
0000
0100
1000
0000
,  // measure 31
0010
0000
0100
0000
1000
0000
0100
0000
0010
0000
1000
0001
0000
1000
0001
0000
,  // measure 32
0010
0000
0100
0000
0110
0000
0000
0000
0010
0000
0001
0100
0000
0001
0100
0000
,  // measure 33
0010
0000
1000
0000
0001
0000
0010
0000
0100
0000
1000
0100
0000
1000
0100
0000
,  // measure 34
0010
0000
0001
0000
0100
0000
0010
0000
1000
0000
0001
0100
0000
0001
0100
0000
,  // measure 35
0010
1000
0001
0010
0100
1000
0010
0100
,  // measure 36
0101
0101
0000
1010
1010
0000
0110
0110
,  // measure 37
0200
0001
0000
1300
,  // measure 38
0101
0101
0000
1010
1010
0000
1100
1100
,  // measure 39
0200
0001
0000
1300
,  // measure 40
1100
1100
0000
0011
0011
0000
1010
1010
,  // measure 41
0020
0001
0000
1030
,  // measure 42
1010
1010
0000
0101
0101
0000
1001
2001
,  // measure 43
0100
0000
3010
0000
1000
0001
0010
0010
,  // measure 44
0000
0000
0000
0000
0110
0000
0000
0000
0010
0000
0001
0100
0000
0001
0100
0000
,  // measure 45
0010
0000
1000
0000
0001
0000
0010
0000
0100
0000
1000
0100
0000
1000
0100
0000
,  // measure 46
1000
0000
0010
0000
0100
0000
1000
0000
0100
0000
0001
1000
0000
0001
1000
0000
,  // measure 47
0010
0000
0100
0000
0001
0000
0010
0000
0100
0000
1000
0010
0000
1000
0010
0000
,  // measure 48
0100
0000
0000
0000
0101
0000
0000
0000
0100
0000
0001
0010
0000
0001
0010
0000
,  // measure 49
0100
0000
1000
0000
0010
0000
0100
0000
1000
0000
0100
0001
0000
0100
0001
0000
,  // measure 50
0010
0000
0100
0000
1000
0000
0010
0000
0100
0000
0001
1000
0000
0001
1000
0000
,  // measure 51
0010
1000
0001
0100
0010
1000
0001
0010
,  // measure 52
0100
0000
0000
0000
0110
0000
0000
0000
0100
0000
1000
0010
0000
0100
0001
0000
,  // measure 53
0010
0000
0100
0000
1000
0000
0010
0000
0100
0000
0001
0010
0000
0100
1000
0000
,  // measure 54
1000
0000
0010
0000
0100
0000
0001
0000
0010
0000
0100
1000
0000
0001
0100
0000
,  // measure 55
0010
0000
0100
0000
0001
0000
0010
0000
0100
0000
1000
0010
0000
0100
1000
0000
,  // measure 56
0100
0000
0010
0000
1001
0000
0001
0000
0010
0000
0100
1000
0000
0001
0100
0000
,  // measure 57
0010
0000
0100
0000
0001
0000
0010
0000
0100
0000
1000
0010
0000
0001
0010
0000
,  // measure 58
0100
0000
0001
0000
0010
0000
0100
0000
1000
0000
0001
0010
0000
0100
1000
0000
,  // measure 59
0001
0000
0100
0001
0010
0000
0100
1000
1100
0000
1001
0000
0101
0000
0220
0000
,  // measure 60
0000
0000
0000
0000
0000
0000
0000
0000
0000
0000
0000
0000
0000
0330
0110
0000
;
