#TITLE:The Image Of You;
#SUBTITLE:(Live from Istanbul, Turkey, 2004);
#ARTIST:Anjeza Shahini;
#MUSIC:The Image Of You (Live from Istanbul, Turkey, 2004).ogg;
#BANNER:The Image Of You (Live from Instanbul, Turkey, 2004).png;
#BACKGROUND:The Image Of You (Live from Instanbul, Turkey, 2004)-bg.png;
#LYRICSPATH:;
#CDTITLE:;
#SAMPLESTART:59.652;
#SAMPLELENGTH:14.769000000000005;
#OFFSET:-0.144;
#BPMS:0.000000=79.849000,
36.000000=130.140000
;
#STOPS:;
#TIMESIGNATURES:0.000000=4=4;
#BGCHANGES:;
#FGCHANGES:;
#ATTACKS:;
#SPEEDS:0.000000=1.000000=0.000000=0;
#SCROLLS:0.000000=1.000000;
#KEYSOUNDS:;

//---------------dance-single - ---------------
#NOTES:
     dance-single:
     :
     Beginner:
     4:
     0,0,0,0,0:
// measure 0
0000
0000
0000
0000
,  // measure 1
0000
0000
0000
0000
,  // measure 2
2000
0000
3000
0000
,  // measure 3
0002
0000
0003
0000
,  // measure 4
2000
0000
3000
0000
,  // measure 5
0020
0000
0030
0000
,  // measure 6
2000
0000
3000
0000
,  // measure 7
0200
0000
0300
0000
,  // measure 8
2000
0000
3000
0000
,  // measure 9
2002
0000
0000
3003
,  // measure 10
0000
0000
0000
0000
,  // measure 11
1000
1000
1000
0000
,  // measure 12
0001
0001
0001
0000
,  // measure 13
0100
0100
0100
0000
,  // measure 14
0001
0001
0001
0000
,  // measure 15
1000
1000
1000
0000
,  // measure 16
0010
0010
0010
0000
,  // measure 17
0100
0100
0100
0000
,  // measure 18
0001
0001
0001
0000
,  // measure 19
1000
0000
1000
0000
,  // measure 20
0020
0000
0030
0000
,  // measure 21
0001
0000
0001
0000
,  // measure 22
0020
0000
0030
0000
,  // measure 23
0100
0000
0100
0000
,  // measure 24
0002
0000
0003
0000
,  // measure 25
2000
0000
3000
0000
,  // measure 26
1000
1000
1000
1000
,  // measure 27
1000
0000
0001
0000
,  // measure 28
0010
0010
0010
0000
,  // measure 29
0001
0000
1000
0000
,  // measure 30
0100
0100
0100
0000
,  // measure 31
0010
0010
0010
0000
,  // measure 32
0001
0000
1000
0000
,  // measure 33
0100
0000
1000
0000
,  // measure 34
0001
0000
0100
0000
,  // measure 35
0001
0001
0001
0000
,  // measure 36
0010
0010
0010
0000
,  // measure 37
0001
0001
0001
0000
,  // measure 38
0100
0100
0100
0000
,  // measure 39
0001
0001
0001
0000
,  // measure 40
1000
1000
1000
0000
,  // measure 41
0100
0000
1000
0000
,  // measure 42
0001
0000
0100
0000
,  // measure 43
0001
0000
0001
0000
,  // measure 44
1000
0000
1000
0000
,  // measure 45
0001
0000
0001
0000
,  // measure 46
0100
0000
0100
0000
,  // measure 47
0001
0000
0001
0000
,  // measure 48
1000
0000
1000
0000
,  // measure 49
0010
0000
0010
0000
,  // measure 50
0100
0000
0010
0000
,  // measure 51
1000
0000
0001
0000
,  // measure 52
0100
0000
0010
0000
,  // measure 53
0001
0000
1000
0000
,  // measure 54
0010
0000
1000
0000
,  // measure 55
0001
0000
0100
0000
,  // measure 56
0001
0000
0010
0000
,  // measure 57
0010
0000
1000
0000
,  // measure 58
1001
0000
0000
0000
;

//---------------dance-single - ---------------
#NOTES:
     dance-single:
     :
     Easy:
     7:
     0,0,0,0,0:
// measure 0
0000
0000
0000
0000
,  // measure 1
0000
0000
0000
0000
,  // measure 2
0000
2000
0000
0000
0000
0000
0000
0000
0000
0001
0000
0000
0000
0000
0000
0000
0000
0100
0000
0000
0000
0000
0000
0000
0000
0010
0000
0000
0000
0000
0000
0000
,  // measure 3
0200
0000
0000
3300
,  // measure 4
0002
0100
0010
0100
,  // measure 5
2000
0000
0000
3003
,  // measure 6
0020
0100
1000
0001
,  // measure 7
0200
0000
0000
0330
,  // measure 8
0002
0010
0100
0010
,  // measure 9
2000
0000
0000
3003
,  // measure 10
0000
0000
0000
0000
,  // measure 11
1000
0100
0010
0011
,  // measure 12
0010
0100
1000
1001
,  // measure 13
0001
0100
0010
1010
,  // measure 14
0010
0100
0001
1001
,  // measure 15
1000
0100
0010
0011
,  // measure 16
0001
0100
1000
1100
,  // measure 17
1000
0001
1000
1001
,  // measure 18
0001
0010
0100
1100
,  // measure 19
2000
3000
0002
0003
,  // measure 20
0020
0030
0002
0003
,  // measure 21
0200
0300
0020
0030
,  // measure 22
2000
0000
0000
3000
,  // measure 23
0200
0300
0020
0030
,  // measure 24
0002
0003
2000
3000
,  // measure 25
0002
0003
0020
0030
,  // measure 26
0100
0010
0001
1000
,  // measure 27
1001
0001
1000
0100
,  // measure 28
2000
0000
3002
0103
,  // measure 29
0001
1000
0100
0010
,  // measure 30
0001
0100
1000
0100
,  // measure 31
0002
1000
0010
1003
,  // measure 32
1000
0010
0100
0010
,  // measure 33
0100
0001
1000
0001
,  // measure 34
0100
0010
1000
0100
,  // measure 35
0110
0010
0001
0100
,  // measure 36
0002
0000
2003
3100
,  // measure 37
1000
0010
0100
0001
,  // measure 38
0010
0100
0010
0001
,  // measure 39
2001
0010
3001
0010
,  // measure 40
0100
1000
0001
0100
,  // measure 41
0100
0001
1000
0100
,  // measure 42
1000
0010
0100
0001
,  // measure 43
1001
0001
1000
0100
,  // measure 44
1000
0001
1000
0001
,  // measure 45
0010
0100
1000
0001
,  // measure 46
0100
1000
0200
0301
,  // measure 47
1000
0100
0010
0001
,  // measure 48
1000
0100
0001
0100
,  // measure 49
0200
1000
0001
1300
,  // measure 50
0010
0100
0001
0010
,  // measure 51
0200
1000
0001
1300
,  // measure 52
1000
0010
0100
0001
,  // measure 53
0020
1000
0001
1030
,  // measure 54
0001
0010
0100
0010
,  // measure 55
0002
1000
0100
1003
,  // measure 56
1000
0001
0010
0100
,  // measure 57
1000
0010
0100
0001
,  // measure 58
1001
0000
0000
0000
;

//---------------dance-single - ---------------
#NOTES:
     dance-single:
     :
     Medium:
     12:
     0,0,0,0,0:
// measure 0
0000
0000
0000
0000
,  // measure 1
0000
0000
0000
0000
,  // measure 2
0000
2000
0000
0000
0000
0000
0000
0000
0000
0001
0000
0000
0000
0000
0000
0000
0000
0100
0000
0000
0000
0000
0000
0000
0000
0010
0000
0000
0000
0000
0000
0000
,  // measure 3
0000
3200
0000
0000
0000
0000
0000
0000
0000
0000
0000
0000
0000
0000
0000
0000
0000
0000
0000
0000
0000
0000
0000
0000
1000
0000
0000
0000
0000
0000
0000
0000
,  // measure 4
0320
0001
0100
1000
,  // measure 5
0032
0000
0000
0000
,  // measure 6
2003
0010
0100
0001
,  // measure 7
3200
0000
1000
0001
,  // measure 8
2300
0010
0001
0100
,  // measure 9
0002
0000
0000
3003
,  // measure 10
1000
0001
1000
0001
2002
0000
3003
0000
,  // measure 11
1000
0000
0010
0000
0100
0001
0010
0000
,  // measure 12
0100
0000
0010
0000
0001
1000
0010
0000
,  // measure 13
1000
0000
0001
0000
0010
0001
1000
0000
,  // measure 14
0010
0000
0100
0000
0001
1000
0100
0000
,  // measure 15
0010
0000
0001
0000
1000
0010
0100
0000
,  // measure 16
0001
0000
1000
0000
0100
0010
0100
0000
,  // measure 17
1000
0000
0010
0000
0100
0001
0100
0000
,  // measure 18
0010
0000
1000
0000
0001
0010
0001
0000
,  // measure 19
2000
3010
0002
0013
,  // measure 20
2002
3003
0220
0330
,  // measure 21
0200
0310
0002
0013
,  // measure 22
2002
0000
0000
0000
0000
0000
3003
1000
,  // measure 23
0200
0301
2000
3010
,  // measure 24
0202
0000
0303
0000
2020
0000
3030
0010
,  // measure 25
1000
0001
1000
0200
0000
0000
0300
1000
,  // measure 26
1001
0001
1001
1000
1010
0010
0100
0001
,  // measure 27
1001
0001
1000
0100
2000
3000
0001
0100
,  // measure 28
2002
3003
0000
0110
0000
0100
0001
1000
,  // measure 29
0001
0100
0001
1000
0001
1000
0020
0030
,  // measure 30
0010
0200
0000
0000
0300
0100
0001
0010
,  // measure 31
0120
0000
0100
0000
0130
0100
0010
0100
,  // measure 32
2000
3000
1000
0002
0003
0001
0101
0000
,  // measure 33
0100
0001
1000
0002
0000
1000
0000
1003
,  // measure 34
0001
0001
0010
0200
0300
0100
1000
0001
,  // measure 35
1001
0001
1000
0001
2000
3000
0001
0100
,  // measure 36
0202
0303
0000
1010
0000
1000
0010
0100
,  // measure 37
0001
1000
0010
0100
0001
1000
0002
0000
,  // measure 38
0013
0200
0000
0000
0300
0100
1000
0010
,  // measure 39
0210
0000
0010
0000
0310
0100
0010
0100
,  // measure 40
0002
0000
1003
2000
3000
1000
1001
0000
,  // measure 41
0001
0100
0001
2000
0000
3002
0000
1003
,  // measure 42
0001
0001
0010
0100
1000
0001
1001
0000
,  // measure 43
1000
0010
0100
0001
0010
0100
1000
0010
,  // measure 44
0100
0001
1000
0100
2000
3000
1001
0000
,  // measure 45
1000
0010
1000
0001
0010
0001
1000
0010
,  // measure 46
1000
0001
0010
0100
2000
3000
1001
0000
,  // measure 47
0001
0100
0010
1000
0100
0010
0001
0100
,  // measure 48
0010
1000
0100
0010
0200
0300
0100
0200
,  // measure 49
0000
0000
0000
0000
0000
0300
0000
0010
,  // measure 50
0220
0330
0100
0010
0220
0330
0100
1000
,  // measure 51
2000
0000
0000
3002
0000
0000
1003
0010
,  // measure 52
2020
3030
1000
0010
2020
3030
1000
0001
,  // measure 53
0002
0000
0000
2003
0000
0000
3100
1000
,  // measure 54
2200
3300
0100
1000
2200
3300
0100
1000
,  // measure 55
2000
0000
0000
3002
0000
0000
0103
0001
,  // measure 56
0202
0303
0100
0001
0202
0303
0100
0001
,  // measure 57
0002
0000
0000
0023
0000
0000
0130
0010
,  // measure 58
0110
0000
0000
0000
;

//---------------dance-single - ---------------
#NOTES:
     dance-single:
     :
     Hard:
     14:
     0,0,0,0,0:
// measure 0
0000
0000
0000
0000
,  // measure 1
0000
0000
0000
0000
,  // measure 2
0000
1000
0000
0000
0000
0001
0000
0000
0000
0010
0000
0000
0000
0100
0000
0000
0000
1000
0000
0000
0000
0001
0000
0000
0000
0010
0000
0000
0000
0100
0000
0000
,  // measure 3
0000
2000
0000
0000
0000
0000
0000
0000
0001
0000
0000
0000
0000
0000
0000
0000
0001
0000
0000
0000
0000
0000
0000
0000
3001
0000
0000
0000
0000
0000
0000
0000
,  // measure 4
0001
1000
0010
0100
0001
1000
0100
0010
,  // measure 5
0002
1000
1000
1003
,  // measure 6
1000
0001
0010
0100
1000
0001
0100
0010
,  // measure 7
0200
0001
1000
0301
,  // measure 8
0001
0010
0100
1000
0001
0100
0001
1000
,  // measure 9
2002
0000
0000
3003
,  // measure 10
1000
0000
1000
0000
0001
0000
0001
0000
1000
0001
1000
0001
2002
0000
3003
0000
,  // measure 11
1000
0010
0100
0001
1000
0100
1100
0000
,  // measure 12
0100
1000
0010
0100
0001
0010
0011
0000
,  // measure 13
0001
0100
0010
1000
0001
0100
0101
0000
,  // measure 14
0001
0010
0100
1000
0001
0100
0101
0000
,  // measure 15
0001
1000
0100
0010
0001
0100
0101
0000
,  // measure 16
0001
1000
0010
0100
1000
0100
0110
0000
,  // measure 17
0010
1000
0001
0010
0100
1000
1100
0000
,  // measure 18
0100
1000
0001
0100
0010
1000
1010
0010
,  // measure 19
2000
3000
1001
1000
0200
0300
1100
1000
,  // measure 20
0020
0000
1000
0000
0001
0000
1030
0100
,  // measure 21
0002
0003
0101
0100
2000
3000
1100
0001
,  // measure 22
0020
0000
0001
0000
1000
0000
0031
0010
,  // measure 23
0200
0300
1100
1000
0020
0030
0110
0010
,  // measure 24
2000
0000
0001
0000
0100
0000
3001
0010
,  // measure 25
0001
0100
1000
0100
0001
1000
0001
0100
,  // measure 26
0101
0001
0011
0010
0110
0100
1100
1000
,  // measure 27
1001
0001
0010
0100
1000
0001
0100
0001
,  // measure 28
2000
0000
0000
3002
0000
0103
0001
1000
,  // measure 29
1001
1000
0010
0100
0001
1000
0001
0001
,  // measure 30
0010
0200
1000
0000
0301
0100
1000
0010
,  // measure 31
0210
0000
0010
0000
0310
0010
0110
0100
,  // measure 32
0002
0003
0001
2000
3000
1000
1100
0000
,  // measure 33
0100
1000
0001
0200
0001
0310
0110
0010
,  // measure 34
1000
0001
0010
0200
1300
0100
0110
0010
,  // measure 35
0011
0001
0100
0010
1000
0100
0010
0100
,  // measure 36
2000
0000
0000
3002
0000
0103
0010
0100
,  // measure 37
0001
0010
0100
1000
0010
0100
0001
0001
,  // measure 38
0010
0200
0001
0000
1300
0100
1000
0010
,  // measure 39
0120
0000
0100
0000
0130
0100
0010
0100
,  // measure 40
0002
0003
0001
0020
0030
0010
0110
0000
,  // measure 41
0100
1000
0001
0200
0001
0310
0110
0100
,  // measure 42
0001
0010
0100
2000
0001
3010
1010
0000
,  // measure 43
0110
0100
0001
1000
0100
0010
0100
1000
,  // measure 44
0001
0100
0010
0100
0002
0000
2003
0000
,  // measure 45
3100
1000
0010
0100
1000
0100
0001
0010
,  // measure 46
0100
1000
0010
0100
0200
0000
0302
0000
,  // measure 47
0013
0100
1000
0001
0100
1000
0100
0001
,  // measure 48
0010
0100
1000
0001
0200
0000
0001
0320
,  // measure 49
1000
0000
1000
0000
1000
0000
1030
0010
,  // measure 50
0220
0330
0100
0001
0022
0033
0001
0010
,  // measure 51
0220
0000
0330
2200
0000
3300
1001
0001
,  // measure 52
0202
0303
0100
0010
2020
3030
1000
0001
,  // measure 53
0022
0000
0033
2200
0000
3300
0110
0010
,  // measure 54
0022
0033
0010
0100
2200
3300
0100
1000
,  // measure 55
2020
0000
3030
0022
0000
0033
1001
1000
,  // measure 56
2020
3030
1010
0010
0220
0330
0101
0100
,  // measure 57
0220
0000
0000
0000
0330
0000
2020
3030
0010
0000
0010
0000
1000
0001
1000
0001
,  // measure 58
2002
3003
0000
0000
;
