#TITLE:Tell Me Who You Are;
#SUBTITLE:(Live from Tallin, Estonia, 2002);
#ARTIST:Malene Mortensen;
#MUSIC:Tell Me Who You Are (Live from Tallin, Estonia, 2002).ogg;
#BANNER:Tell Me Who You Are (Live from Tallin, Estonia, 2002).png;
#BACKGROUND:Tell Me Who You Are (Live from Tallin, Estonia 2002)-bg.png;
#LYRICSPATH:;
#CDTITLE:;
#SAMPLESTART:48.144;
#SAMPLELENGTH:18.225;
#OFFSET:-0.06;
#BPMS:0.000000=106.000000,
136.000000=53.000000,
145.000000=106.000000
;
#STOPS:;
#TIMESIGNATURES:;
#BGCHANGES:;
#FGCHANGES:;
#ATTACKS:;
#SPEEDS:;
#SCROLLS:;
#KEYSOUNDS:;

//---------------dance-single - ---------------
#NOTES:
     dance-single:
     :
     Beginner:
     5:
     0,0,0,0,0:
// measure 0
0000
0000
0000
0000
,  // measure 1
0000
0000
0000
0000
,  // measure 2
0000
0000
0000
0000
,  // measure 3
0000
0000
0000
0000
,  // measure 4
1000
0000
0001
0000
,  // measure 5
0100
0000
0010
0000
,  // measure 6
1000
0000
0001
0000
,  // measure 7
0010
0000
0100
0000
,  // measure 8
2002
0000
3003
0000
,  // measure 9
1000
1000
0000
0000
,  // measure 10
2000
0000
3000
0000
,  // measure 11
0002
0000
0003
0000
,  // measure 12
0200
0000
0300
0000
,  // measure 13
0020
0000
0030
0000
,  // measure 14
2000
0000
3000
0000
,  // measure 15
0002
0000
0003
0000
,  // measure 16
0020
0000
0030
0000
,  // measure 17
0200
0000
0300
0000
,  // measure 18
2000
0000
3000
0000
,  // measure 19
0020
0000
0030
0000
,  // measure 20
0200
0000
0300
0000
,  // measure 21
0002
0003
0001
0000
,  // measure 22
0010
0010
0010
0000
,  // measure 23
0100
0100
0100
0000
,  // measure 24
0010
0010
0010
0000
,  // measure 25
0100
0100
0100
0000
,  // measure 26
1000
1000
1000
0000
,  // measure 27
0001
0001
0001
0000
,  // measure 28
0010
0010
0010
0000
,  // measure 29
0001
0001
0001
0000
,  // measure 30
2000
3000
1000
0000
,  // measure 31
0002
0003
0001
0000
,  // measure 32
0200
0300
0100
0000
,  // measure 33
0020
0030
0010
0000
,  // measure 34
1000
0000
0001
0000
,  // measure 35
1000
0000
0020
0030
,  // measure 36
0000
1000
1000
1000
,  // measure 37
0000
0001
0001
0001
,  // measure 38
0000
0010
0010
0010
,  // measure 39
0000
0100
0100
0100
,  // measure 40
0000
0010
0010
0010
,  // measure 41
0000
0001
0001
0001
,  // measure 42
0000
0100
0100
0100
,  // measure 43
0000
0010
0010
0010
,  // measure 44
0000
1000
1000
1000
,  // measure 45
0000
0001
0001
0001
,  // measure 46
0000
0010
0010
0010
,  // measure 47
0000
0100
0100
0100
,  // measure 48
0000
1000
1000
1000
,  // measure 49
0000
0001
0001
0001
,  // measure 50
0000
0100
0100
0100
,  // measure 51
0000
0010
0010
0010
,  // measure 52
0000
2002
0000
3003
,  // measure 53
0000
1001
1001
1001
;

//---------------dance-single - ---------------
#NOTES:
     dance-single:
     :
     Easy:
     7:
     0,0,0,0,0:
// measure 0
0000
0000
0000
0000
,  // measure 1
0000
0000
0000
0000
,  // measure 2
0000
0000
0000
0000
,  // measure 3
0000
0000
0000
0000
,  // measure 4
2000
0000
3002
0000
,  // measure 5
0203
0000
0302
0000
,  // measure 6
2003
0000
3002
0000
,  // measure 7
0023
0000
0032
0000
,  // measure 8
0203
0000
0000
0300
,  // measure 9
0010
0010
0000
0000
,  // measure 10
2000
3100
0002
0103
,  // measure 11
2000
3010
0002
0013
,  // measure 12
2000
3010
0200
0310
,  // measure 13
2000
3010
0002
0013
,  // measure 14
2000
3100
0002
0103
,  // measure 15
2000
3010
0002
0013
,  // measure 16
2000
3001
0002
1003
,  // measure 17
0200
0310
0020
0130
,  // measure 18
2000
0100
0010
3100
,  // measure 19
0002
0100
0010
0103
,  // measure 20
2000
0100
0001
3100
,  // measure 21
2002
3003
0100
0100
,  // measure 22
0001
1000
0100
1001
,  // measure 23
1000
0001
0100
1001
,  // measure 24
1000
0010
0100
0110
,  // measure 25
0100
0010
1000
1100
,  // measure 26
1000
0010
0100
0101
,  // measure 27
0001
0010
0100
1100
,  // measure 28
1000
0001
0100
0110
,  // measure 29
0100
0001
0010
0110
,  // measure 30
2000
0000
3002
0000
,  // measure 31
2003
0000
3200
0000
,  // measure 32
0010
0010
1000
1000
,  // measure 33
0001
0001
1000
1300
,  // measure 34
2000
3020
2030
3200
,  // measure 35
2300
3002
0023
0000
,  // measure 36
0130
0100
0100
0000
1000
0000
0010
0000
,  // measure 37
1010
0010
1000
0100
,  // measure 38
0101
0100
1000
0010
,  // measure 39
1010
0010
1000
0001
,  // measure 40
1001
0001
1000
0010
,  // measure 41
0110
0010
1000
0001
,  // measure 42
0101
0010
0010
0100
,  // measure 43
0110
0220
0330
1000
,  // measure 44
1000
0001
0100
0010
,  // measure 45
1010
1000
0010
0100
,  // measure 46
0101
0001
1000
0100
,  // measure 47
0110
0100
1000
0001
,  // measure 48
0101
0001
1000
0010
,  // measure 49
0110
0010
1000
0001
,  // measure 50
1001
1000
0001
1000
,  // measure 51
1010
0001
1000
0001
,  // measure 52
0100
0110
0220
0000
,  // measure 53
0330
0110
0110
1001
;

//---------------dance-single - ---------------
#NOTES:
     dance-single:
     :
     Medium:
     10:
     0,0,0,0,0:
// measure 0
0000
0000
0000
0000
,  // measure 1
0000
0000
0000
0000
,  // measure 2
0000
0000
0000
0000
,  // measure 3
0000
0000
0000
0000
,  // measure 4
2000
3100
0002
0103
,  // measure 5
2000
3100
0002
0013
,  // measure 6
2000
3010
0200
0301
,  // measure 7
0020
0130
0002
1003
,  // measure 8
0220
0000
0000
0330
,  // measure 9
1000
0001
0010
0100
0000
0000
0000
0000
,  // measure 10
2000
0000
3001
0000
0001
1000
0001
0000
,  // measure 11
0002
0000
0013
0000
0010
0100
0010
0000
,  // measure 12
0200
0000
1300
0000
1000
0100
1000
0000
,  // measure 13
2000
0000
3010
0000
0100
0010
0100
0000
,  // measure 14
0002
0000
1003
0000
1000
0001
1000
0000
,  // measure 15
2000
0000
3010
0000
0010
0100
0010
0000
,  // measure 16
0200
0000
0310
0000
0001
0010
0001
0000
,  // measure 17
0020
0000
0130
0000
0001
0010
0001
0000
,  // measure 18
2000
0010
0100
3001
,  // measure 19
0002
1000
0100
0013
,  // measure 20
2000
0000
0010
0000
0001
0000
3100
2200
,  // measure 21
0000
0000
3300
2000
0000
3001
0100
0001
,  // measure 22
0020
0000
0000
0230
0000
2300
3010
0100
,  // measure 23
0200
0000
0000
0302
0000
0013
0010
0001
,  // measure 24
0020
0030
0010
0100
1000
0002
0000
0203
,  // measure 25
0000
0000
0000
0302
0000
1003
0010
0100
,  // measure 26
0020
0000
0000
2030
0000
3001
0100
0010
,  // measure 27
0020
0000
0000
2030
0000
3001
1000
0100
,  // measure 28
0200
0300
1000
0100
0010
0200
0000
2300
,  // measure 29
0000
0000
0000
3001
1000
0001
1000
0000
,  // measure 30
2000
3002
0023
0230
,  // measure 31
0320
0032
2003
3020
,  // measure 32
0230
0320
2030
3200
,  // measure 33
0302
0023
2030
3002
,  // measure 34
2003
3002
0203
0320
,  // measure 35
2030
0000
3002
0003
2002
0000
0000
3003
,  // measure 36
1000
1000
1000
0000
0100
0000
0020
0000
,  // measure 37
0001
0100
1000
0100
,  // measure 38
0031
1000
0010
0100
,  // measure 39
0001
0000
0010
0010
0001
0000
0010
0010
,  // measure 40
0100
0000
1000
1000
0001
0000
0001
0001
,  // measure 41
1000
0000
0010
0010
0100
0000
0010
0010
,  // measure 42
1000
0000
1000
1000
0010
0000
0100
0100
,  // measure 43
0010
0000
0220
0000
0330
2000
0000
3001
,  // measure 44
0100
0100
0020
0000
0000
0230
0000
0301
,  // measure 45
0010
0100
0200
0000
0000
0302
0000
0103
,  // measure 46
1000
0001
0020
0030
0010
0001
1000
0020
,  // measure 47
0000
0230
0000
0000
0300
0200
0000
0301
,  // measure 48
0010
0100
0020
0000
0000
0032
0000
1003
,  // measure 49
0010
0100
0200
0000
0000
0302
0000
1003
,  // measure 50
1000
0100
0200
0000
1300
0100
0010
0200
,  // measure 51
0000
2300
0000
0000
0000
3001
1000
0010
,  // measure 52
0100
0000
0000
0001
0000
0000
0000
0000
2002
0000
0000
0000
0000
0000
0000
0000
,  // measure 53
0000
0000
3003
0000
1001
0000
0000
0110
0000
0000
2002
0000
0000
0000
0000
0000
,  // measure 54
0000
3003
0000
0000
0000
0000
0000
0000
;

//---------------dance-single - ---------------
#NOTES:
     dance-single:
     :
     Hard:
     14:
     0,0,0,0,0:
// measure 0
0000
0000
0000
0000
,  // measure 1
0000
0000
0000
0000
,  // measure 2
0000
0000
0000
0000
,  // measure 3
0000
0000
0000
0000
,  // measure 4
1000
0000
0000
2000
0000
0000
0000
0000
3001
0000
0000
0002
0000
0000
0000
0000
,  // measure 5
0103
0000
0000
0200
0000
0000
0000
0000
0310
0000
0000
0020
0000
0000
0000
0000
,  // measure 6
1030
0000
0000
2000
0000
0000
0000
0000
3001
0000
0000
0002
0000
0000
0000
0000
,  // measure 7
0013
0000
0000
0020
0000
0000
0000
0000
0130
0000
0000
0200
0000
0000
0000
0000
,  // measure 8
1300
0000
1000
0000
0001
1000
0000
0000
0001
0000
0001
0000
0010
0001
0010
0000
,  // measure 9
0100
1000
0100
0010
0001
0100
0010
1000
0000
0000
0000
0000
0100
0000
1000
0000
,  // measure 10
0020
0100
0001
0130
1000
0100
0001
0010
,  // measure 11
0020
0100
1000
0100
0031
0010
0100
1000
,  // measure 12
0020
0100
1000
0130
0020
0130
0110
1010
,  // measure 13
1001
0021
0100
1000
0001
0130
1000
0001
,  // measure 14
2000
0001
3010
0200
1000
0301
0020
2030
,  // measure 15
3020
0100
1000
0001
0130
0010
0010
0010
,  // measure 16
0020
0100
0031
0200
2300
3200
0302
0013
,  // measure 17
0120
0001
0100
1000
0100
0031
0110
0010
,  // measure 18
0001
1000
1010
0010
1000
1000
0001
1001
,  // measure 19
0001
0020
1030
0200
0301
0011
0010
0100
,  // measure 20
0020
0130
0110
0200
2300
3020
0130
0202
,  // measure 21
0000
0000
0303
0002
0000
0023
0130
0100
,  // measure 22
0110
0000
0010
0001
0100
0000
0200
0000
1000
0000
0001
0000
0010
0000
1300
0000
,  // measure 23
0100
0000
0100
0001
0010
0000
0110
0000
0100
0000
1100
0000
1001
0000
0101
0000
,  // measure 24
0110
0000
0010
1000
1001
0000
0101
0000
0110
0000
1010
0000
1001
0000
0101
0000
,  // measure 25
0001
1000
0100
0200
1000
1300
0010
0100
,  // measure 26
0110
0000
0010
1000
0001
0000
0021
0000
0130
0000
1200
0000
0310
0000
0110
0000
,  // measure 27
1001
0000
0001
0100
1000
0000
1200
0000
0301
0000
0021
0000
1030
0000
1010
0000
,  // measure 28
0011
0000
0001
0100
0010
0000
0200
0000
0302
0000
2003
0000
3200
0000
0320
0000
,  // measure 29
0130
0000
0100
1000
0001
0000
0101
0000
0110
0000
1010
0000
0110
0000
0200
0000
,  // measure 30
0301
0000
0001
0010
0000
0010
0100
0000
0100
1000
0000
1000
0001
0000
1001
0000
,  // measure 31
1010
0000
0010
0100
0000
0100
0001
0000
0001
1000
0000
1000
0100
0000
1100
0000
,  // measure 32
1001
0000
0002
0000
0000
0200
0003
0000
0020
0000
0330
0000
0110
0000
0000
0000
,  // measure 33
0010
1000
0010
1000
0001
0100
0001
0100
0010
1000
0100
0010
0001
0000
0011
0000
,  // measure 34
0002
0000
0000
2003
0000
0000
0010
3020
0000
0000
0032
0000
0000
0000
0013
0010
,  // measure 35
2000
0000
0000
3010
0100
0010
0000
2020
0000
0000
0000
0000
0000
0000
3030
0000
,  // measure 36
1000
0010
0000
1000
1010
0000
1000
0001
0010
0000
0000
0000
0100
0000
1000
0000
0001
0000
0000
0000
0101
0000
0000
0000
0120
0000
0000
0000
1000
0000
0000
0000
,  // measure 37
0100
0001
0100
0100
1000
1000
0130
1000
,  // measure 38
1001
0000
0001
0000
0010
0000
0100
1000
0010
0000
0100
0000
0001
0000
1000
0000
,  // measure 39
1001
0000
1000
0001
0000
0100
0000
0100
0000
0010
0000
1000
0000
0100
0000
0010
,  // measure 40
1000
0000
0000
0000
0000
0000
0010
0000
0000
0000
0000
0000
0001
0000
0000
0000
0100
0000
0000
0000
0010
0000
0000
0000
1000
0000
0000
0000
0000
0000
1000
0000
0000
0100
0000
0000
0000
0000
0000
0001
0000
0000
0000
0000
0000
0100
0000
0000
,  // measure 41
0000
1000
0000
0010
0000
0100
0000
0010
1000
0000
0001
1000
0100
0010
1000
0000
,  // measure 42
0110
0000
0010
0001
0000
0001
0000
1000
0000
0100
0000
0100
0000
0001
0000
0100
,  // measure 43
0000
1000
0000
0010
0100
0000
0001
0100
1000
0100
0001
0000
0010
0100
0010
0100
,  // measure 44
1000
0000
0001
1000
0100
0000
1000
0010
0100
0001
0010
0000
0011
0000
0010
0000
,  // measure 45
0110
0000
0100
0000
1001
0000
0001
0100
1000
0000
0100
0010
1000
0010
1000
0000
,  // measure 46
1010
0000
1000
0000
1001
0000
0001
1000
0100
0000
0100
0010
0001
0000
0011
0000
,  // measure 47
0010
0000
0110
0000
1100
0000
1000
0001
0000
0100
0010
0000
1000
0001
0010
0000
,  // measure 48
0110
0000
0100
0000
0110
0000
0100
1000
0010
0000
0110
0000
0100
0010
1000
0000
,  // measure 49
1010
0000
1100
0000
1001
0000
0001
0100
0010
0000
1010
0000
0011
0000
1100
0000
,  // measure 50
0101
0000
1001
0000
1100
0000
1000
0001
0100
0000
0110
0000
1010
0000
1001
0000
,  // measure 51
0011
0000
0110
0000
1100
0000
1000
0010
0100
0000
0110
0000
0101
0000
0110
0000
,  // measure 52
1020
0000
0000
1030
0010
0000
1000
0001
0020
0000
0000
0000
0000
0000
1000
0000
,  // measure 53
0001
0000
1030
0000
1010
0000
0010
0011
0000
0001
2002
0000
0000
0000
0000
0000
,  // measure 54
3003
0000
0000
0000
;
