#TITLE:TILL THE END OF TIME;
#SUBTITLE:;
#ARTIST:Julianne & Edison;
#MUSIC:TILL THE END OF TIME.ogg;
#BANNER:TILL THE END OF TIME.png;
#BACKGROUND:TILL THE END OF TIME-bg.png;
#LYRICSPATH:;
#CDTITLE:;
#SAMPLESTART:21.752;
#SAMPLELENGTH:14.014;
#OFFSET:-0.73;
#BPMS:0.000000=137.000000;
#STOPS:;
#TIMESIGNATURES:0.000000=4=4;
#BGCHANGES:;
#FGCHANGES:;
#ATTACKS:;
#SPEEDS:0.000000=1.000000=0.000000=0;
#SCROLLS:0.000000=1.000000;
#KEYSOUNDS:;

//---------------dance-single - ---------------
#NOTES:
     dance-single:
     :
     Beginner:
     4:
     0,0,0,0,0:
// measure 0
0000
0000
0000
0000
,  // measure 1
0000
0000
0000
0000
,  // measure 2
0000
0000
0000
0000
,  // measure 3
0000
0000
0000
0000
,  // measure 4
0000
1000
1000
0000
,  // measure 5
0000
0100
0100
0000
,  // measure 6
0000
0010
0010
0000
,  // measure 7
0001
0001
0001
0001
,  // measure 8
0000
1000
0000
0001
,  // measure 9
0000
0010
0000
0001
,  // measure 10
0000
0100
0000
0010
,  // measure 11
0000
1000
1000
0000
,  // measure 12
1001
0000
0000
0001
,  // measure 13
0001
0000
0000
0010
,  // measure 14
0010
0000
0000
0100
,  // measure 15
0100
0000
1000
0000
,  // measure 16
1001
0000
0000
0001
,  // measure 17
0001
0000
0000
1000
,  // measure 18
1000
0000
0000
0010
,  // measure 19
0010
0000
0100
0000
,  // measure 20
0001
0001
0001
0000
,  // measure 21
1000
1000
1000
0000
,  // measure 22
0010
0010
0010
0000
,  // measure 23
0100
0100
0100
0000
,  // measure 24
0001
0001
0001
0000
,  // measure 25
0010
0010
0010
0000
,  // measure 26
0100
0100
0100
0000
,  // measure 27
1000
1000
1000
0000
,  // measure 28
0001
0000
0100
0000
,  // measure 29
0010
0000
1000
0000
,  // measure 30
0001
0000
0010
0000
,  // measure 31
1000
1000
1000
0000
,  // measure 32
0010
0000
0001
0000
,  // measure 33
1000
0000
0100
0000
,  // measure 34
1000
0000
0010
0000
,  // measure 35
0100
0100
0100
0000
,  // measure 36
0001
0001
0001
0000
,  // measure 37
1000
1000
1000
0000
,  // measure 38
0010
0010
0010
0000
,  // measure 39
0100
0100
0100
0000
,  // measure 40
0001
0001
0001
0000
,  // measure 41
1000
1000
1000
0000
,  // measure 42
0100
0100
0100
0000
,  // measure 43
0020
0000
0030
0000
,  // measure 44
0110
0000
0000
0100
,  // measure 45
0100
0000
0000
1000
,  // measure 46
1000
0000
0000
0001
,  // measure 47
0001
0000
0100
0000
,  // measure 48
0010
0000
0000
1000
,  // measure 49
1000
0000
0000
0100
,  // measure 50
0100
0000
0000
0000
,  // measure 51
0110
0110
0110
0110
;

//---------------dance-single - ---------------
#NOTES:
     dance-single:
     :
     Easy:
     7:
     0,0,0,0,0:
// measure 0
0000
0000
0000
0000
,  // measure 1
0000
0000
0000
0000
,  // measure 2
0000
0000
0000
0000
,  // measure 3
0000
0000
0000
0000
,  // measure 4
0000
1000
1001
0000
,  // measure 5
0000
0001
1001
0000
,  // measure 6
0000
1000
1001
0000
,  // measure 7
1001
0011
0110
1100
,  // measure 8
1000
0001
0100
0001
,  // measure 9
1000
0010
1000
0001
,  // measure 10
0010
0100
1000
0001
,  // measure 11
0100
0010
0220
0330
,  // measure 12
1001
1000
0100
0001
,  // measure 13
0101
0001
0100
1000
,  // measure 14
1100
1000
0010
0100
,  // measure 15
0110
1010
1001
0011
,  // measure 16
0110
0100
1000
0001
,  // measure 17
0101
0001
0010
0100
,  // measure 18
1100
1000
0010
0100
,  // measure 19
1100
0101
0011
0110
,  // measure 20
0100
1000
0010
0100
,  // measure 21
0001
0010
1000
0010
,  // measure 22
0001
0100
1000
0100
,  // measure 23
0001
0010
0100
0010
,  // measure 24
0001
0100
1000
0200
,  // measure 25
0320
1030
0001
0010
,  // measure 26
1000
0010
0100
1000
,  // measure 27
0001
0100
0010
1000
,  // measure 28
0001
0010
1000
0010
,  // measure 29
0001
0100
1000
0100
,  // measure 30
0010
1000
0001
0010
,  // measure 31
0110
1100
1010
0110
,  // measure 32
0010
0100
0001
0010
,  // measure 33
1000
0010
0001
0100
,  // measure 34
1000
0100
0001
0010
,  // measure 35
0011
0110
1100
0110
,  // measure 36
0011
0001
0001
0001
,  // measure 37
0100
0100
0100
0100
,  // measure 38
0010
0010
0010
0010
,  // measure 39
1000
1000
1000
1000
,  // measure 40
0001
0001
0001
0001
,  // measure 41
0010
0010
0010
0010
,  // measure 42
1000
1000
0010
0010
,  // measure 43
0002
0000
2000
3003
,  // measure 44
1001
1000
0010
0100
,  // measure 45
0101
0100
0010
1000
,  // measure 46
1001
1000
0010
0100
,  // measure 47
0101
0011
1010
0011
,  // measure 48
0101
0100
0010
1000
,  // measure 49
1001
1000
0010
0100
,  // measure 50
0101
0001
0010
0100
,  // measure 51
0110
1100
1001
0101
,  // measure 52
1001
0000
0000
0000
;

//---------------dance-single - ---------------
#NOTES:
     dance-single:
     :
     Medium:
     11:
     0,0,0,0,0:
// measure 0
0000
0000
0000
0000
,  // measure 1
0000
0000
0000
0000
,  // measure 2
0000
0000
0000
0000
,  // measure 3
0000
0000
0000
0000
,  // measure 4
0000
1000
1010
0000
,  // measure 5
0000
0001
0011
0000
,  // measure 6
0000
1000
1100
0000
,  // measure 7
1001
0101
1001
1100
,  // measure 8
0000
0001
0000
0100
0000
1000
0000
0100
,  // measure 9
0000
0001
0000
0010
0000
0100
0000
1000
,  // measure 10
0000
0010
0000
0001
0000
0010
0000
1000
,  // measure 11
0000
0100
0000
0010
0200
0000
2300
0000
,  // measure 12
3001
0000
0001
0100
0010
0000
1010
0000
,  // measure 13
0101
0000
0100
0001
0010
0000
0011
0000
,  // measure 14
1100
0000
0100
1000
0010
0000
0110
0000
,  // measure 15
0101
1001
1100
0110
,  // measure 16
0011
0000
0001
0010
0100
0000
0110
0000
,  // measure 17
1100
0000
0100
1000
0010
0000
1010
0000
,  // measure 18
0110
0000
0100
0001
0010
0000
0011
0000
,  // measure 19
1010
0110
1100
1001
,  // measure 20
0101
0000
0001
0000
0010
0001
0100
0000
,  // measure 21
1000
0000
0100
0000
0001
1000
0100
0000
,  // measure 22
0001
0000
0100
0000
1000
0010
0100
0000
,  // measure 23
1000
0000
0100
0000
0001
0010
1000
0000
,  // measure 24
0010
0000
0100
0000
1000
0001
0100
0000
,  // measure 25
1000
0000
0100
0000
0001
0010
1000
0000
,  // measure 26
0010
0000
0100
0000
1000
0001
0100
0000
,  // measure 27
2000
3200
0302
0023
,  // measure 28
0130
0000
1000
0000
0001
0100
0010
0000
,  // measure 29
0100
0000
0001
0000
0010
0200
1300
0000
,  // measure 30
0001
0000
0100
0000
1000
0100
0001
0000
,  // measure 31
1001
0110
1010
0101
,  // measure 32
1001
0000
1000
0000
0010
0100
0001
0000
,  // measure 33
0010
0000
1000
0000
0010
0100
1000
0000
,  // measure 34
0001
0000
0100
0000
1000
0100
0001
0000
,  // measure 35
0101
1001
1100
0110
,  // measure 36
0000
0001
0000
1000
0000
0010
0000
0001
,  // measure 37
0000
0010
0000
0100
0000
0001
0000
1000
,  // measure 38
0000
0100
0000
0001
0000
0100
0000
1000
,  // measure 39
0000
0010
0000
0100
0000
0001
0000
1000
,  // measure 40
0000
0100
0000
0001
0000
0100
0000
1000
,  // measure 41
0000
0010
0000
0100
0000
1000
0000
0100
,  // measure 42
0000
0001
0000
1000
0000
0100
0000
0010
,  // measure 43
0000
0100
0000
2000
0002
0000
3003
0000
,  // measure 44
1001
0000
1000
0100
0010
0000
0011
0000
,  // measure 45
1100
0000
0001
0100
1000
0000
1100
0000
,  // measure 46
0101
0000
0100
0001
0010
0000
0011
0000
,  // measure 47
1100
1010
0110
0101
,  // measure 48
1001
0000
1000
0010
0001
0000
0011
0000
,  // measure 49
1010
0000
1000
0100
0010
0000
0011
0000
,  // measure 50
1100
0000
0100
1000
0010
0000
1010
0000
,  // measure 51
0101
0000
0000
0000
1001
0000
0000
0000
1100
0000
0000
0110
0000
0000
0011
0000
;

//---------------dance-single - ---------------
#NOTES:
     dance-single:
     :
     Hard:
     14:
     0,0,0,0,0:
// measure 0
0000
0000
0000
0000
,  // measure 1
0000
0000
0000
0000
,  // measure 2
0000
0000
0000
0000
,  // measure 3
0000
0000
0000
0000
,  // measure 4
1000
0000
0000
0000
0010
0000
0000
0000
1010
0000
0000
1000
0010
0000
0100
0000
,  // measure 5
0001
0000
0000
0000
0100
0000
0000
0000
0101
0000
0000
0100
0001
0000
0010
0000
,  // measure 6
0100
0000
0000
0000
1000
0000
0000
0000
1100
0000
0000
0100
1000
0000
0001
0000
,  // measure 7
0100
0110
1010
1001
,  // measure 8
1000
0001
0010
0001
0100
0010
1000
0010
,  // measure 9
0100
0001
0010
0001
0100
1000
0001
1000
,  // measure 10
0100
0010
1000
0010
0100
0001
0010
0001
,  // measure 11
0100
0010
1000
0010
2010
0000
3001
0000
,  // measure 12
0101
0000
0001
0000
1000
0000
0100
0020
0000
0000
0032
0000
1003
0000
0000
0000
,  // measure 13
1100
0000
1000
0000
0010
0000
0100
0002
0000
0000
2003
0000
3100
0000
0000
0000
,  // measure 14
0110
0000
0100
0000
1000
0000
0001
0200
0000
0000
2300
0000
3100
0000
0000
0000
,  // measure 15
0101
0000
0000
0000
0011
0000
0000
0000
0110
0000
0000
1100
0000
0000
1001
0000
,  // measure 16
0101
0000
0100
0000
0010
0000
1000
0200
0000
0000
0302
0000
0103
0000
0000
0000
,  // measure 17
1100
0000
0100
0000
1000
0000
0010
0200
0000
0000
2300
0000
3100
0000
0000
0000
,  // measure 18
0101
0000
0100
0000
0001
0000
0010
2000
0000
0000
3020
0000
0031
0000
0000
0000
,  // measure 19
0011
0000
0000
0000
1001
0000
0000
0000
1010
0000
0000
0110
0000
0000
0101
0000
,  // measure 20
0100
0001
0010
0001
0100
1000
0100
0001
,  // measure 21
0010
0100
1000
0010
0100
0001
1000
0001
,  // measure 22
0100
0010
1000
0100
0010
0001
1000
0001
,  // measure 23
0010
0100
1000
0001
0100
1000
0100
0010
,  // measure 24
1000
0100
0001
0100
0010
0001
0100
1000
,  // measure 25
0100
0010
1000
0100
0010
0001
0010
0100
,  // measure 26
1000
0001
0100
1000
0100
0010
1000
0001
,  // measure 27
0011
0000
0010
0000
0110
0000
0100
0000
1100
0000
0100
1000
0001
0000
0011
0000
,  // measure 28
0001
0000
0100
0000
0010
0000
0100
0002
0000
0000
2003
0000
0000
0000
3100
0000
,  // measure 29
1000
0000
0001
0000
0100
0000
0010
2000
0000
0000
3002
0000
0000
0000
0013
0000
,  // measure 30
0001
0000
0100
0000
0010
0000
1000
0200
0000
0000
0302
0000
0000
0000
0103
0000
,  // measure 31
1100
0000
0000
0000
1010
0000
0000
0000
0101
0000
0000
1001
0000
0000
1100
0000
,  // measure 32
1000
0000
0001
0000
0100
0000
0010
0200
0000
0000
0302
0000
0000
0000
1003
0000
,  // measure 33
0100
0000
0010
0000
0100
0000
1000
0020
0000
0000
0032
0000
0000
0000
0013
0000
,  // measure 34
0100
0000
0001
0000
0010
0000
0100
2000
0000
0000
3002
0000
0000
0000
0103
0000
,  // measure 35
0101
0000
0000
0000
1001
0000
0000
0000
1100
0000
0000
0110
0000
0000
0011
0000
,  // measure 36
0001
0100
0010
0100
0001
0010
0100
1000
,  // measure 37
0010
0100
1000
0100
0010
1000
0001
0010
,  // measure 38
0100
1000
0001
1000
0100
0010
0001
0100
,  // measure 39
0010
1000
0100
0001
0100
1000
0010
0100
,  // measure 40
0001
0010
1000
0010
0100
1000
0001
0100
,  // measure 41
1000
0100
0010
1000
0100
0001
0100
0010
,  // measure 42
0001
1000
0010
0001
0010
0100
0001
1000
,  // measure 43
0200
0001
0020
0330
,  // measure 44
0110
0000
0010
0000
0100
0000
1000
0002
0000
0000
0203
0000
0310
0000
0000
0000
,  // measure 45
1010
0000
0010
0000
0100
0000
0001
0020
0000
0000
0230
0000
1300
0000
0000
0000
,  // measure 46
1100
0000
1000
0000
0001
0000
0100
2000
0000
0000
3200
0000
0301
0000
0000
0000
,  // measure 47
0101
0000
0000
0000
0011
0000
0000
0000
1010
0000
0000
0011
0000
0000
0101
0000
,  // measure 48
0001
0000
0100
0000
0010
0000
0100
0002
0000
0000
2003
0000
3100
0000
0000
0000
,  // measure 49
1100
0000
0100
0000
1000
0000
0001
0200
0000
0000
2300
0000
3100
0000
0000
0000
,  // measure 50
0101
0000
0100
0000
0001
0000
0010
2000
0000
0000
3020
0000
0031
0000
0000
0000
,  // measure 51
0011
0000
0000
0000
1001
0000
0000
0000
1100
0000
0000
0110
0000
0000
0011
0000
;
