#TITLE:TENSHI (D.U.S Special);
#SUBTITLE:;
#ARTIST:GOURYELLA;
#MUSIC:TENSHI (D.U.S Special).ogg;
#BANNER:TENSHI (D.U.S Special).png;
#BACKGROUND:TENSHI (D.U.S Special)-bg.png;
#LYRICSPATH:;
#CDTITLE:;
#SAMPLESTART:57.4;
#SAMPLELENGTH:15.000000000000007;
#BPMS:0.000000=138.000000;
#STOPS:;
#TIMESIGNATURES:;
#BGCHANGES:;
#FGCHANGES:;
#ATTACKS:;
#SPEEDS:;
#SCROLLS:;
#KEYSOUNDS:;

//---------------dance-single - ---------------
#NOTES:
     dance-single:
     :
     Challenge:
     18:
     0,0,0,0,0:
// measure 0
0000
0000
0000
0000
,  // measure 1
2002
3003
2002
3003
2002
3003
2002
3003
,  // measure 2
1000
0010
0100
0000
0220
0000
0330
0000
0220
0000
0330
0000
0220
0000
0330
0000
,  // measure 3
0202
0303
0202
0303
0202
0303
0202
0303
,  // measure 4
2002
3003
2002
3003
2002
3003
2002
3003
,  // measure 5
1000
0001
0010
0000
0022
0000
0033
0000
0022
0000
0033
0000
0022
0000
0033
0000
,  // measure 6
2200
3300
2200
3300
2200
3300
2200
3300
,  // measure 7
2002
3003
2002
3003
2002
3003
2002
3003
,  // measure 8
2020
3030
2020
3030
2020
3030
2020
3030
,  // measure 9
1000
0100
0010
0000
0220
0000
0330
0000
0220
0000
0330
0000
0220
0000
0330
0000
,  // measure 10
2200
3300
2200
3300
2200
3300
2200
3300
,  // measure 11
2002
3003
2002
3003
2002
3003
2002
3003
,  // measure 12
0022
0033
0022
0033
0022
0033
0022
0033
,  // measure 13
0010
0001
0010
0000
0001
0010
0001
0000
0010
0001
0010
0000
0001
0010
0001
0000
,  // measure 14
0100
0001
0100
0000
0001
0100
0001
0000
0100
0001
0100
0000
0001
0100
0001
0000
,  // measure 15
1000
0010
1000
0000
0010
1000
0010
0000
1000
0010
1000
0000
0010
1000
0010
0000
,  // measure 16
1000
0100
1000
0000
0100
1000
0100
0000
1000
0100
1000
0000
0100
1000
0100
0000
,  // measure 17
1000
0001
0020
0030
0001
1000
0020
0030
1000
0001
0020
0030
0001
1000
0020
0030
,  // measure 18
1000
0001
0200
0300
0001
1000
0200
0300
1000
0001
0200
0300
0001
1000
0200
0300
,  // measure 19
1000
0100
0020
0030
0100
1000
0020
0030
1000
0100
0020
0030
0100
1000
0020
0030
,  // measure 20
0100
0001
0020
0030
0001
0100
0020
0030
0100
0001
0020
0030
0001
0100
0020
0030
,  // measure 21
1000
0100
0002
0003
0100
1000
0002
0003
1000
0100
0002
0003
0100
1000
0002
0003
,  // measure 22
1000
0010
0002
0003
0010
1000
0002
0003
1000
0010
0002
0003
0010
1000
0002
0003
,  // measure 23
0001
0010
0200
0300
0010
0001
0200
0300
0001
0010
0200
0300
0010
0001
0200
0300
,  // measure 24
0001
0010
0200
0300
0010
0001
0200
0300
0001
0010
0200
0300
0010
0001
0200
0300
,  // measure 25
0001
1000
0200
0300
1000
0001
0020
0030
0001
1000
0200
0300
1000
0001
0020
0030
,  // measure 26
0001
0100
0020
0030
1000
0010
0200
0300
0001
0100
0020
0030
1000
0010
0200
0300
,  // measure 27
0001
0010
0200
0300
1000
0100
0020
0030
0001
0010
0200
0300
1000
0100
0020
0030
,  // measure 28
0001
0100
0020
0030
1000
0010
0200
0300
0001
0100
0020
0030
1000
0010
0200
0300
,  // measure 29
0001
1000
0020
0030
0100
0001
0020
0030
0001
1000
0020
0030
0100
0001
0020
0030
,  // measure 30
0001
0100
0020
0030
1000
0001
0200
0300
0001
0100
0020
0030
1000
0001
0200
0300
,  // measure 31
0010
1000
0002
0003
0100
0001
0020
0030
0100
1000
0002
0003
0100
0010
2000
3000
,  // measure 32
0001
0100
0002
0003
0100
0001
0200
0300
0001
0100
0002
0003
0100
0001
0200
0300
,  // measure 33
0001
1000
0020
0030
1000
0001
0020
0030
0001
1000
0020
0030
1000
0001
0020
0030
,  // measure 34
0001
1000
0200
0300
1000
0001
0200
0300
0001
1000
0200
0300
1000
0001
0200
0300
,  // measure 35
0001
0100
0020
0030
0100
0001
0020
0030
0001
0100
0020
0030
0100
0001
0020
0030
,  // measure 36
0001
0100
0020
0030
0100
0001
0020
0030
0001
0100
0020
0030
0100
0001
0020
0030
,  // measure 37
0100
1000
0002
0003
0100
0001
2000
3000
0100
1000
0002
0003
0100
0001
2000
3000
,  // measure 38
0100
0010
0002
0003
0010
0100
2000
3000
0100
0010
0002
0003
0010
0100
2000
3000
,  // measure 39
0001
0100
2000
3000
1000
0100
0002
0003
0001
0100
2000
3000
1000
0100
0002
0003
,  // measure 40
0001
0100
2000
3000
1000
0100
0002
0003
0001
0100
2000
3000
1000
0100
0002
0003
,  // measure 41
0001
0010
0200
0300
1000
0001
0200
0300
0001
1000
0200
0300
1000
0001
0020
0030
,  // measure 42
0100
1000
0020
0030
0100
0001
2000
3000
0100
0010
0002
0003
0100
0010
0002
0003
,  // measure 43
0010
0100
0002
0003
0010
0100
2000
3000
0001
0100
0020
0030
1000
0001
0200
0300
,  // measure 44
0010
0100
0002
0003
0010
0100
2000
3000
0001
0100
0020
0030
1000
0001
0020
0030
,  // measure 45
0100
1000
0002
0003
0100
0010
0002
0003
0010
1000
0002
0003
0010
0100
2000
3000
,  // measure 46
0001
0100
2000
3000
0100
0001
0020
0030
0100
1000
0002
0003
0100
0010
2000
3000
,  // measure 47
0001
0010
0200
0300
1000
0001
0200
0300
1000
0100
0002
0003
0010
0100
2000
3000
,  // measure 48
0002
1003
0001
2000
3001
1000
0002
1003
0001
2000
3001
1000
0002
1003
0001
2000
,  // measure 49
3001
0000
0100
0000
0101
0000
1000
0100
0000
0100
0000
0100
0010
0100
0010
0001
,  // measure 50
1001
0000
0001
0000
0101
0000
0100
0010
0000
1000
0000
0001
0010
0100
1000
0001
,  // measure 51
0101
0000
1000
0000
1010
0000
0010
0100
0000
1000
0000
0001
0100
0010
1000
1000
,  // measure 52
1001
0000
0001
0000
0110
0000
0010
1000
0000
0001
0000
0100
0010
1000
0001
0001
,  // measure 53
0001
0100
0001
0100
0010
0100
0001
0100
0001
0100
0001
0100
1000
0100
0001
0100
,  // measure 54
0001
0100
0001
0100
0010
0100
0001
0100
0001
0100
0001
0100
1000
0100
0001
0100
,  // measure 55
0010
1000
0010
1000
0100
1000
0010
1000
0010
1000
0010
1000
0001
1000
0010
1000
,  // measure 56
0010
1000
0100
0010
0001
0100
1000
0100
0001
0010
0100
0010
0220
0000
0000
0000
,  // measure 57
0000
0000
0000
0330
;

//---------------dance-double - ---------------
#NOTES:
     dance-double:
     :
     Challenge:
     18:
     0,0,0,0,0:
// measure 0
00000000
00000000
00000000
00000000
,  // measure 1
20000000
30010000
00020000
10030000
20000000
30010000
00020000
10030000
,  // measure 2
20000000
30001000
00002000
00013000
00020000
00031000
00002000
00013000
,  // measure 3
00020000
00030100
00000200
00001300
00002000
00003100
00000200
00001300
,  // measure 4
00002000
00003100
00000200
00001300
00002000
00003100
00000200
00001300
,  // measure 5
00002000
00003001
00000002
00001003
00002000
00003001
00000002
00001003
,  // measure 6
00002000
00003100
00000200
00001300
00002000
00003100
00000200
00001300
,  // measure 7
00020000
00031000
00002000
00013000
00020000
00031000
00002000
00013000
,  // measure 8
00020000
00031000
00002000
00013000
00020000
00031000
00002000
00013000
,  // measure 9
00020000
01030000
02000000
13000000
20000000
31000000
02000000
13000000
,  // measure 10
20000000
30100000
00200000
01300000
02000000
03100000
00200000
01300000
,  // measure 11
02000000
13000000
20000000
30010000
00020000
01030000
00020000
10030000
,  // measure 12
20000000
31000000
02000000
03100000
00200000
00310000
00020000
01030000
,  // measure 13
02000000
03001000
00002000
00013000
00020000
00030100
00000200
00001300
,  // measure 14
00002000
00003001
00000002
00000103
00000200
00000310
00000020
00001030
,  // measure 15
00002000
00003001
00000002
00000013
00000020
00000130
00000200
00010300
,  // measure 16
00020000
00000000
00031000
00000000
00002000
00000000
01003000
00000000
01000000
00010000
01000000
00100000
01000000
10000000
01000000
00100000
,  // measure 17
01000000
00010000
00200000
00300000
01000000
10000000
00200000
00300000
01000000
00010000
00200000
00300000
01000000
10000000
00200000
00300000
,  // measure 18
01000000
00001000
00020000
00030000
00000100
00010000
00002000
00003000
01000000
00001000
00020000
00030000
00000100
00010000
00002000
00003000
,  // measure 19
00010000
00000100
00000020
00000030
00000100
00010000
00000020
00000030
00010000
00000100
00000020
00000030
00000100
00010000
00000020
00000030
,  // measure 20
00010000
00000100
00000020
00000030
00000100
00010000
00000020
00000030
00010000
00000100
00000020
00000030
00000100
00010000
00000020
00000030
,  // measure 21
00000100
00000001
00000020
00000030
00000100
00001000
00000002
00000003
00000100
00000001
00000020
00000030
00000100
00001000
00000002
00000003
,  // measure 22
00000100
00000010
00002000
00003000
00000100
00000010
00002000
00003000
00000010
00000100
00002000
00003000
00000010
00000100
00002000
00003000
,  // measure 23
00010000
00001000
02000000
03000000
00010000
00100000
00002000
00003000
01000000
00010000
00200000
00300000
00001000
01000000
00200000
00300000
,  // measure 24
01000000
00010000
00200000
00300000
01000000
10000000
00200000
00300000
01000000
00010000
00200000
00300000
01000000
10000000
00200000
00300000
,  // measure 25
01000000
00010000
00200000
00300000
00001000
00010000
00000200
00000300
00001000
00000001
00000020
00000030
00000100
00001000
00000020
00000030
,  // measure 26
00000100
00001000
00020000
00030000
00001000
00100000
00020000
00030000
01000000
00010000
00200000
00300000
01000000
10000000
00020000
00030000
,  // measure 27
01000000
00001000
00020000
00030000
00000100
00001000
00000002
00000003
00000100
00000010
00002000
00003000
00000100
00010000
00002000
00003000
,  // measure 28
00100000
00010000
02000000
03000000
00010000
10000000
00200000
00300000
01000000
00010000
00200000
00300000
00010000
00100000
00002000
00003000
,  // measure 29
00010000
00000100
00002000
00003000
00000001
00000100
00000020
00000030
00001000
00000100
00020000
00030000
00001000
00010000
00000020
00000030
,  // measure 30
00000100
00000001
00002000
00003000
00000100
00010000
00002000
00003000
01000000
00010000
00200000
00300000
01000000
10000000
00020000
00030000
,  // measure 31
01000000
00100000
20000000
30000000
00010000
01000000
00002000
00003000
00010000
00000100
00002000
00003000
00000010
00000100
00000002
00000003
,  // measure 32
00000020
00000030
00000200
00000300
00002000
00003000
00000002
00000003
00000200
00000300
00002000
00003000
00020000
00030000
02000000
03000000
,  // measure 33
10000000
00010000
00200000
00300000
01000000
10000000
00020000
00030000
01000000
00100000
20000000
30000000
01000000
00100000
00020000
00030000
,  // measure 34
01000000
00001000
00020000
00030000
00000100
00001000
00000020
00000030
00000100
00000001
00000020
00000030
00000100
00001000
00000002
00000003
,  // measure 35
00000010
00000100
00002000
00003000
00000010
00000100
00002000
00003000
00000100
00000001
00000020
00000030
00000100
00001000
00000020
00000030
,  // measure 36
00000100
00000001
00002000
00003000
00000100
00000010
00000002
00000003
00001000
00000010
00000002
00000003
00000010
00001000
00000200
00000300
,  // measure 37
00010000
00001000
02000000
03000000
00010000
00100000
02000000
03000000
10000000
00010000
02000000
03000000
10000000
01000000
00020000
00030000
,  // measure 38
00100000
01000000
20000000
30000000
00010000
01000000
00200000
00300000
00010000
00001000
00020000
00030000
00000100
00001000
00000020
00000030
,  // measure 39
00000100
00000001
00002000
00003000
00000100
00000010
00000002
00000003
00000100
00000010
00002000
00003000
00000100
00001000
00000020
00000030
,  // measure 40
00000100
00000001
00002000
00003000
00000100
00001000
00000020
00000030
00000100
00000001
00000020
00000030
00000100
00001000
00000020
00000030
,  // measure 41
00000100
00000010
00020000
00030000
00001000
00100000
00020000
00030000
00100000
01000000
20000000
30000000
00010000
01000000
00200000
00300000
,  // measure 42
10000000
00010000
00200000
00300000
01000000
10000000
00020000
00030000
01000000
00001000
00020000
00030000
00000100
00001000
00000002
00000003
,  // measure 43
00000100
00000001
00000020
00000030
00000100
00001000
00000020
00000030
00000100
00000001
00000020
00000030
00000100
00001000
00000020
00000030
,  // measure 44
00010000
00000100
00002000
00003000
00000100
00010000
00002000
00003000
01000000
00001000
00020000
00030000
01000000
10000000
00020000
00030000
,  // measure 45
01000000
00100000
20000000
30000000
00010000
00100000
02000000
03000000
10000000
00010000
02000000
03000000
00001000
00010000
00000020
00000030
,  // measure 46
00000100
00000001
00002000
00003000
00000100
00000010
00002000
00003000
00000010
00000100
00002000
00003000
00000001
00001000
00000200
00000300
,  // measure 47
00010000
00001000
02000000
03000000
00010000
10000000
00200000
00300000
01000000
00010000
00200000
00300000
01000000
10000000
00020000
00030000
,  // measure 48
10000000
00001000
00010000
00000001
00010000
00001000
10000000
00100000
,  // measure 49
10000000
00000000
00010000
00000000
10010000
00000000
10000000
01000000
00000000
00100000
00000000
00010000
00110000
00000000
00100000
00000000
,  // measure 50
01000000
00000000
10000000
00000000
10010000
00000000
00010000
00100000
00000000
00001000
00000000
00010000
00011000
00000000
00010000
00000100
,  // measure 51
00001000
00000000
00000010
00000000
00000110
00000000
00000010
00000100
00000000
00000001
00000000
00000010
00000110
00000000
00000100
00000000
,  // measure 52
00001000
00000000
00000001
00000000
00001001
00000000
00000001
00000100
00000000
00000010
00000000
00001000
00001100
00000000
00000100
00010000
,  // measure 53
00001000
01000000
00010000
00100000
01000000
10000000
00010000
01000000
00100000
10000000
01000000
00100000
00010000
01000000
00001000
00010000
,  // measure 54
00000100
00001000
00000010
00000100
00000001
00000010
00000100
00001000
00000001
00000100
00000010
00001000
00000100
00010000
00001000
00100000
,  // measure 55
00010000
01000000
00100000
10000000
01000000
00010000
01000000
10000000
00010000
01000000
00100000
00010000
00100000
10000000
00010000
01000000
,  // measure 56
00001000
00010000
00000100
00001000
00000001
00000100
00000010
00001000
00000100
00010000
00001000
01000000
02020000
00000000
00000000
00000000
,  // measure 57
03030000
00000000
00000000
00000000
;
