#TITLE:Superhero;
#SUBTITLE:(Live from Warsaw, Poland, 2019);
#ARTIST:Viki Gabor;
#MUSIC:Superhero (Live from Warsaw, Poland, 2019).ogg;
#BANNER:Superhero (Live from Warsaw, Poland, 2019).png;
#BACKGROUND:Superhero (Live from Warsaw, Poland, 2019)-bg.png;
#LYRICSPATH:;
#CDTITLE:;
#SAMPLESTART:43.726;
#SAMPLELENGTH:17.455;
#OFFSET:-0.09;
#BPMS:0.000000=55.000000,
8.000000=110.000000,
168.000000=55.000000
;
#STOPS:;
#TIMESIGNATURES:0.000000=4=4;
#BGCHANGES:;
#FGCHANGES:;
#ATTACKS:;
#SPEEDS:0.000000=1.000000=0.000000=0;
#SCROLLS:0.000000=1.000000;
#KEYSOUNDS:;

//---------------dance-single - ---------------
#NOTES:
     dance-single:
     :
     Beginner:
     3:
     0,0,0,0,0:
// measure 0
0000
0000
0000
0000
,  // measure 1
0000
0000
2002
3003
,  // measure 2
1000
0000
0001
0000
,  // measure 3
0010
0010
0010
0000
,  // measure 4
0001
0000
1000
0000
,  // measure 5
0010
0010
0010
0000
,  // measure 6
0100
0000
0001
0000
,  // measure 7
1000
0000
0100
0000
,  // measure 8
1000
0000
0001
0000
,  // measure 9
0010
0010
0010
0000
,  // measure 10
0001
0000
0100
0000
,  // measure 11
0010
0000
1000
0000
,  // measure 12
0001
0000
0010
0000
,  // measure 13
0100
0000
1000
1000
,  // measure 14
1000
0000
0100
0000
,  // measure 15
1000
0000
0100
0000
,  // measure 16
0010
0010
0010
0000
,  // measure 17
0001
0001
0001
0000
,  // measure 18
1001
0000
1000
0000
,  // measure 19
0100
0100
0100
0000
,  // measure 20
0010
0000
0001
0000
,  // measure 21
0100
0100
0100
0000
,  // measure 22
0010
0000
1000
1000
,  // measure 23
1000
0000
0001
0001
,  // measure 24
0001
0000
0100
0000
,  // measure 25
0010
0010
0010
0000
,  // measure 26
1000
0000
0001
0000
,  // measure 27
0100
0100
0100
0000
,  // measure 28
0001
0000
1000
0000
,  // measure 29
0100
0100
0100
0000
,  // measure 30
0010
0000
0001
0001
,  // measure 31
0001
0000
0100
0000
,  // measure 32
0010
0000
1000
0000
,  // measure 33
0001
0001
0001
0000
,  // measure 34
0010
0010
0010
0000
,  // measure 35
0001
0001
0001
0000
,  // measure 36
1000
1000
1000
0000
,  // measure 37
0100
0100
0100
0000
,  // measure 38
1000
1000
1000
0000
,  // measure 39
0010
0010
0010
0000
,  // measure 40
0100
0100
0100
0000
,  // measure 41
0001
0001
0001
0000
,  // measure 42
1000
0000
0001
0000
0010
0010
0010
0000
;

//---------------dance-single - ---------------
#NOTES:
     dance-single:
     :
     Easy:
     7:
     0,0,0,0,0:
// measure 0
0000
0000
0000
0000
,  // measure 1
0000
0000
0000
0000
2002
0000
0000
3003
,  // measure 2
1001
0001
0100
0010
,  // measure 3
0100
0001
0010
0010
,  // measure 4
0100
1000
0010
0100
,  // measure 5
0001
1000
0010
0010
,  // measure 6
0100
0001
0010
0001
,  // measure 7
0100
0010
1000
0001
,  // measure 8
0010
0100
1000
0001
,  // measure 9
0100
0001
0010
0010
,  // measure 10
0210
0000
2300
0000
,  // measure 11
3002
0000
0203
0000
,  // measure 12
0320
0000
2030
0000
,  // measure 13
3002
0000
0023
0030
,  // measure 14
0110
0010
0001
1000
,  // measure 15
0010
0100
1000
0100
,  // measure 16
0001
0010
0100
1000
,  // measure 17
0001
0100
1000
0100
,  // measure 18
0110
0010
1000
0001
,  // measure 19
0010
0100
1000
0100
,  // measure 20
0010
0001
0100
0010
,  // measure 21
1000
0001
0100
0010
,  // measure 22
1010
0010
0100
0001
,  // measure 23
0011
0010
0100
1000
,  // measure 24
0001
0100
1000
0100
,  // measure 25
0001
0010
0100
1000
,  // measure 26
1010
0010
0100
0001
,  // measure 27
1000
0010
0100
0010
,  // measure 28
1000
0001
0010
0100
,  // measure 29
1000
0001
0100
0001
,  // measure 30
0011
0010
0100
1000
,  // measure 31
1001
0001
0100
0010
,  // measure 32
1000
0010
0100
0001
,  // measure 33
0010
0100
1000
0001
,  // measure 34
1001
1000
1100
0100
,  // measure 35
0110
0010
0011
0010
,  // measure 36
0100
1000
0001
0100
,  // measure 37
1000
0100
0001
1000
,  // measure 38
1100
0100
0110
0010
,  // measure 39
0011
0001
1001
1000
,  // measure 40
0010
1000
0100
0010
,  // measure 41
0001
0100
0010
1000
,  // measure 42
0001
1000
0100
1000
0001
1000
0020
0030
;

//---------------dance-single - ---------------
#NOTES:
     dance-single:
     :
     Medium:
     11:
     0,0,0,0,0:
// measure 0
0000
0000
0000
0000
,  // measure 1
0000
1000
0001
0000
0001
1000
0001
0000
2002
0000
0000
0000
0000
0000
3003
0000
,  // measure 2
1001
0000
1000
0000
0001
0100
0010
0000
,  // measure 3
0100
0000
0001
0000
0010
0001
0010
0000
,  // measure 4
0100
0000
1000
0000
0010
0100
0001
0000
,  // measure 5
0010
0000
0100
0000
1000
0010
1000
0000
,  // measure 6
0001
0010
0100
1000
,  // measure 7
0001
0000
0100
0000
0010
0000
0100
0001
,  // measure 8
1000
0000
0100
0000
0010
0100
1000
0000
,  // measure 9
0001
0000
0100
0000
0010
0010
0010
0000
,  // measure 10
2000
3020
0230
0302
,  // measure 11
0023
0230
2300
3002
,  // measure 12
0203
2300
3200
0320
,  // measure 13
2030
0000
3002
0000
0023
0000
0230
0300
,  // measure 14
1100
1000
0100
0000
0011
0001
0010
0000
,  // measure 15
0110
0100
1000
0000
1001
0001
0100
0000
,  // measure 16
0010
0100
0001
1000
0100
1000
0001
0200
,  // measure 17
0020
0000
0330
0000
0110
0010
1010
1000
,  // measure 18
1001
0000
0110
0000
1001
1000
0100
0000
,  // measure 19
0011
0000
1100
0000
0011
0001
0100
0000
,  // measure 20
1010
0000
0101
0000
1010
1000
0100
0000
,  // measure 21
1000
0001
0100
0001
1000
0000
0100
0010
,  // measure 22
0001
0000
0100
0000
0010
1000
0001
0000
,  // measure 23
0010
0000
0100
0000
1000
0001
0100
0000
,  // measure 24
0110
0000
1001
0000
1000
0001
0010
0000
,  // measure 25
0011
0000
1100
0000
0100
1000
0010
0000
,  // measure 26
0110
0000
1001
0000
1000
0100
0010
0000
,  // measure 27
0001
0010
0100
0010
0002
0000
1003
0000
,  // measure 28
1001
0000
1010
0000
1000
0010
0100
0000
,  // measure 29
1000
0100
0001
1000
0200
0000
0310
0100
,  // measure 30
1000
0000
1000
0001
0100
0000
0100
0010
,  // measure 31
2000
0000
3001
0000
0001
0100
0010
0000
,  // measure 32
1010
0000
0101
0000
0001
1000
0100
0000
,  // measure 33
0011
0000
1100
0000
0100
1000
0010
0000
,  // measure 34
0100
0010
1000
0000
0001
0010
0100
0000
,  // measure 35
1100
0011
2002
3003
,  // measure 36
0001
1000
0010
0000
0100
0010
1000
0000
,  // measure 37
0001
1000
0010
0000
0100
0010
1000
0000
,  // measure 38
1010
0000
0101
0000
0001
0010
0100
0000
,  // measure 39
0011
1100
1010
0101
,  // measure 40
0001
0100
0010
0000
1000
0100
0010
0000
,  // measure 41
0001
0010
0100
1000
0001
0100
0010
1000
,  // measure 42
0001
1000
0100
1000
0010
0010
0020
0030
;

//---------------dance-single - ---------------
#NOTES:
     dance-single:
     :
     Hard:
     15:
     0,0,0,0,0:
// measure 0
0000
0000
0000
0000
,  // measure 1
0000
1000
0001
1000
0010
0100
0010
2000
0002
0000
0000
0000
3003
0000
0000
0000
,  // measure 2
1001
0000
0000
0001
0100
0000
0010
0000
1010
0000
0000
0010
0100
0000
1000
0000
,  // measure 3
1100
0000
1000
0100
0000
0001
0100
0010
1010
0000
1010
0000
1010
0000
0000
0000
,  // measure 4
1001
0000
0000
0001
0010
0000
0100
0000
1100
0000
0000
0100
1000
0000
0010
0000
,  // measure 5
0110
0000
0010
0100
0000
0100
0001
0010
0110
0000
0110
0000
0110
0000
0000
0000
,  // measure 6
1001
0000
0000
0001
1000
0000
0010
0000
1000
0000
0000
0100
0010
0000
0001
0000
,  // measure 7
1000
0000
0000
0010
0100
0000
1000
0000
0100
0000
0000
0001
0010
0000
0100
0000
,  // measure 8
1100
0000
0000
0100
1000
0000
0010
0000
0110
0000
0000
0010
0100
0000
0001
0000
,  // measure 9
0011
0000
0001
0010
0000
1000
0010
0001
0011
0000
0011
0000
0022
0000
0033
0000
,  // measure 10
1100
0000
0000
0100
1000
0000
0010
0000
0110
0000
0000
0010
0100
0000
0001
0000
,  // measure 11
1001
0000
0001
1000
0100
0000
0010
0000
0011
0000
0110
0000
1100
0000
1001
0000
,  // measure 12
0101
0000
0000
0001
0100
0000
0010
0000
1010
0000
0000
1000
1100
0000
0110
0000
,  // measure 13
0011
0000
0000
0010
0001
0000
0100
0000
0110
0000
1010
0000
1001
0000
0011
0000
,  // measure 14
0110
0000
0010
0100
1000
0000
0010
0100
0001
0000
0010
0001
0100
0000
0010
1000
,  // measure 15
0100
0000
0010
0001
0100
0000
0010
0100
0001
0000
1000
0000
1100
0000
1000
0000
,  // measure 16
0010
0000
0000
0000
0000
0000
0100
0000
0000
0000
0000
0000
0001
0000
0000
1000
0000
0000
0100
0000
0000
1000
0000
0000
0001
0000
0000
0000
0000
0000
0100
0000
0000
0000
0000
0000
0010
0000
0000
0100
0000
0000
0001
0000
0000
0010
0000
0000
0100
0000
0000
0000
1000
0000
0000
0000
0001
0000
0000
0000
0100
0000
0000
0000
0010
0000
0000
0000
0100
0000
0000
0000
0001
0000
0000
0000
0010
0000
0000
0000
0100
0000
0000
0000
1000
0000
0000
0000
0010
0000
0000
0000
0100
0000
0000
0000
,  // measure 17
2000
0000
3100
0002
0000
1003
0200
0000
0310
0001
0100
0010
1010
0000
0101
0000
,  // measure 18
1001
1010
0011
1010
0101
1001
1100
0110
,  // measure 19
0011
1001
1010
1001
0201
1000
0301
0010
,  // measure 20
0100
1100
1001
0101
0110
1010
0011
1010
,  // measure 21
1100
0110
0011
0110
1001
1000
1010
0010
,  // measure 22
0110
0000
0100
0001
1000
0000
0010
0000
0110
0000
0100
0000
0101
0000
0001
0000
,  // measure 23
2001
0000
3001
0000
1001
0001
0011
0010
,  // measure 24
0110
1100
1001
0101
0110
1010
1100
0110
,  // measure 25
0011
0000
0110
0000
1100
0000
1001
0000
0201
0000
0001
0001
0301
0000
0001
0000
,  // measure 26
1001
0000
0001
1000
0010
0000
0100
0001
0010
0000
0100
1000
0010
0000
0100
1000
,  // measure 27
0001
1000
0100
0010
1000
0001
0010
0100
2000
0000
0000
0000
3002
0000
0000
0000
,  // measure 28
0103
0000
0010
1000
0001
0000
0010
0100
1000
0000
0010
0100
1000
0000
0100
0001
,  // measure 29
0010
1000
0001
1000
0010
0001
0100
0010
1010
0000
1000
0001
0011
0000
0110
0000
,  // measure 30
1100
0000
0100
1000
0001
0000
0101
0000
1100
0000
0101
0000
0011
0000
1010
0000
,  // measure 31
0022
0000
0000
0033
0011
0000
0000
0000
0011
0000
0110
0000
1100
0000
1001
0000
,  // measure 32
0101
0110
1010
0110
0101
0011
0110
0011
,  // measure 33
0001
0100
0010
1000
0100
0010
0001
1000
0020
0000
0000
0000
2030
0000
0000
0000
,  // measure 34
3001
0100
0010
1000
0100
0010
0001
0010
0100
1000
0001
0100
0010
1000
0001
0010
,  // measure 35
0200
0000
0000
0000
0320
0000
0000
0000
0032
0000
0000
0000
1003
0000
1000
0010
,  // measure 36
0100
1000
0100
0010
1000
0100
0010
0001
0100
0010
2000
0000
3001
0000
1001
0000
,  // measure 37
0101
1001
1010
1001
0012
0000
0020
0033
,  // measure 38
0001
0010
0100
1000
0010
0100
1000
0100
0001
1000
0100
0001
0100
1000
0001
0100
,  // measure 39
2000
0000
0000
0000
3200
0000
0000
0000
0320
0000
0000
0000
1030
0000
1000
0001
,  // measure 40
0010
0100
1000
0010
0100
1000
0100
0001
0010
0100
1000
0010
0100
0001
0010
1000
,  // measure 41
0010
0100
1000
0010
0100
0001
1000
0100
0001
0100
1000
0010
0100
1000
0100
0001
,  // measure 42
0010
0100
1000
0001
0100
0010
1000
0001
0010
0100
1000
0001
0020
0000
0030
0000
;
