#TITLE:Straight Into Love (LIVE);
#SUBTITLE:(Live from Malmö);
#ARTIST:Hannah;
#MUSIC:Straight Into Love.mp3;
#BANNER:Straight Into Love.png;
#BACKGROUND:Straight Into Love-bg.png;
#LYRICSPATH:;
#CDTITLE:;
#SAMPLESTART:46.412;
#SAMPLELENGTH:14.994999999999997;
#OFFSET:1.406;
#BPMS:0.000000=128.000000,
36.000000=64.000000,
68.000000=256.000000,
72.000000=128.000000,
134.000000=256.000000,
136.000000=128.000000
;
#STOPS:68.000000=0.938000,
134.000000=0.469000
;
#TIMESIGNATURES:;
#BGCHANGES:;
#FGCHANGES:;
#ATTACKS:;
#SPEEDS:;
#SCROLLS:;
#KEYSOUNDS:;

//---------------dance-single - ---------------
#NOTES:
     dance-single:
     :
     Beginner:
     5:
     0,0,0,0,0:
// measure 0
0000
0000
0000
0000
,  // measure 1
1000
0000
1001
0000
,  // measure 2
0001
0000
1001
0000
,  // measure 3
0010
0000
0110
0000
,  // measure 4
0100
0000
0110
0000
,  // measure 5
0000
1001
0000
1001
,  // measure 6
0000
0110
0000
0110
,  // measure 7
0220
0000
0330
0000
,  // measure 8
1000
0000
0001
0000
,  // measure 9
0100
0000
1000
0000
,  // measure 10
0001
0000
0100
0000
,  // measure 11
0010
0000
0001
0000
,  // measure 12
1000
0000
0100
0000
,  // measure 13
1000
0000
0010
0000
,  // measure 14
0100
0000
0001
0000
,  // measure 15
1000
0000
0010
0000
,  // measure 16
0100
0000
0001
0000
,  // measure 17
1001
0010
0000
0000
0000
0000
0000
0000
0000
0000
0000
0000
0000
0000
0000
0000
0000
0000
0000
0000
0000
0000
0000
0000
0000
0000
0000
0000
0000
0000
0000
0000
0000
0000
0000
0000
0000
0000
0000
0000
0000
0000
0000
0000
0000
0000
0000
0000
0000
0000
0000
0000
0000
0000
0000
0000
0000
0000
0000
0000
0000
0000
0000
0000
0000
0000
0000
0000
0000
0000
0000
0000
0000
0000
0000
0000
0000
0000
0000
0000
0000
0000
0000
0000
0000
0000
0000
0000
0000
0000
0000
0000
0000
0000
0000
0000
0000
0000
0000
0000
0000
0000
0000
0000
0000
0000
0000
0000
0000
0000
0000
0000
0000
0000
0000
0000
0000
0000
0000
0000
0000
0000
0000
0000
0000
0000
0000
0000
0000
0000
0000
0000
0000
0000
0000
0000
0000
0000
0000
0000
0000
0000
0000
0000
0000
0000
0000
0000
0000
0000
0000
0000
0000
0000
0000
0000
0000
0000
0000
0000
0000
0000
0000
0000
0000
0000
0000
0000
0000
0000
0000
0000
0000
0000
0000
0000
0000
0000
0000
0000
0000
0000
0000
0000
0000
0000
0000
0000
0000
0000
0000
0000
,  // measure 18
0100
0100
0100
0000
,  // measure 19
0100
0100
0100
0000
,  // measure 20
0010
0010
0010
0000
,  // measure 21
0010
0010
0010
0000
,  // measure 22
1000
1000
1000
0000
,  // measure 23
0001
0001
0001
0000
,  // measure 24
0010
0010
0010
0000
,  // measure 25
0001
0001
0001
0000
,  // measure 26
0100
0100
0100
0000
,  // measure 27
0100
0100
0100
0000
,  // measure 28
0001
0001
0001
0000
,  // measure 29
1000
1000
1000
0000
,  // measure 30
0010
0010
0010
0000
,  // measure 31
0010
0010
0010
0000
,  // measure 32
1000
1000
1000
0000
,  // measure 33
0001
0001
1001
0000
,  // measure 34
1000
1000
1000
0000
,  // measure 35
1000
1000
1000
0000
,  // measure 36
0100
0100
0100
0000
,  // measure 37
0100
0100
0100
0000
,  // measure 38
0010
0010
0010
0000
,  // measure 39
0010
0010
0010
0000
,  // measure 40
0001
0001
0001
0000
,  // measure 41
0001
0001
0001
0000
,  // measure 42
0100
0100
0100
0000
,  // measure 43
0100
0100
0100
0000
,  // measure 44
0001
0001
0001
0000
,  // measure 45
1000
1000
1000
0000
,  // measure 46
0100
0100
0100
0000
,  // measure 47
0010
0010
0010
0000
,  // measure 48
1000
1000
1000
0000
,  // measure 49
0001
0001
1001
0000
;

//---------------dance-single - ---------------
#NOTES:
     dance-single:
     :
     Easy:
     8:
     0,0,0,0,0:
// measure 0
0000
0000
0000
0000
,  // measure 1
2000
0000
3001
1000
,  // measure 2
0002
0003
1001
0100
,  // measure 3
0020
0030
0100
0100
,  // measure 4
0001
0100
0010
1000
,  // measure 5
0000
1010
0000
1010
,  // measure 6
0000
0101
0000
0101
,  // measure 7
2002
3003
1000
0001
,  // measure 8
0100
0001
0010
0100
,  // measure 9
1000
1000
0010
0010
,  // measure 10
0001
0001
0010
0010
,  // measure 11
1000
1000
0100
0100
,  // measure 12
0001
0001
0100
0100
,  // measure 13
1000
1000
0010
0010
,  // measure 14
0100
0100
0001
0001
,  // measure 15
0010
0010
0100
0100
,  // measure 16
1000
1000
0010
0010
,  // measure 17
0110
0002
0000
0000
0000
0000
0000
0000
0000
0000
0000
0000
0000
0000
0000
0000
0000
0000
0000
0000
0000
0000
0000
0000
0000
0000
0000
0000
0000
0000
0000
0000
0000
0000
0000
0000
0000
0000
0000
0000
0000
0000
0000
0000
0000
0000
0000
0000
0000
0000
0000
0000
0000
0000
0000
0000
0000
0000
0000
0000
0000
0000
0000
0000
0000
0000
0000
0000
0000
0000
0000
0000
0000
0000
0000
0000
0000
0000
0000
0000
0000
0000
0000
0000
0000
0000
0000
0000
0000
0000
0000
0000
0000
0000
0000
0000
0000
0000
0000
0000
0000
0000
0000
0000
0000
0000
0000
0000
0000
0000
0000
0000
0000
0000
0000
0000
0000
0000
0000
0000
0000
0000
0000
0000
0000
0000
0000
0000
0000
0000
0000
0000
0000
0000
0000
0000
0000
0000
0000
0000
0000
0000
0000
0000
0000
0000
0000
0000
0000
0000
0000
0000
0000
0000
0000
0000
0000
0000
0000
0000
0000
0000
0000
0000
0000
0000
0000
0000
0000
0000
0000
0000
0000
0000
0000
0000
0000
0000
0000
0000
0000
0000
0000
0000
0000
0000
0000
0000
0000
0000
0000
0000
,  // measure 18
1003
1000
1000
1010
,  // measure 19
0100
0100
0100
0101
,  // measure 20
0010
0010
0010
0110
,  // measure 21
1000
1000
1000
1010
,  // measure 22
0100
1100
0100
0101
,  // measure 23
0010
0110
0010
0011
,  // measure 24
0001
0100
0010
1000
,  // measure 25
0100
0010
0001
0100
,  // measure 26
0010
1010
0010
1010
,  // measure 27
0100
0101
0100
0101
,  // measure 28
0001
0011
0001
0011
,  // measure 29
0010
0110
0010
0110
,  // measure 30
1000
0100
0001
0010
,  // measure 31
0010
0001
0100
1000
,  // measure 32
0010
0010
0100
0100
,  // measure 33
0001
0000
0000
0000
0000
0000
0000
0000
0000
0000
0000
0000
0000
0000
0000
0000
0000
0000
0000
0000
0000
0000
0000
0000
0000
0000
0000
0000
0000
0000
0000
0000
0000
0000
0000
0000
0000
0000
0000
0000
0000
0000
0000
0000
0000
0000
0000
0000
1000
0000
0000
0000
0000
0000
0000
0000
0000
0000
0000
0000
0000
0000
0000
0000
0000
0000
0000
0000
0000
0000
0000
0000
0000
0000
0000
0000
0000
0000
0000
0000
0000
0000
0000
0000
0000
0000
0000
0000
0000
0000
0000
0000
0000
0000
0000
0000
1001
0100
0000
0000
0000
0000
0000
0000
0000
0000
0000
0000
0000
0000
0000
0000
0000
0000
0000
0000
0000
0000
0000
0000
0000
0000
0000
0000
0000
0000
0000
0000
0000
0000
0000
0000
0000
0000
0000
0000
0000
0000
0000
0000
0000
0000
0000
0000
0000
0000
0000
0000
0000
0000
0000
0000
0000
0000
0000
0000
0000
0000
0000
0000
0000
0000
0000
0000
0000
0000
0000
0000
0000
0000
0000
0000
0000
0000
0000
0000
0000
0000
0000
0000
0000
0000
0000
0000
0000
0000
0000
0000
0000
0000
0000
0000
,  // measure 34
0010
0010
0010
0011
,  // measure 35
0001
0001
0001
0101
,  // measure 36
0100
0100
0100
0110
,  // measure 37
0010
0010
0010
1010
,  // measure 38
1000
0100
0001
0101
,  // measure 39
0001
0100
1000
1100
,  // measure 40
1000
0010
0100
0110
,  // measure 41
0100
0010
1000
1010
,  // measure 42
1000
1010
1000
1010
,  // measure 43
0100
0110
0100
0110
,  // measure 44
1000
1001
0001
1001
,  // measure 45
1000
1010
0100
0101
,  // measure 46
0010
0110
0100
1100
,  // measure 47
1000
1010
0010
0110
,  // measure 48
0100
0101
0010
0110
,  // measure 49
1000
0001
1001
0000
;

//---------------dance-single - ---------------
#NOTES:
     dance-single:
     :
     Medium:
     13:
     0,0,0,0,0:
// measure 0
0000
0000
0000
2000
,  // measure 1
3002
0000
0000
0000
0000
0000
1003
0000
1000
0100
0000
0100
,  // measure 2
0001
0100
2000
3000
1010
0000
0100
0010
,  // measure 3
0200
0000
0302
0000
0103
0010
0100
0020
,  // measure 4
0000
2030
0000
3200
0000
0320
0000
0130
,  // measure 5
2000
0000
0000
3100
0000
0000
0010
0000
0010
0002
0000
0000
,  // measure 6
1003
0000
1000
0020
0000
0000
0130
0000
0100
0002
0000
0000
,  // measure 7
2000
0000
0000
3003
1000
0001
0100
0020
,  // measure 8
0000
2030
0000
3001
0100
0020
0000
0000
,  // measure 9
2030
0000
3001
0100
0020
0000
1030
0100
,  // measure 10
0020
0000
0000
0000
0031
0000
0100
0000
0020
0000
0000
2000
0000
0000
3030
0000
,  // measure 11
0200
0000
0310
0001
0200
0000
0310
1000
,  // measure 12
0200
0000
0000
0000
0310
0000
0001
2000
0000
0020
0000
0000
0000
0000
3030
0000
,  // measure 13
2000
0000
3001
0100
0020
0000
1030
0001
,  // measure 14
0020
0000
0000
0000
0130
0000
1000
0002
0000
2000
0000
0000
0000
0000
3003
0000
,  // measure 15
0020
0000
1030
0001
0020
0000
0031
1000
,  // measure 16
0200
0000
0000
0000
1300
0000
0001
0020
0000
0200
0000
0000
0000
0000
0330
0000
,  // measure 17
1001
0220
0000
0000
0000
0000
0000
0000
0000
0000
0000
0000
0000
0000
0000
0000
0000
0000
0000
0000
0000
0000
0000
0000
0000
0000
0000
0000
0000
0000
0000
0000
0000
0000
0000
0000
0000
0000
0000
0000
0000
0000
0000
0000
0000
0000
0000
0000
0030
0000
0000
0000
0000
0000
0000
0000
0000
0000
0000
0000
0000
0000
0000
0000
0000
0000
0000
0000
0000
0000
0000
0000
0000
0000
0000
0000
0000
0000
0000
0000
0000
0000
0000
0000
0000
0000
0000
0000
0000
0000
0000
0000
0000
0000
0000
0000
0002
0000
0000
0000
0000
0000
0000
0000
0000
0000
0000
0000
0000
0000
0000
0000
0000
0000
0000
0000
0000
0000
0000
0000
0000
0000
0000
0000
0000
0000
0000
0000
0000
0000
0000
0000
0000
0000
0000
0000
0000
0000
0000
0000
0000
0000
0000
0000
0300
0000
0000
0000
0000
0000
0000
0000
0000
0000
0000
0000
0000
0000
0000
0000
0000
0000
0000
0000
0000
0000
0000
0000
0000
0000
0000
0000
0000
0000
0000
0000
0000
0000
0000
0000
0000
0000
0000
0000
0000
0000
0000
0000
0000
0000
0000
0000
,  // measure 18
1003
0000
1000
0000
1000
0100
0010
0000
,  // measure 19
0001
0000
0001
0000
0001
0100
0010
0000
,  // measure 20
1000
0000
1000
0000
1000
0001
0100
0000
,  // measure 21
0010
0000
0010
0000
0010
1000
0001
0000
,  // measure 22
0100
0001
0010
0000
0010
0001
0100
0000
,  // measure 23
0100
0010
1000
0000
1000
0010
0200
0000
,  // measure 24
0001
0010
1000
0010
,  // measure 25
0301
1000
1001
0100
,  // measure 26
0010
0001
0020
0030
0010
0001
0020
0030
,  // measure 27
0100
1000
0200
0300
0100
1000
0200
0300
,  // measure 28
0100
1000
0020
0030
0010
1000
0200
0300
,  // measure 29
0001
0100
2000
3000
1000
0010
0200
0300
,  // measure 30
0101
0011
0110
1100
,  // measure 31
1010
0000
0110
0000
0101
0000
0011
0100
,  // measure 32
2000
3020
0230
0302
,  // measure 33
1003
0000
0000
0000
0000
0000
0000
0000
0000
0000
0000
0000
0000
0000
0000
0000
0000
0000
0000
0000
0000
0000
0000
0000
0010
0000
0000
0000
0000
0000
0000
0000
0000
0000
0000
0000
0000
0000
0000
0000
0000
0000
0000
0000
0000
0000
0000
0000
0100
0000
0000
0000
0000
0000
0000
0000
0000
0000
0000
0000
0000
0000
0000
0000
0000
0000
0000
0000
0000
0000
0000
0000
0001
0000
0000
0000
0000
0000
0000
0000
0000
0000
0000
0000
0000
0000
0000
0000
0000
0000
0000
0000
0000
0000
0000
0000
0011
0200
0000
0000
0000
0000
0000
0000
0000
0000
0000
0000
0000
0000
0000
0000
0000
0000
0000
0000
0000
0000
0000
0000
0000
0000
0000
0000
0000
0000
0000
0000
0000
0000
0000
0000
0000
0000
0000
0000
0000
0000
0000
0000
0000
0000
0000
0000
0300
0000
0000
0000
0000
0000
0000
0000
0000
0000
0000
0000
0000
0000
0000
0000
0000
0000
0000
0000
0000
0000
0000
0000
0000
0000
0000
0000
0000
0000
0000
0000
0000
0000
0000
0000
0000
0000
0000
0000
0000
0000
0000
0000
0000
0000
0000
0000
,  // measure 34
1000
0010
0100
0001
0010
0000
0110
0000
,  // measure 35
0100
1000
0010
0100
0001
0000
0110
0000
,  // measure 36
1000
0010
0100
0000
0100
0001
0010
0000
,  // measure 37
0010
0001
0100
0010
1000
0000
1010
0000
,  // measure 38
1000
0010
0100
0000
0100
0010
1000
0000
,  // measure 39
1000
0001
0010
0000
0010
0100
1000
0000
,  // measure 40
1000
0010
0100
0010
1000
0100
0010
0000
,  // measure 41
0010
0001
0010
0001
2000
0000
3010
0000
,  // measure 42
1010
0010
0110
0000
0110
0100
0101
0000
,  // measure 43
0101
0001
0011
0000
0011
0010
0110
0000
,  // measure 44
0110
0100
1100
0000
1100
1000
1010
0000
,  // measure 45
1010
0010
0011
0000
0011
0010
1010
0000
,  // measure 46
1010
1000
0100
0000
0011
0001
0100
0000
,  // measure 47
0101
0100
0010
0000
0110
0010
1000
0000
,  // measure 48
1010
1000
1000
0000
1100
1000
1000
0000
,  // measure 49
1000
0010
0100
0001
2002
0000
3003
0000
;

//---------------dance-single - ---------------
#NOTES:
     dance-single:
     :
     Hard:
     16:
     0,0,0,0,0:
// measure 0
0000
0000
0000
2000
,  // measure 1
3020
0000
0000
0000
0000
0000
1030
0001
0100
0010
0100
0010
,  // measure 2
2000
3020
0230
0300
0101
0000
0002
0023
,  // measure 3
0230
0000
0000
0000
2300
3020
0230
0302
,  // measure 4
0000
0023
0000
0032
0000
2003
0000
3020
,  // measure 5
0230
0000
0000
0300
0000
0000
0202
0000
0303
0000
0000
0000
0001
0000
1000
0000
0010
0000
2020
0000
3030
0000
0000
0000
,  // measure 6
0100
0100
0100
0202
0303
0000
0002
0000
0000
0023
0000
0000
,  // measure 7
0230
0000
0000
0000
0000
0000
0000
0000
0301
0100
1000
0010
0100
0001
0020
0000
,  // measure 8
0000
0230
0000
0302
0103
2000
0000
0000
,  // measure 9
3020
0000
0000
0000
0000
0000
0000
0000
1030
0000
0000
0001
0000
0000
0100
0000
0020
0000
0000
0000
0000
0000
0000
0000
1030
0000
0001
0000
0000
0010
0000
0000
,  // measure 10
0200
0000
0000
0000
0000
0000
0000
0000
1300
0000
0000
0010
0000
0000
0100
0000
0002
0000
0000
0000
0000
0000
2000
0000
0000
0000
0000
0000
3003
0000
0000
0000
,  // measure 11
0200
0000
0000
0000
0000
0000
0000
0000
1300
0000
0000
0010
0000
0000
0100
0000
0002
0000
0000
0000
0000
0000
0000
0000
0013
0000
0000
0100
0000
0000
1000
0000
,  // measure 12
0020
0000
0000
0000
0000
0000
0000
0000
0130
0000
0000
0001
0000
0000
0020
0000
0000
0000
0200
0000
0000
0000
0000
0000
0000
0000
0000
0000
0330
0000
0000
0000
,  // measure 13
2000
0000
0000
0000
0000
0000
0000
0000
3010
0000
0000
0100
0000
0000
0001
0000
0020
0000
0000
0000
0000
0000
0000
0000
0130
0000
0000
1000
0000
0000
0010
0000
,  // measure 14
0200
0000
0000
0000
0000
0000
0000
0000
0301
0000
0000
1000
0000
0000
0020
0000
0000
0000
0200
0000
0000
0000
0000
0000
0000
0000
0000
0000
0330
0000
0000
0000
,  // measure 15
0002
0000
0000
0000
0000
0000
0000
0000
0013
0000
0000
0100
0000
0000
1000
0000
0020
0000
0000
0000
0000
0000
0000
0000
0130
0000
0000
0001
0000
0000
0010
0000
,  // measure 16
2000
0000
0000
0000
0000
0000
0000
0000
3010
0000
0000
0001
0000
0000
2000
0000
0000
0000
0020
0000
0000
0000
0000
0000
0000
0000
0000
0000
3030
0000
0000
0000
,  // measure 17
0101
0020
0000
0000
0000
0000
0000
0000
0000
0000
0000
0000
0000
0000
0000
0000
0000
0000
0000
0000
0000
0000
0000
0000
0000
0000
0000
0000
0000
0000
0000
0000
0000
0000
0000
0000
0000
0000
0000
0000
0000
0000
0000
0000
0000
0000
0000
0000
0000
0000
0000
0000
0000
0000
0000
0000
0000
0000
0000
0000
0000
0000
0000
0000
0000
0000
0000
0000
0000
0000
0000
0000
0230
0000
0000
0000
0000
0000
0000
0000
0000
0000
0000
0000
0000
0000
0000
0000
0000
0000
0000
0000
0000
0000
0000
0000
0000
0000
0000
0000
0000
0000
0000
0000
0000
0000
0000
0000
0000
0000
0000
0000
0000
0000
0000
0000
0000
0000
0000
0000
0000
0000
0000
0000
0000
0000
0000
0000
0000
0000
0000
0000
0000
0000
0000
0000
0000
0000
0000
0000
0000
0000
0000
0000
2300
0000
0000
0000
0000
0000
0000
0000
0000
0000
0000
0000
0000
0000
0000
0000
0000
0000
0000
0000
0000
0000
0000
0000
0000
0000
0000
0000
0000
0000
0000
0000
0000
0000
0000
0000
0000
0000
0000
0000
0000
0000
0000
0000
0000
0000
0000
0000
,  // measure 18
3002
0000
0013
0000
0002
0000
0013
0000
0001
0010
0100
1000
0020
0000
0230
0000
,  // measure 19
0301
0020
0130
2000
3010
0200
0301
0020
,  // measure 20
0130
0000
2000
0000
3010
0000
0200
0000
0301
0100
0010
1000
0200
0000
0320
0000
,  // measure 21
0031
0200
0310
2000
3100
0020
0031
2000
,  // measure 22
3010
0000
1000
0000
1100
0000
1000
0000
0010
1000
0100
0010
0011
0000
0010
0000
,  // measure 23
0001
0100
0110
0010
1000
0100
0110
0010
,  // measure 24
0001
0000
0100
0000
1100
0000
0100
0000
0001
1000
0010
0100
0110
0000
0200
0000
,  // measure 25
0301
0000
0020
0000
0130
0000
0100
0000
2001
0000
3000
0020
0000
0000
0230
0000
,  // measure 26
0301
0000
0001
0100
0001
0000
0100
0010
0100
0000
0010
1000
0010
0000
1000
0001
,  // measure 27
1000
0000
0100
0010
0100
0000
1000
0010
1000
0000
0001
0010
0001
0000
0100
0010
,  // measure 28
0200
0000
0301
0010
0002
0000
1003
0010
2000
0000
3100
0010
0200
0000
1300
0010
,  // measure 29
0200
0000
0301
0010
0200
0000
1300
0010
0200
0000
0301
0010
2000
0000
3010
0001
,  // measure 30
0200
0001
0302
1000
2003
0010
3010
0200
,  // measure 31
0001
0302
0010
0023
0100
0230
1000
2300
,  // measure 32
3020
0100
0100
0001
0001
0100
0100
1000
,  // measure 33
2030
0000
0000
0000
0000
0000
0000
0000
0000
0000
0000
0000
3000
0000
0000
0000
0000
0000
0000
0000
0000
0000
0000
0000
0020
0000
0000
0000
0000
0000
0000
0000
0000
0000
0000
0000
0030
0000
0000
0000
0000
0000
0000
0000
0000
0000
0000
0000
0200
0000
0000
0000
0000
0000
0000
0000
0000
0000
0000
0000
0300
0000
0000
0000
0000
0000
0000
0000
0000
0000
0000
0000
0002
0000
0000
0000
0000
0000
0000
0000
0000
0000
0000
0000
0003
0000
0000
0000
0000
0000
0000
0000
0000
0000
0000
0000
0012
0103
0000
0000
0000
0000
0000
0000
0000
0000
0000
0000
0000
0000
0000
0000
0000
0000
0000
0000
0000
0000
0000
0000
0000
0000
0000
0000
0000
0000
0000
0000
0000
0000
0000
0000
0000
0000
0000
0000
0000
0000
0000
0000
0000
0000
0000
0000
0100
0000
0000
0000
0000
0000
0000
0000
0000
0000
0000
0000
0000
0000
0000
0000
0000
0000
0000
0000
0000
0000
0000
0000
0000
0000
0000
0000
0000
0000
0000
0000
0000
0000
0000
0000
0000
0000
0000
0000
0000
0000
0000
0000
0000
0000
0000
0000
,  // measure 34
0010
1000
0001
0100
0010
0000
1010
0000
0010
1000
0100
0010
0001
0000
0011
0000
,  // measure 35
0010
0001
0100
0010
1000
0000
1010
0000
1000
0001
0010
0100
1000
0000
1100
0000
,  // measure 36
1000
0010
0100
0001
0010
0000
0011
0000
0010
0001
0100
0010
1000
0000
1100
0000
,  // measure 37
0100
1000
0010
0100
0001
0000
0011
0000
0020
0030
0010
0002
0003
0001
2000
0000
,  // measure 38
3010
1000
0100
0010
0001
0000
0011
0000
0010
0001
0100
1000
0100
0000
0101
0000
,  // measure 39
0100
0001
0010
0100
0010
0000
0011
0000
0010
0100
1000
0010
0100
0000
0101
0000
,  // measure 40
0001
0010
0100
1000
0001
0000
1001
0000
1000
0010
0100
1000
0100
0000
0101
0000
,  // measure 41
0002
0000
0023
0000
2030
0000
3020
0000
0032
0000
0000
2003
0000
0000
3200
0000
,  // measure 42
0310
0001
0100
0010
1000
0001
0100
0010
1000
0100
0010
0001
0200
0310
0001
0010
,  // measure 43
0100
0001
0010
0100
1000
0010
0100
0001
0010
0001
0100
0010
2000
3100
0010
0001
,  // measure 44
0100
0010
1000
0010
0100
0001
0010
0001
0100
0010
1000
0010
0200
0301
0010
0100
,  // measure 45
1000
0010
0100
0001
0100
0010
1000
0010
0200
0000
0302
0000
0023
0000
0230
0000
,  // measure 46
2300
0000
3010
1000
0020
0000
0130
0010
0200
0000
0301
0100
0020
0000
1030
0001
,  // measure 47
0200
0000
0301
1000
0020
0000
1030
0100
0020
0000
0031
1000
0200
0000
0310
0001
,  // measure 48
2000
0000
3010
0100
0002
0000
0013
0100
2000
0000
3010
0100
2000
3000
1000
0100
,  // measure 49
0002
0000
0000
0000
0023
0000
0000
0000
2030
0000
0000
0000
3200
0000
0000
0300
0202
0000
0000
0000
0000
0000
0000
0000
0303
0000
0000
0000
0000
0000
0000
0000
;
