#TITLE:Stay My Side;
#SUBTITLE:;
#ARTIST:DJ YOSHITAKA feat. RINA;
#MUSIC:Stay My Side.ogg;
#BANNER:Stay My Side.png;
#BACKGROUND:Stay My Side-bg.png;
#LYRICSPATH:;
#CDTITLE:;
#SAMPLESTART:59.45;
#SAMPLELENGTH:19.200000000000003;
#OFFSET:-0.053;
#BPMS:0.000000=100.000000;
#STOPS:;
#TIMESIGNATURES:0.000000=4=4;
#BGCHANGES:;
#FGCHANGES:;
#ATTACKS:;
#SPEEDS:0.000000=1.000000=0.000000=0;
#SCROLLS:0.000000=1.000000;
#KEYSOUNDS:;

//---------------dance-single - ---------------
#NOTES:
     dance-single:
     :
     Beginner:
     3:
     0,0,0,0,0:
// measure 0
0000
0000
0000
0000
,  // measure 1
1001
0000
1000
0000
,  // measure 2
0001
0001
0001
0000
,  // measure 3
0011
0000
0001
0000
,  // measure 4
0010
0010
0010
0000
,  // measure 5
0110
0000
0010
0000
,  // measure 6
0100
0100
0100
0000
,  // measure 7
1100
0000
0100
0000
,  // measure 8
1000
1000
1000
0000
,  // measure 9
1001
0000
0001
0000
,  // measure 10
1000
1000
1000
0000
,  // measure 11
0010
0000
0100
0000
,  // measure 12
0001
0001
0001
0000
,  // measure 13
1001
0000
0001
0000
,  // measure 14
0010
0010
0010
0000
,  // measure 15
0100
0000
1000
0000
,  // measure 16
0010
0010
0010
0000
,  // measure 17
0110
0000
0100
0000
,  // measure 18
0001
0001
0001
0000
,  // measure 19
0001
0000
0010
0000
,  // measure 20
0100
0100
0100
0000
,  // measure 21
1100
0000
0100
0000
,  // measure 22
1000
1000
1000
0000
,  // measure 23
1000
0000
0010
0000
,  // measure 24
0100
0100
0100
0000
,  // measure 25
1001
0000
1000
0000
,  // measure 26
0010
0010
0010
0000
,  // measure 27
0100
0000
0001
0000
,  // measure 28
0010
0010
0010
0000
,  // measure 29
0110
0000
0010
0000
,  // measure 30
0001
0001
0001
0000
,  // measure 31
0100
0000
0010
0000
,  // measure 32
1000
1000
1000
0000
,  // measure 33
1001
0000
1000
0000
,  // measure 34
0010
0010
0010
0000
,  // measure 35
0100
0000
0001
0000
,  // measure 36
1000
1000
1000
0000
,  // measure 37
1010
0000
0010
0000
,  // measure 38
0100
0100
0100
0000
,  // measure 39
0001
0000
1000
0000
,  // measure 40
0100
0100
0100
0100
;

//---------------dance-single - ---------------
#NOTES:
     dance-single:
     :
     Easy:
     7:
     0,0,0,0,0:
// measure 0
0000
0000
0000
0000
,  // measure 1
1001
1000
0010
0100
,  // measure 2
0001
0010
0100
0010
,  // measure 3
0001
0100
0010
1000
,  // measure 4
0100
0010
0001
0010
,  // measure 5
0110
0100
1000
0001
,  // measure 6
0100
0010
1000
0010
,  // measure 7
0100
0001
1000
0100
,  // measure 8
0010
0001
0100
0010
,  // measure 9
1010
0010
0100
0001
,  // measure 10
1000
0100
0010
0001
,  // measure 11
0100
0010
1000
0001
,  // measure 12
0010
0100
1000
0001
,  // measure 13
1001
1000
0100
0010
,  // measure 14
1000
0010
0100
1000
,  // measure 15
0010
0001
0010
0100
,  // measure 16
0001
0010
0100
0010
,  // measure 17
0011
0001
0100
0010
,  // measure 18
1000
0001
0010
1000
,  // measure 19
0010
0001
0100
1000
,  // measure 20
0100
0010
1000
0001
,  // measure 21
1001
0001
0100
0010
,  // measure 22
1000
0001
0010
0100
,  // measure 23
1000
0001
0100
0010
,  // measure 24
1000
0001
0010
0100
,  // measure 25
0110
0010
0001
0100
,  // measure 26
0010
1000
0001
0010
,  // measure 27
0100
1000
0010
0001
,  // measure 28
0010
1000
0100
0010
,  // measure 29
0011
0010
0100
1000
,  // measure 30
0001
0100
1000
0100
,  // measure 31
0010
1000
0001
0010
,  // measure 32
1000
0010
0100
1000
,  // measure 33
1001
0001
0100
0010
,  // measure 34
1000
0001
0010
0100
,  // measure 35
1000
0010
0001
0010
,  // measure 36
1000
0100
0001
0100
,  // measure 37
1001
1000
0010
0100
,  // measure 38
0001
0010
0100
0010
,  // measure 39
0001
0100
0010
1000
,  // measure 40
0001
0010
1000
0010
;

//---------------dance-single - ---------------
#NOTES:
     dance-single:
     :
     Medium:
     10:
     0,0,0,0,0:
// measure 0
0000
0000
0000
0000
,  // measure 1
1001
0000
1000
0010
0000
0010
0100
0001
,  // measure 2
0010
0000
0100
0010
0000
0010
0001
0100
,  // measure 3
0010
0000
1000
0010
0000
0100
0001
1000
,  // measure 4
0100
0000
0010
0100
0000
0100
1000
0010
,  // measure 5
0110
0000
0100
0001
0000
0001
0010
0100
,  // measure 6
1000
0000
1000
0010
0000
0010
0100
1000
,  // measure 7
0100
0000
0100
0001
0000
0001
0010
0100
,  // measure 8
1000
0000
1000
0010
0000
0010
0100
0001
,  // measure 9
0011
0010
0100
1000
0000
1000
0001
0100
,  // measure 10
0010
0000
1000
0010
0000
0100
0001
0010
,  // measure 11
0100
1000
0010
0100
0000
0100
1000
0100
,  // measure 12
0001
0010
0100
1000
0000
1000
0010
0100
,  // measure 13
0110
0010
1000
0001
0000
0001
0010
0100
,  // measure 14
1000
0010
0001
0010
0000
0010
1000
0001
,  // measure 15
0010
0100
1000
0001
0000
0001
0100
0010
,  // measure 16
0100
0001
1000
0100
0000
0100
0010
0001
,  // measure 17
2000
0000
0100
0100
0000
0001
3001
0000
,  // measure 18
0002
0000
0100
0100
0000
1000
1003
0000
,  // measure 19
2000
0000
0010
0010
0000
0001
3001
0000
,  // measure 20
0002
0000
0010
0010
0000
1000
1003
0000
,  // measure 21
1200
0000
0010
0010
0000
1000
1300
0000
,  // measure 22
0021
0000
0100
0100
0000
0001
0031
0000
,  // measure 23
2001
0000
0100
0100
0000
0010
3010
0000
,  // measure 24
1000
0010
0100
0001
0010
0100
1000
0000
,  // measure 25
1001
0000
1000
0010
0000
0010
0100
0001
,  // measure 26
1000
0000
1000
0100
0000
0100
0010
0001
,  // measure 27
1000
0000
1000
0010
0000
0010
0100
1000
,  // measure 28
0100
0000
0100
0001
0000
0001
0010
0100
,  // measure 29
1100
1000
0010
0100
0000
0100
1000
0100
,  // measure 30
0010
1000
0001
0010
0000
0010
0100
1000
,  // measure 31
0001
0100
0010
1000
0000
1000
0001
0010
,  // measure 32
1000
0010
0100
1000
0000
1000
0001
0100
,  // measure 33
0110
0010
1000
0001
0000
0001
0010
0100
,  // measure 34
1000
0010
0100
0010
0000
0010
1000
0001
,  // measure 35
0010
0100
1000
0001
0000
0001
0100
0010
,  // measure 36
1000
0001
0010
0001
0000
0001
0100
0010
,  // measure 37
1010
0010
0100
0001
0000
0001
0010
1000
,  // measure 38
0010
0100
1000
0010
0000
0010
0100
1000
,  // measure 39
0100
0001
0010
0100
0000
0100
1000
0001
,  // measure 40
0100
0010
1000
0010
0000
0010
0100
0001
;

//---------------dance-single - ---------------
#NOTES:
     dance-single:
     :
     Hard:
     14:
     0,0,0,0,0:
// measure 0
0000
0000
0000
0000
,  // measure 1
1001
0000
0001
1000
0010
0000
1010
0000
0000
0000
1000
0000
0100
0000
0010
0000
,  // measure 2
0011
0000
0001
0100
0010
0000
0110
0000
0000
0000
0010
0000
0100
0000
0001
0000
,  // measure 3
1001
0000
1000
0100
0010
0000
0011
0000
0000
0000
0010
0000
0100
0000
1000
0000
,  // measure 4
1010
0000
0010
0100
1000
0000
0100
0000
0000
0000
0001
0000
0010
0000
0100
0000
,  // measure 5
0110
0000
0001
0010
0100
0000
1100
0000
0000
0000
0100
0000
1000
0000
0001
0000
,  // measure 6
0101
0000
0100
0001
0010
0000
0011
0000
0000
0000
0010
0000
0001
0000
0100
0000
,  // measure 7
0110
0000
0100
0010
1000
0000
1010
0000
0000
0000
1000
0000
0010
0000
0100
0000
,  // measure 8
1100
0000
0100
0001
1000
0000
1001
0000
1000
0001
0010
0000
0110
0000
0010
0000
,  // measure 9
0011
0000
0001
0100
1000
0000
0101
0000
1000
0000
0100
0000
0011
0000
0001
0000
,  // measure 10
0011
0000
0010
0100
1000
0000
1001
0000
0001
0000
0100
0000
1010
0000
1000
0000
,  // measure 11
1001
0000
1000
0001
0010
0000
0110
0000
0100
0000
1000
0000
0011
0000
0010
0000
,  // measure 12
0110
0000
0100
1000
0010
0000
0110
0000
0100
0000
0001
0000
1010
0000
0010
0000
,  // measure 13
0110
0000
0010
0100
0001
0000
0011
0000
0001
0000
0010
0000
1100
0000
0100
0000
,  // measure 14
1001
0000
0001
0010
1000
0000
1010
0000
0010
0000
0100
0000
0011
0000
0001
0000
,  // measure 15
0101
0000
0001
0100
0010
0000
0011
0000
0010
0000
0100
0000
1010
0000
0010
0000
,  // measure 16
0110
0000
0100
0001
1000
0000
1100
0000
0100
1000
0010
0000
0101
0000
0001
0000
,  // measure 17
1001
0001
0010
0000
0120
0000
0001
0000
1000
0000
0001
0000
0130
0000
1000
0000
,  // measure 18
1001
0000
0001
0100
0010
0000
1020
0000
0001
0000
0100
0000
1030
0000
0001
0000
,  // measure 19
0011
0000
0001
0010
0110
0000
2001
0000
0100
0000
0010
0000
3100
0000
0001
0000
,  // measure 20
0101
0000
0001
0100
0010
0000
1020
0000
0001
0000
0100
0000
1030
0000
0001
0000
,  // measure 21
0011
0000
0001
0010
0100
0000
1200
0000
0001
0000
1000
0000
0310
0000
0001
0000
,  // measure 22
1001
0000
0001
0100
0010
0000
1020
0000
0001
0000
0100
0000
1030
0000
0001
0000
,  // measure 23
0011
0000
0001
0010
0100
0000
1002
0000
0100
0000
0010
0000
1003
0000
0001
0000
,  // measure 24
1000
0000
1001
0000
0101
0000
0110
0000
1010
0010
0100
0001
2000
0000
3010
0000
,  // measure 25
0110
0000
0100
0010
2000
0000
3001
0000
0011
0000
0001
0010
0200
0000
1300
0000
,  // measure 26
1001
0000
0001
0100
0010
0000
1010
0000
1000
0100
0001
0100
2000
0000
3001
0000
,  // measure 27
0101
0000
0001
0100
0010
0000
1010
0000
0101
0000
1000
0100
0010
0000
0011
0000
,  // measure 28
1100
0000
0010
0100
0001
0000
1001
0000
1000
0100
0010
0000
0011
0000
1010
0000
,  // measure 29
1001
0000
0001
0100
0110
0000
1010
0000
1001
0000
0001
1000
1100
0000
0011
0000
,  // measure 30
0110
0000
0100
0010
0001
0000
0100
0010
1000
0000
0001
0000
0011
0000
0001
0000
,  // measure 31
0100
0000
0010
0100
0001
0000
1001
0000
0001
0010
0100
0000
1100
0000
0110
0000
,  // measure 32
0011
0000
0001
0100
0010
0000
1010
0000
0100
0001
1000
0000
1100
0000
0011
0000
,  // measure 33
1001
0000
0001
0100
0010
0000
1000
0000
0001
0100
0010
0000
1000
0000
0010
0000
,  // measure 34
0100
0000
0001
1000
0010
0000
1000
0000
0100
0010
0001
0000
0100
0000
0010
0000
,  // measure 35
1000
0000
0001
0010
0100
0000
0010
0000
0001
1000
0010
0000
0100
0000
1000
0000
,  // measure 36
0100
0000
0010
1000
0001
0000
0010
0000
0100
1000
0010
0000
0100
0000
0010
0000
,  // measure 37
1010
0000
1000
0100
0010
0000
0001
0000
0100
0010
1000
0000
0001
0000
0010
0000
,  // measure 38
0110
0000
0010
0001
1000
0000
0010
0000
0100
1000
0100
0000
0010
0000
1000
0000
,  // measure 39
0001
0000
0010
1000
0010
0000
0001
0000
0100
0010
1000
0000
0001
0000
0010
0000
,  // measure 40
0100
0000
1000
0001
0010
0000
0001
0000
0100
0000
0010
0000
1000
0000
0001
0000
;
