#VERSION:0.83;
#TITLE:Starmine;
#SUBTITLE:(pop'n mixxx);
#ARTIST:Ryu☆;
#TITLETRANSLIT:;
#SUBTITLETRANSLIT:;
#ARTISTTRANSLIT:;
#GENRE:;
#CREDIT:;
#ORIGIN:;
#MUSIC:Starmine (pop'n mixxx).ogg;
#BANNER:Starmine (pop'n mixxx).png;
#BACKGROUND:Starmine (pop'n mixxx)-bg.png;
#JACKET:Starmine (pop'n mixxx)-jacket.png;
#DISCIMAGE:;
#CDIMAGE:;
#SELECTABLE:YES;
#LYRICSPATH:;
#CDTITLE:;
#SAMPLESTART:25.158;
#SAMPLELENGTH:11.033999999999999;
#OFFSET:-0.33;
#BPMS:0.000000=174.000000;
#STOPS:;
#WARPS:;
#DELAYS:;
#SPEEDS:0.000000=1.000000=0.000000=0;
#SCROLLS:0.000000=1.000000,
32.000000=0.750000,
33.000000=0.650000,
34.000000=0.400000,
35.000000=0.200000,
68.000000=0.400000,
69.000000=0.650000,
70.000000=0.750000,
71.000000=1.000000,
200.000000=0.750000,
201.000000=0.650000,
202.000000=0.400000,
203.000000=0.200000,
232.000000=0.400000,
233.000000=0.650000,
234.000000=0.750000,
235.000000=1.000000,
296.000000=0.750000,
297.000000=0.650000,
298.000000=0.400000,
299.000000=0.200000,
301.000000=0.500000,
302.000000=0.750000,
303.000000=1.200000,
303.250000=2.200000,
303.500000=3.200000,
303.750000=4.200000,
303.916667=8.200000,
304.000000=1.000000
;
#TICKCOUNTS:;
#TIMESIGNATURES:0.000000=4=4;
#LABELS:;
#COMBOS:;
#FAKES:;
#BGCHANGES:;
#FGCHANGES:;
#ATTACKS:;
#KEYSOUNDS:;

//---------------dance-single - ---------------
#NOTEDATA:;
#CHARTNAME:;
#CHARTSTYLE:;
#CREDIT:;
#STEPSTYPE:dance-single;
#DESCRIPTION:;
#DIFFICULTY:Beginner;
#METER:4;
#METERF:4;
#RADARVALUES:0,0,0,0,0;
#NOTES:
// measure 0
0000
0000
0000
0000
,  // measure 1
1000
0000
1000
0000
,  // measure 2
0001
0000
0001
0000
,  // measure 3
0010
0000
0010
0000
,  // measure 4
0001
0000
0001
0000
,  // measure 5
0100
0000
0100
0000
,  // measure 6
0010
0000
0010
0000
,  // measure 7
1000
0000
1000
0000
,  // measure 8
0001
0000
0001
0000
,  // measure 9
0100
0000
0100
0000
,  // measure 10
0010
0000
0010
0000
,  // measure 11
1000
0000
1000
0000
,  // measure 12
0001
0000
0001
0000
,  // measure 13
0010
0000
0010
0000
,  // measure 14
0100
0000
0100
0000
,  // measure 15
1000
1000
1000
0000
,  // measure 16
0001
0001
0001
0000
,  // measure 17
2002
0000
0000
3003
,  // measure 18
1000
1000
1000
0000
,  // measure 19
0001
0001
0001
0000
,  // measure 20
0010
0010
0010
0000
,  // measure 21
0100
0100
0100
0000
,  // measure 22
1000
1000
1000
0000
,  // measure 23
0010
0010
0010
0000
,  // measure 24
0100
0100
0100
0000
,  // measure 25
0001
0001
0001
0000
,  // measure 26
1000
0000
0001
0000
,  // measure 27
0010
0000
0100
0000
,  // measure 28
1000
0000
0010
0000
,  // measure 29
0100
0000
1000
0000
,  // measure 30
0100
0000
0001
0000
,  // measure 31
1000
0000
0100
0000
,  // measure 32
0010
0000
0001
0000
,  // measure 33
0100
0000
0010
0000
,  // measure 34
1000
0000
0100
0000
,  // measure 35
0001
0000
0100
0000
,  // measure 36
1000
0000
0010
0000
,  // measure 37
0100
0000
1000
0000
,  // measure 38
0100
0000
0001
0000
,  // measure 39
0010
0000
0100
0000
,  // measure 40
0001
0000
0100
0000
,  // measure 41
0010
0000
0001
0000
,  // measure 42
2002
0000
0000
3003
,  // measure 43
1000
1000
1000
0000
,  // measure 44
0001
0001
0001
0000
,  // measure 45
0010
0010
0010
0000
,  // measure 46
0100
0100
0100
0000
,  // measure 47
1000
1000
1000
0000
,  // measure 48
0001
0001
0001
0000
,  // measure 49
1000
1000
1000
1000
,  // measure 50
0000
0001
0000
1000
,  // measure 51
2000
0000
3000
0000
,  // measure 52
0002
0000
0003
0000
,  // measure 53
0020
0000
0030
0000
,  // measure 54
0200
0000
0300
0000
,  // measure 55
2000
0000
3000
0000
,  // measure 56
0002
0000
0003
0000
,  // measure 57
0010
0010
0010
0000
,  // measure 58
0001
0001
0001
0001
,  // measure 59
0001
0000
1000
0000
,  // measure 60
0010
0000
0100
0000
,  // measure 61
1000
0000
0100
0000
,  // measure 62
0010
0000
1000
0000
,  // measure 63
0001
0000
0010
0000
,  // measure 64
0100
0000
0001
0000
,  // measure 65
0100
0000
1000
0000
,  // measure 66
0001
0000
0100
0000
,  // measure 67
1000
0000
0100
0000
,  // measure 68
0010
0000
1000
0000
,  // measure 69
0001
0000
0010
0000
,  // measure 70
0100
0000
1000
0000
,  // measure 71
0001
0000
0100
0000
,  // measure 72
1000
0000
0100
0000
,  // measure 73
0010
0000
1000
0000
,  // measure 74
0001
0000
0010
0000
,  // measure 75
0110
0000
0000
0000
;

//---------------dance-single - ---------------
#NOTEDATA:;
#CHARTNAME:;
#CHARTSTYLE:;
#CREDIT:;
#STEPSTYPE:dance-single;
#DESCRIPTION:;
#DIFFICULTY:Easy;
#METER:8;
#METERF:8;
#RADARVALUES:0,0,0,0,0;
#NOTES:
// measure 0
0000
0000
0000
0000
,  // measure 1
1000
0100
0010
0001
,  // measure 2
0100
0010
1000
0001
,  // measure 3
0010
0100
1000
0010
,  // measure 4
0100
1000
0100
0001
,  // measure 5
0010
0100
0001
0100
,  // measure 6
1000
0010
0100
0001
,  // measure 7
0010
0100
1000
0001
,  // measure 8
0100
0010
1000
0010
,  // measure 9
0200
0000
0302
0000
,  // measure 10
0023
0000
0230
0000
,  // measure 11
2300
0000
3002
0000
,  // measure 12
0203
0000
2300
0000
,  // measure 13
3200
0000
0320
0000
,  // measure 14
2030
0000
3002
0000
,  // measure 15
0013
0010
0100
0000
,  // measure 16
1000
0010
0100
0010
,  // measure 17
2020
0000
0000
3030
,  // measure 18
1010
1010
0101
0101
,  // measure 19
1010
0101
1010
0101
,  // measure 20
0011
0011
1100
1100
,  // measure 21
0011
1100
0011
1100
,  // measure 22
1001
1001
0110
0110
,  // measure 23
1001
0110
1001
0110
,  // measure 24
1001
0011
1001
1010
,  // measure 25
1001
0101
1001
1100
,  // measure 26
1000
0100
0010
0100
,  // measure 27
1000
0010
0100
0010
,  // measure 28
1000
0001
0010
0100
,  // measure 29
1000
0010
0100
0001
,  // measure 30
0010
1000
0010
0001
,  // measure 31
0100
1000
0100
0001
,  // measure 32
0010
0100
1000
0100
,  // measure 33
0010
0001
1000
0010
,  // measure 34
0100
0001
1000
0001
,  // measure 35
0100
0010
1000
0001
,  // measure 36
0010
0100
1000
0001
,  // measure 37
0100
1000
0100
0001
,  // measure 38
0010
1000
0010
0100
,  // measure 39
1000
0010
0100
1000
,  // measure 40
0100
0001
0010
0100
,  // measure 41
1000
0010
0100
0001
,  // measure 42
2002
0000
0000
3003
,  // measure 43
1000
0010
0100
0010
,  // measure 44
1000
0001
0010
0001
,  // measure 45
0100
0010
1000
0010
,  // measure 46
0100
0001
0010
0001
,  // measure 47
1000
0010
0100
0001
,  // measure 48
0010
0100
1000
0001
,  // measure 49
1000
0010
0100
0001
,  // measure 50
0000
1000
1000
1000
,  // measure 51
0002
0000
0023
0000
,  // measure 52
0230
0000
2300
0000
,  // measure 53
3002
0000
0203
0000
,  // measure 54
0320
0000
2030
0000
,  // measure 55
3002
0000
0023
0000
,  // measure 56
0230
0000
2300
0000
,  // measure 57
3001
0001
0001
0000
,  // measure 58
0100
0010
1000
0010
,  // measure 59
0100
0001
0010
1000
,  // measure 60
0010
0100
1000
0010
,  // measure 61
0100
1000
0100
0001
,  // measure 62
0010
0100
1000
0010
,  // measure 63
0001
0010
1000
0001
,  // measure 64
0010
0100
1000
0010
,  // measure 65
0100
0001
1000
0001
,  // measure 66
0100
0010
1000
0001
,  // measure 67
0010
0100
1000
0010
,  // measure 68
0001
0010
1000
0100
,  // measure 69
0010
0001
0100
1000
,  // measure 70
0100
0010
1000
0001
,  // measure 71
0010
0100
0001
0100
,  // measure 72
1000
0010
0001
0010
,  // measure 73
1010
1001
0011
0000
,  // measure 74
0011
1001
1010
0110
,  // measure 75
2002
0000
0000
0000
,  // measure 76
3003
0000
0000
0000
;

//---------------dance-single - ---------------
#NOTEDATA:;
#CHARTNAME:;
#CHARTSTYLE:;
#CREDIT:;
#STEPSTYPE:dance-single;
#DESCRIPTION:;
#DIFFICULTY:Medium;
#METER:13;
#METERF:13;
#RADARVALUES:0,0,0,0,0;
#NOTES:
// measure 0
0000
0000
0000
0000
,  // measure 1
1000
0000
0100
0000
0010
0001
0100
0000
,  // measure 2
0010
0000
0100
0000
0001
0010
0100
0000
,  // measure 3
1000
0000
0010
0000
0100
1000
0100
0000
,  // measure 4
0001
0000
0010
0000
0100
0001
0100
0000
,  // measure 5
1000
0000
0010
0000
0100
0001
0010
0000
,  // measure 6
0100
0000
1000
0000
0010
0100
0001
0000
,  // measure 7
0010
0000
1000
0000
0010
0001
0100
0000
,  // measure 8
0010
0100
1000
0100
0010
0001
0010
1000
,  // measure 9
0100
0000
0100
0000
0010
0000
0010
0001
,  // measure 10
0000
0001
0000
0001
0100
0000
0010
0000
,  // measure 11
1000
0000
0001
0000
0010
0000
0100
1000
,  // measure 12
0000
1000
0000
1000
0001
0100
0010
0000
,  // measure 13
0100
0000
0001
0000
0010
0000
0100
1000
,  // measure 14
0000
0001
0000
0100
0010
0000
0100
0000
,  // measure 15
0001
0000
0010
0000
0100
0000
0000
1000
,  // measure 16
0000
0010
0000
0100
0001
0000
0101
0000
,  // measure 17
2020
0000
0000
3030
,  // measure 18
0101
0000
1001
0000
1100
0000
1000
0100
,  // measure 19
0010
0100
1000
0010
0100
0000
0110
0000
,  // measure 20
0101
0000
0011
0000
0110
0000
0010
0100
,  // measure 21
1000
0001
0100
0010
0100
0000
0110
0000
,  // measure 22
0101
0000
1001
0000
1100
0000
1000
0100
,  // measure 23
0010
0001
0100
0010
1000
0000
1010
0000
,  // measure 24
0101
0000
1001
0000
1100
0000
1000
0100
,  // measure 25
0010
0001
0100
0010
1000
0010
0100
0001
,  // measure 26
0010
0000
0010
0000
0100
0000
0100
1000
,  // measure 27
0000
1000
0000
1000
0001
0000
0100
0000
,  // measure 28
0010
0000
0100
0000
0001
0000
0010
0100
,  // measure 29
0000
1000
0000
0001
0100
0000
0110
0000
,  // measure 30
0100
0000
0010
0000
1000
0000
0001
0010
,  // measure 31
0000
0100
0000
1000
0001
0000
0100
0000
,  // measure 32
0010
0000
1000
0000
0001
0000
0000
0001
,  // measure 33
0000
0010
0000
0100
1000
0001
0100
0010
,  // measure 34
0100
0000
0001
0000
0010
0000
0100
1000
,  // measure 35
0000
0010
0000
0100
1000
0000
0100
0000
,  // measure 36
0001
0000
0010
0000
0100
0000
1000
0001
,  // measure 37
0000
0100
0000
0010
0100
0000
0101
0000
,  // measure 38
0100
0000
0010
0000
1000
0000
0001
0010
,  // measure 39
0000
0100
0000
1000
0010
0000
0100
0000
,  // measure 40
1000
0000
0100
0000
0010
0000
0000
0010
,  // measure 41
0000
1000
0000
0001
0010
0100
1000
0001
,  // measure 42
2002
0000
0000
3003
,  // measure 43
1000
1000
0001
0001
1000
1000
1000
0000
,  // measure 44
0001
0001
1000
1000
0001
0001
0001
0000
,  // measure 45
0100
0100
0010
0010
0100
0100
0100
0000
,  // measure 46
0010
0010
0100
0100
0010
0010
0010
0000
,  // measure 47
1000
0001
0010
0001
1000
0100
1000
0001
,  // measure 48
0010
0100
1000
0010
0100
1000
0100
0001
,  // measure 49
0010
0100
1000
0001
0010
0100
1000
0001
,  // measure 50
0000
0001
0000
0001
0100
0010
1000
0001
,  // measure 51
0010
0000
0010
0000
0011
0000
0010
0100
,  // measure 52
0000
0100
0000
1000
0001
0000
0100
0000
,  // measure 53
0010
0000
0100
0000
0101
0000
0100
0010
,  // measure 54
0000
1000
0000
0001
0010
0100
1000
0000
,  // measure 55
0001
0000
0100
0000
0110
0000
0100
0010
,  // measure 56
0000
1000
0000
0001
0010
0000
0100
0000
,  // measure 57
1100
0000
0011
0000
1001
0000
0000
0001
,  // measure 58
0000
0100
0000
0010
1000
0001
0010
0100
,  // measure 59
1100
0000
1100
0000
1001
0000
0001
0100
,  // measure 60
0010
1000
0001
0010
0100
0000
1100
0000
,  // measure 61
1001
0000
1001
0000
0011
0000
0001
0010
,  // measure 62
0100
1000
0010
0100
0001
1000
0010
0000
,  // measure 63
1010
0000
1010
0000
1001
0000
1000
0100
,  // measure 64
0010
0001
0100
0010
1000
0000
1001
0000
,  // measure 65
0101
0000
0101
0000
0110
0000
0100
0010
,  // measure 66
1000
0001
0010
0100
1000
0001
0100
0010
,  // measure 67
0110
0000
0110
0000
1010
0000
1000
0010
,  // measure 68
0100
0001
0010
0100
1000
0000
1001
0000
,  // measure 69
0101
0000
0110
0000
1010
0000
1000
0010
,  // measure 70
0100
0001
0010
0100
1000
0000
1001
0000
,  // measure 71
0101
0000
0101
0000
0110
0000
0100
0010
,  // measure 72
1000
0001
0010
0100
1000
0000
1100
0000
,  // measure 73
1001
0000
0101
0000
1001
0000
0000
1000
,  // measure 74
0010
0100
0001
0010
0100
1000
0010
0100
,  // measure 75
0220
0000
0000
0000
,  // measure 76
0330
0000
0000
0000
;

//---------------dance-single - ---------------
#NOTEDATA:;
#CHARTNAME:;
#CHARTSTYLE:;
#CREDIT:;
#STEPSTYPE:dance-single;
#DESCRIPTION:;
#DIFFICULTY:Hard;
#METER:16;
#METERF:16;
#RADARVALUES:0,0,0,0,0;
#NOTES:
// measure 0
0000
0000
0000
0000
,  // measure 1
1000
0000
0100
0010
0000
0001
0010
0000
0100
1000
0000
0001
0100
0000
0010
0000
,  // measure 2
0100
0000
0001
0010
0000
0100
1000
0000
0001
0100
0000
1000
0100
0000
0010
0000
,  // measure 3
1000
0000
0001
0010
0000
0100
1000
0000
0010
0100
0000
1000
0100
0000
0001
0000
,  // measure 4
0010
0000
0100
1000
0000
0001
0100
0000
0010
0100
0001
0010
0100
0000
1000
0000
,  // measure 5
0010
0000
0100
1000
0000
0100
0001
0000
0010
0100
0000
1000
0010
0000
0100
0000
,  // measure 6
1000
0000
0100
0001
0000
0010
0100
0000
1000
0010
0000
0100
1000
0000
0100
0000
,  // measure 7
0001
0000
0010
0100
0000
0001
0100
0000
1000
0010
0000
0100
1000
0000
0100
0000
,  // measure 8
0010
1000
0001
0010
0100
1000
0010
0100
,  // measure 9
0001
0000
0001
0000
0010
0000
0100
0010
,  // measure 10
0000
0001
0000
0100
0010
0000
1000
0000
,  // measure 11
0001
0000
0001
0000
0010
0000
0100
1000
,  // measure 12
0000
0010
0000
0100
1000
0100
0010
0000
,  // measure 13
1000
0000
0100
0000
0010
0000
0001
0100
,  // measure 14
0000
0010
0000
1000
0001
0000
0010
0000
,  // measure 15
0011
0000
1100
0000
1001
0000
0000
0101
,  // measure 16
0000
1010
0000
1001
0011
0000
0110
0000
,  // measure 17
2002
0000
0000
3003
,  // measure 18
2020
3030
0202
0303
0022
0033
0110
0100
,  // measure 19
1100
1000
1001
0001
0202
0303
2020
3030
,  // measure 20
2002
3003
0220
0330
2002
3003
1100
0100
,  // measure 21
0101
0100
0110
0010
0011
0010
1100
0000
,  // measure 22
2002
3003
0220
0330
2002
3003
1001
0001
,  // measure 23
0101
0100
1100
0100
0220
0330
2020
3030
,  // measure 24
2002
3003
0022
0033
0220
0330
0110
0100
,  // measure 25
1100
1000
1001
0001
0101
0110
1010
0110
,  // measure 26
0101
0000
0100
0001
0010
0000
0100
1000
0010
0000
0100
0001
0010
0000
0100
1000
,  // measure 27
0001
0000
0100
0010
1000
0000
0100
0010
0002
0000
0000
0000
2003
0000
3000
0000
,  // measure 28
0101
0000
0100
0010
1000
0000
0100
0010
0001
0000
0010
0100
1000
0000
0010
0100
,  // measure 29
1000
0000
0100
0001
0010
0000
0100
1000
0002
0000
1000
0000
2003
0000
3000
0000
,  // measure 30
1001
0000
1000
0100
0010
0000
0001
0100
1000
0000
0100
0010
1000
0000
0100
0010
,  // measure 31
1000
0000
0010
0001
0100
0000
0010
0100
0002
0000
0000
0000
2003
0000
3000
0000
,  // measure 32
1100
0100
0110
0000
0022
0033
0001
0010
,  // measure 33
0110
0100
1100
1000
1001
0110
0011
1100
,  // measure 34
1010
0000
0010
1000
0100
0000
0010
0001
0100
0000
0010
1000
0100
0000
0010
0001
,  // measure 35
1000
0000
0010
0100
0001
0000
0010
0100
2000
0000
0000
0000
3002
0000
0003
0000
,  // measure 36
1010
0000
0010
0100
0001
0000
0010
0100
1000
0000
0100
0010
0001
0000
0100
0010
,  // measure 37
0001
0000
0010
1000
0100
0000
0010
0001
2000
0000
0001
0000
3002
0000
0003
0000
,  // measure 38
1001
0000
0001
0010
0100
0000
1000
0010
0001
0000
0010
0100
0001
0000
0010
0100
,  // measure 39
0001
0000
0100
1000
0010
0000
0100
0010
2000
0000
0000
0000
3002
0000
0003
0000
,  // measure 40
0011
0010
0110
0000
2200
3300
1000
0100
,  // measure 41
0110
0010
0011
0001
0101
1010
0101
1010
,  // measure 42
2002
0000
0000
0000
3003
0000
0000
0000
1000
0100
0010
0001
1000
0010
0100
0001
,  // measure 43
0010
0000
0010
0000
0100
0000
0100
0000
1000
0000
0001
1000
0000
0001
0010
0001
,  // measure 44
0100
0000
0100
0000
1000
0000
1000
0000
0001
0000
0100
0010
0000
1000
0010
0100
,  // measure 45
0001
0000
0001
0000
0010
0000
0010
0000
0100
0000
1000
0010
0000
0100
1000
0100
,  // measure 46
0001
0000
0001
0000
0010
0000
0010
0000
0100
0000
0100
1000
0000
1000
0010
0001
,  // measure 47
0010
0000
0010
0000
0100
0000
0100
0000
0001
0000
0001
0010
0000
0010
0100
1000
,  // measure 48
0010
0000
0010
0000
0100
0000
0100
0000
1000
0000
1000
0100
0000
0100
0001
0010
,  // measure 49
0100
1000
0010
0100
0001
1000
0010
0100
0001
0010
0100
1000
0001
0010
0100
1000
,  // measure 50
0000
1001
0000
0110
0010
1000
0001
0010
,  // measure 51
0100
0000
0100
0000
1000
0000
0001
0100
,  // measure 52
0000
1000
0000
0100
0010
0000
1000
0000
,  // measure 53
0100
0000
0001
0000
0100
0000
0010
0001
,  // measure 54
0000
0100
0000
1000
0100
0010
1000
0000
,  // measure 55
0100
0000
0010
0000
0001
0000
0010
0100
,  // measure 56
0000
1000
0000
0001
0100
0000
0010
0000
,  // measure 57
1010
0000
0101
0000
1001
0000
0000
1100
,  // measure 58
0000
1001
0000
0101
0110
0010
1010
1000
,  // measure 59
1100
0000
0100
1000
0010
0000
0100
0001
0010
0000
0100
1000
0001
0000
0100
0001
,  // measure 60
2000
3200
0320
0032
2003
0000
3010
0000
,  // measure 61
1010
0000
0010
0100
0001
0000
0010
0100
1000
0000
0001
0100
1000
0000
0100
0001
,  // measure 62
2000
3200
0320
0032
2003
3020
0230
0300
,  // measure 63
0101
0000
0100
0001
0010
0000
0100
1000
0010
0000
0100
1000
0001
0000
0010
0100
,  // measure 64
0002
0023
0230
2300
3020
0000
0130
0000
,  // measure 65
0101
0100
0110
0010
1010
0000
1010
1000
,  // measure 66
0100
0010
0001
0010
0100
1000
0010
0100
2000
0000
3200
0000
0302
0000
2003
0000
,  // measure 67
3100
0010
0001
0010
0100
1000
0010
0100
1000
0100
0010
1000
0001
0010
0100
1000
,  // measure 68
0010
0100
1000
0100
0001
0010
0100
1000
0002
0000
0203
0000
0320
0000
0230
0000
,  // measure 69
0301
0010
1000
0010
0100
1000
0010
0100
0001
0010
0100
1000
0010
0100
1000
0100
,  // measure 70
0001
0010
0100
1000
0010
0100
0001
0010
0200
0000
2300
0000
3002
0000
2003
0000
,  // measure 71
3100
0010
0001
0100
0010
1000
0001
0010
1000
0010
0001
0100
0010
1000
0100
0001
,  // measure 72
0100
1000
0010
0100
1000
0100
0010
1000
0002
0000
0023
0000
0230
0000
1300
0000
,  // measure 73
1001
0001
0101
0100
0110
0010
1010
0101
,  // measure 74
0100
0001
0010
0100
1000
0010
0100
1000
0100
0010
1000
0001
0010
0100
1000
0001
,  // measure 75
2002
0000
0000
0000
,  // measure 76
3003
0000
0000
0000
;
