#VERSION:0.83;
#TITLE:Sora no shirabe;
#SUBTITLE:;
#ARTIST:TatshMusicCircle;
#TITLETRANSLIT:;
#SUBTITLETRANSLIT:;
#ARTISTTRANSLIT:;
#GENRE:;
#CREDIT:;
#ORIGIN:;
#MUSIC:Sora no shirabe.ogg;
#BANNER:Sora no shirabe.png;
#BACKGROUND:Sora no shirabe-bg.png;
#JACKET:Sora no shirabe-jacket.png;
#DISCIMAGE:;
#CDIMAGE:;
#SELECTABLE:YES;
#LYRICSPATH:;
#CDTITLE:;
#SAMPLESTART:12.558;
#SAMPLELENGTH:12.558;
#BPMS:0.000000=172.000000;
#STOPS:;
#WARPS:;
#DELAYS:;
#SPEEDS:;
#SCROLLS:;
#TICKCOUNTS:;
#TIMESIGNATURES:;
#LABELS:;
#COMBOS:;
#FAKES:;
#BGCHANGES:;
#FGCHANGES:;
#ATTACKS:;
#DISPLAYBPM:172;

//---------------dance-single - ---------------
#NOTEDATA:;
#CHARTNAME:;
#CHARTSTYLE:;
#CREDIT:;
#STEPSTYPE:dance-single;
#DESCRIPTION:;
#DIFFICULTY:Beginner;
#METER:4;
#METERF:4;
#RADARVALUES:;
#NOTES:
// measure 0
0000
0000
0000
0000
,  // measure 1
0000
0000
0000
0000
,  // measure 2
0000
0000
0000
0000
,  // measure 3
0000
0000
0000
0000
,  // measure 4
0001
0000
0000
0000
,  // measure 5
1000
0000
0000
0000
,  // measure 6
0001
0000
1000
0000
,  // measure 7
0010
0000
0100
0000
,  // measure 8
0220
0000
0000
0330
,  // measure 9
0001
0000
0001
0000
,  // measure 10
0001
0000
0001
0000
,  // measure 11
1000
0000
1000
0000
,  // measure 12
1000
0000
1000
0000
,  // measure 13
0010
0000
0010
0000
,  // measure 14
0010
0000
0010
0000
,  // measure 15
0100
0000
0100
0000
,  // measure 16
0100
0000
0100
0000
,  // measure 17
1000
0000
0001
0000
,  // measure 18
0010
0010
0010
0000
,  // measure 19
0001
0000
1000
0000
,  // measure 20
0010
0010
0010
0000
,  // measure 21
1000
0000
0010
0000
,  // measure 22
0100
0100
0100
0000
,  // measure 23
1000
0000
0100
0000
,  // measure 24
0001
0001
0001
0000
,  // measure 25
1000
1000
1000
1000
,  // measure 26
1000
1000
1000
0000
,  // measure 27
0001
0001
0001
0001
,  // measure 28
0001
0001
0001
0000
,  // measure 29
0010
0010
0010
0010
,  // measure 30
0010
0010
0010
0000
,  // measure 31
0100
0100
0100
0100
,  // measure 32
0100
0100
0100
0000
,  // measure 33
2000
0000
0000
3000
,  // measure 34
2000
0000
0000
3000
,  // measure 35
0002
0000
0000
0003
,  // measure 36
0002
0000
0000
0003
,  // measure 37
0200
0000
0000
0300
,  // measure 38
0200
0000
0000
0300
,  // measure 39
0020
0000
0000
0030
,  // measure 40
0020
0000
0000
0030
,  // measure 41
2002
0000
0000
3003
,  // measure 42
0220
0000
0000
0330
,  // measure 43
2002
0000
0000
3003
,  // measure 44
1000
0000
1000
0000
,  // measure 45
1000
0000
1000
0000
,  // measure 46
0001
0000
0001
0000
,  // measure 47
0001
0000
0001
0000
,  // measure 48
1000
0000
0001
0000
,  // measure 49
0100
0000
0010
0000
,  // measure 50
0220
0000
0000
0330
,  // measure 51
2002
0000
0000
3003
,  // measure 52
2000
0000
0000
3000
,  // measure 53
2000
0000
0000
3000
,  // measure 54
1000
0000
0001
0000
,  // measure 55
0010
0010
0010
0000
,  // measure 56
0002
0000
0000
0003
,  // measure 57
0002
0000
0000
0003
,  // measure 58
0001
0000
1000
0000
,  // measure 59
0100
0100
0100
0000
,  // measure 60
1001
0000
1001
0000
,  // measure 61
1001
0000
1001
0000
,  // measure 62
0110
0000
0110
0000
,  // measure 63
0110
0000
0110
0000
,  // measure 64
1001
0000
1001
0000
,  // measure 65
0110
0000
0110
0000
,  // measure 66
1001
0000
0110
0000
,  // measure 67
1001
0000
0110
0000
,  // measure 68
0010
0010
0010
0010
,  // measure 69
0010
0010
0010
0000
,  // measure 70
0100
0100
0100
0100
,  // measure 71
0100
0100
0100
0000
,  // measure 72
0001
0001
0001
0000
,  // measure 73
1000
1000
1000
0000
,  // measure 74
2002
0000
0000
3003
;

//---------------dance-single - ---------------
#NOTEDATA:;
#CHARTNAME:;
#CHARTSTYLE:;
#CREDIT:;
#STEPSTYPE:dance-single;
#DESCRIPTION:;
#DIFFICULTY:Easy;
#METER:7;
#METERF:7;
#RADARVALUES:;
#NOTES:
// measure 0
0000
0000
0000
0000
,  // measure 1
0000
0000
0000
0000
,  // measure 2
0000
0000
0000
0000
,  // measure 3
0000
0000
0000
0000
,  // measure 4
0002
0000
0000
0003
,  // measure 5
2000
0000
0000
3000
,  // measure 6
0001
0001
1000
1000
,  // measure 7
0010
0010
0100
0100
,  // measure 8
0220
0000
0000
0330
,  // measure 9
1000
0001
0100
0010
,  // measure 10
1000
0001
0100
0010
,  // measure 11
1000
0001
1000
0001
,  // measure 12
0100
0010
0100
0010
,  // measure 13
1000
0100
0010
0001
,  // measure 14
1000
0100
0010
0001
,  // measure 15
1000
0001
1000
0001
,  // measure 16
0100
0010
0100
0010
,  // measure 17
1000
1000
1000
1000
,  // measure 18
0001
0001
0001
0001
,  // measure 19
0100
0100
0100
0100
,  // measure 20
0010
0010
0010
0010
,  // measure 21
1000
1000
0001
0001
,  // measure 22
0100
0100
0010
0010
,  // measure 23
1000
0001
0100
0010
,  // measure 24
1000
0001
2002
3003
,  // measure 25
2000
0001
0100
3001
,  // measure 26
0002
1000
0100
1003
,  // measure 27
2000
0010
0100
3010
,  // measure 28
0002
0010
0100
0013
,  // measure 29
2000
0010
0100
3010
,  // measure 30
0002
0010
0100
0013
,  // measure 31
2000
3010
0002
0013
,  // measure 32
2002
0000
0000
3003
,  // measure 33
1000
0001
0100
0001
,  // measure 34
1000
0010
0100
0010
,  // measure 35
1000
0001
0010
0100
,  // measure 36
1000
0010
1000
0001
,  // measure 37
0100
0001
1000
0100
,  // measure 38
0010
0001
1000
0010
,  // measure 39
1000
0010
0100
0001
,  // measure 40
1000
0001
0100
0010
,  // measure 41
0010
0100
0001
1000
,  // measure 42
1001
0110
1001
0110
,  // measure 43
2002
0000
0000
3003
,  // measure 44
1000
0100
0001
0100
,  // measure 45
1000
0001
0100
0010
,  // measure 46
1000
0001
0010
0100
,  // measure 47
1000
0010
0100
0001
,  // measure 48
1000
0001
0010
0001
,  // measure 49
1000
0100
0010
0100
,  // measure 50
1000
0001
0100
0001
,  // measure 51
0010
0100
0010
1000
,  // measure 52
1000
0010
0001
0100
,  // measure 53
1000
0010
0001
0100
,  // measure 54
1000
1000
0001
0001
,  // measure 55
0010
0010
0100
0100
,  // measure 56
0001
0010
1000
0100
,  // measure 57
0001
0010
1000
0100
,  // measure 58
0001
0001
1000
1000
,  // measure 59
0100
0100
0010
0010
,  // measure 60
1001
0110
2002
3003
,  // measure 61
0110
1001
0220
0330
,  // measure 62
1000
0001
0100
0010
,  // measure 63
1000
0100
0001
0100
,  // measure 64
1001
0110
2002
3003
,  // measure 65
0110
1001
0220
0330
,  // measure 66
1000
0100
0010
0001
,  // measure 67
1000
0010
0200
0300
,  // measure 68
1000
0001
0100
0010
,  // measure 69
1000
0010
1000
0100
,  // measure 70
0001
0100
1000
0100
,  // measure 71
0010
1000
0100
1000
,  // measure 72
0001
0100
0001
1000
,  // measure 73
0010
0100
0001
1000
,  // measure 74
2002
0000
0000
3003
;

//---------------dance-single - ---------------
#NOTEDATA:;
#CHARTNAME:;
#CHARTSTYLE:;
#CREDIT:;
#STEPSTYPE:dance-single;
#DESCRIPTION:;
#DIFFICULTY:Medium;
#METER:14;
#METERF:14;
#RADARVALUES:;
#NOTES:
// measure 0
0000
0000
0000
0000
,  // measure 1
0000
0000
0000
0000
,  // measure 2
0000
0000
0000
0000
,  // measure 3
0000
0000
0000
0000
,  // measure 4
2000
0000
0000
3000
,  // measure 5
0002
0000
0000
0003
,  // measure 6
0020
0030
0200
0300
,  // measure 7
2000
3000
0002
0003
,  // measure 8
2002
0000
0000
3003
,  // measure 9
1001
0000
1001
0000
1001
0010
0001
0000
,  // measure 10
1001
0000
1001
0000
1001
0100
1000
0000
,  // measure 11
1100
0000
0001
0000
0011
0010
0110
0000
,  // measure 12
0011
0000
1000
0000
1100
0100
0110
0000
,  // measure 13
1001
0000
1001
0000
1001
0100
0110
0000
,  // measure 14
1001
0000
1001
0000
1001
0010
1001
0000
,  // measure 15
1100
0000
0101
0000
0001
0010
1100
0000
,  // measure 16
0101
0000
1100
0000
1000
0100
0101
0000
,  // measure 17
1000
0000
0001
0000
1000
0001
1000
0000
,  // measure 18
0001
1000
0001
1001
,  // measure 19
0010
0000
0010
0000
0010
0100
0010
0000
,  // measure 20
1000
0001
0100
0110
,  // measure 21
1000
0000
0100
0000
0010
0001
0100
0000
,  // measure 22
0010
1000
0001
1001
,  // measure 23
1000
0000
0001
0000
1000
0001
0001
0000
,  // measure 24
0001
0100
0010
0110
,  // measure 25
1000
0100
1001
0000
0001
0100
1001
0000
,  // measure 26
1000
0010
1001
0000
0001
0010
1001
0000
,  // measure 27
1000
0010
0110
0000
0001
0010
0110
0000
,  // measure 28
0001
0100
1100
0000
1000
0100
0101
0000
,  // measure 29
0010
0100
0101
0000
0010
0100
1100
0000
,  // measure 30
1000
0001
1001
0000
0001
1000
1001
0000
,  // measure 31
1000
0010
0100
0001
0010
0100
1000
0001
,  // measure 32
1002
0000
1000
0000
0010
0000
2000
3003
,  // measure 33
1000
0000
0001
0000
1000
0100
0001
0000
,  // measure 34
0100
0000
1000
0000
0001
0100
1000
0000
,  // measure 35
0100
0000
0010
0000
1000
0100
0001
0000
,  // measure 36
0100
0000
1000
0000
0010
1000
0001
0000
,  // measure 37
0100
0000
0010
0000
1000
0001
0100
0000
,  // measure 38
0001
0000
0100
0000
1000
0100
0010
0000
,  // measure 39
0010
0000
0010
0000
0010
0100
1000
0000
,  // measure 40
1000
0000
0001
0000
1000
0010
0100
0001
,  // measure 41
1000
1000
0001
0001
,  // measure 42
1000
0100
1000
0001
0100
0010
1000
0001
,  // measure 43
2002
0000
0000
3003
,  // measure 44
1000
0010
0100
0001
0010
0000
0011
0000
,  // measure 45
0001
0010
1000
0010
0001
0000
1001
0000
,  // measure 46
1000
0010
0001
0010
1000
0000
1001
0000
,  // measure 47
0100
1000
0001
0100
0010
0000
1010
0000
,  // measure 48
1000
0010
0100
0001
0010
0000
1100
0000
,  // measure 49
0010
0001
1000
0010
0100
0000
0110
0000
,  // measure 50
1000
0001
0100
0010
1000
0000
1010
0000
,  // measure 51
1000
0001
0100
0010
1000
0001
0100
0010
,  // measure 52
1000
0100
0010
0001
0001
0010
0100
1000
,  // measure 53
1000
0010
0100
0001
0001
0100
0010
1000
,  // measure 54
1000
0100
1000
0001
0010
0001
0100
0010
,  // measure 55
1000
0010
0001
0010
1000
0100
0001
0100
,  // measure 56
1000
0001
0010
0100
0010
0100
1000
0001
,  // measure 57
1000
0010
0100
0010
1000
0001
0010
0100
,  // measure 58
1000
0100
0001
0100
1000
0010
0001
0010
,  // measure 59
1000
0010
0100
0001
1000
0010
0100
0001
,  // measure 60
1001
1001
1001
1001
,  // measure 61
1100
1100
1100
1100
,  // measure 62
0101
0101
0101
0101
,  // measure 63
0110
0110
0110
0110
,  // measure 64
1100
0101
1100
0101
,  // measure 65
1010
0110
1010
0110
,  // measure 66
1100
0101
1100
0101
,  // measure 67
0011
0110
0011
0110
,  // measure 68
0001
0010
0100
0010
0001
1000
0010
0100
,  // measure 69
0001
0010
0001
1000
0100
0010
0100
1000
,  // measure 70
0001
0100
0010
1000
0100
0010
0001
0100
,  // measure 71
0010
1000
0001
0100
0010
1000
0100
0001
,  // measure 72
0100
1000
0010
0100
0001
0100
0010
1000
,  // measure 73
0100
0010
0001
0100
0010
1000
0100
0002
,  // measure 74
2000
0000
0000
3003
;

//---------------dance-single - ---------------
#NOTEDATA:;
#CHARTNAME:;
#CHARTSTYLE:;
#CREDIT:;
#STEPSTYPE:dance-single;
#DESCRIPTION:;
#DIFFICULTY:Hard;
#METER:17;
#METERF:17;
#RADARVALUES:;
#NOTES:
// measure 0
0000
0000
0000
0000
,  // measure 1
0000
0000
0000
0000
,  // measure 2
0000
0000
0000
0000
,  // measure 3
0000
0000
0000
0000
,  // measure 4
0010
0000
0010
1000
0100
0001
0100
1000
,  // measure 5
0001
0000
0001
1000
0010
0100
0010
1000
,  // measure 6
0001
0001
0001
1000
0010
0100
0001
0010
,  // measure 7
0100
1000
0010
0100
0001
0100
0010
1000
,  // measure 8
1000
0001
2002
3003
,  // measure 9
1000
0000
0100
0000
0010
0000
0100
0000
1000
0000
1000
0010
0000
0010
1000
0000
,  // measure 10
1000
0000
0100
0000
0001
0000
0100
0000
1000
0000
0010
0100
0000
0100
0010
0000
,  // measure 11
1000
0000
0010
0000
0100
0000
0001
0000
0100
0000
0010
0100
0000
0100
0010
0000
,  // measure 12
1000
0010
1000
0010
2000
0000
3000
0000
0001
0100
0001
0100
0002
0000
0003
0000
,  // measure 13
1000
0000
0010
0000
0100
0000
0010
0000
1000
0000
1000
0001
0000
0001
1000
0000
,  // measure 14
0001
0000
0100
0000
0010
0000
0100
0000
0001
0000
0001
1000
0000
1000
0001
0000
,  // measure 15
1000
0000
0100
0000
0010
0000
0100
0000
1000
0000
1000
0010
0000
0010
1000
0000
,  // measure 16
0001
0100
0001
0100
0002
0000
0003
0000
1000
0100
1000
0100
2000
0000
3000
0000
,  // measure 17
1001
1100
1001
0101
1001
0100
1001
0010
,  // measure 18
1001
0000
1000
0010
0000
0010
0100
0000
0100
0001
0000
0001
2000
0000
3000
0000
,  // measure 19
1001
0011
1001
1010
1001
0100
1001
0010
,  // measure 20
1001
0000
0001
0100
0000
0100
0010
0000
0010
1000
0000
1000
0002
0000
0003
0000
,  // measure 21
0101
1001
0011
1001
0101
0010
1100
0010
,  // measure 22
1010
0000
1000
0100
0000
0100
0010
0000
0010
0001
0000
0001
1000
0000
1000
0010
,  // measure 23
0100
0000
0100
0001
0000
0001
0010
0000
0010
0100
0000
0100
1000
0000
0001
0000
,  // measure 24
0100
0010
0100
0010
1000
0010
1000
0010
0100
0001
0100
0010
1000
0010
0100
0001
,  // measure 25
1000
0000
0001
0000
0100
0010
0100
0000
0001
0000
0010
0100
0000
0100
1000
0000
,  // measure 26
0001
0000
0100
0000
0010
0100
0010
0000
1000
0000
0001
0100
0000
0010
1000
0000
,  // measure 27
0001
0000
0010
0000
0100
1000
0100
0000
0020
0000
0032
0000
0203
0000
0320
0000
,  // measure 28
1030
0000
0001
0000
0010
0100
1000
0000
0002
0000
0203
0000
2300
0000
3200
0000
,  // measure 29
0301
0000
0010
0000
0100
1000
0100
0000
0020
0000
0032
0000
0203
0000
0320
0000
,  // measure 30
1030
1000
1000
1000
0001
0001
0001
0001
,  // measure 31
1000
0001
1000
0001
1000
0001
1000
0001
1000
0001
1000
0001
1000
0001
1000
0001
,  // measure 32
2002
0000
3003
0110
,  // measure 33
1000
0000
0010
0000
0100
0010
1000
0000
1010
0000
0010
0001
0000
0001
0010
0000
,  // measure 34
0100
0000
1000
0000
0001
0100
0010
0000
0101
0000
0001
1000
0000
0100
0010
0000
,  // measure 35
0100
0000
1000
0000
0001
0100
1000
0000
1100
0000
1000
0100
0000
0001
0010
0000
,  // measure 36
0100
0000
0010
0000
0001
0100
0010
0000
1000
0100
0010
0000
0001
1000
0010
0000
,  // measure 37
0100
0000
0010
0000
1000
0001
0010
0000
0110
0000
0010
0100
0000
0100
1000
0000
,  // measure 38
0001
0000
0100
0000
0010
0100
0001
0000
1001
0000
1000
0010
0000
0001
0010
0000
,  // measure 39
1000
0100
0010
0000
0001
0100
0010
0000
1000
0010
0100
0000
0001
1000
0010
0000
,  // measure 40
0100
0010
1000
0100
1000
0010
0100
0001
0010
0100
0001
0100
0010
0001
0100
0010
,  // measure 41
1000
0001
0100
0010
,  // measure 42
1000
0010
0100
0010
1000
0100
0010
0100
,  // measure 43
2100
0001
0100
3001
,  // measure 44
1001
0000
0000
0000
0001
0000
0100
0000
0010
0100
0001
0000
1001
0000
0000
0000
,  // measure 45
1000
0000
0100
0000
0001
0000
0100
0000
1000
0010
0100
0000
1100
0000
0101
0000
,  // measure 46
1001
1000
0010
0100
0001
1000
1001
1000
,  // measure 47
0010
0000
0100
0000
0001
0000
1000
0000
0100
0000
0010
0000
0100
1000
0001
1000
,  // measure 48
0100
0010
0001
0100
0010
1000
1010
1000
,  // measure 49
0100
0010
1000
0010
0001
0100
0110
0100
,  // measure 50
0001
0100
0010
1000
0100
0010
0001
0100
,  // measure 51
0010
1000
0010
0000
0100
0010
0100
0000
0001
0100
0001
0000
0010
0001
0010
0000
,  // measure 52
0100
1000
0100
0000
1000
0010
1000
0000
0010
0100
0010
0000
0100
0001
0100
0000
,  // measure 53
0010
0100
0010
0000
1000
0010
1000
0000
0100
0010
0100
0000
0010
0001
0010
0000
,  // measure 54
0100
1000
0001
0000
0100
0010
1000
0000
0001
0010
0100
0000
1000
0001
0100
0000
,  // measure 55
0010
0100
0001
0000
1000
0001
0010
0000
0100
0010
0001
0000
0100
0010
1000
0000
,  // measure 56
0001
0010
0001
0000
0010
0100
0010
0000
0100
1000
0100
0000
1000
0001
1000
0000
,  // measure 57
0100
1000
0100
0000
0010
0100
0010
0000
0001
0010
0001
0000
1000
0001
1000
0000
,  // measure 58
0001
0100
0010
1000
0001
0010
0100
2000
3002
0000
0203
0000
2300
0000
3200
0000
,  // measure 59
0301
0010
0100
1000
0010
0100
1000
0100
0002
0000
2003
0000
3200
0000
0310
0000
,  // measure 60
0022
0000
0033
0000
2200
0000
3300
0000
1001
0000
0001
0100
0010
0000
0100
0000
,  // measure 61
0202
0000
0303
0000
2020
0000
3030
0000
1001
0000
1000
0100
0010
0000
0011
0000
,  // measure 62
0001
0100
0010
0000
1000
0001
0010
0000
0100
1000
0010
0000
0100
0001
1000
0000
,  // measure 63
0100
0010
0001
0010
0100
1000
0001
0100
0020
0000
0230
0000
0302
0000
1003
0000
,  // measure 64
1001
0000
1000
0000
1100
0000
0100
0000
0110
0000
0001
0010
0100
0000
1100
0000
,  // measure 65
1002
1003
0201
0301
0120
0130
2010
3010
,  // measure 66
0002
0000
0000
1000
0000
0000
1000
0000
2003
0000
0000
0000
3002
0000
0000
0000
,  // measure 67
0023
0000
0000
0032
,  // measure 68
1003
0001
1000
0000
0100
0010
0100
0000
1000
0010
1000
0000
0001
0010
0001
0000
,  // measure 69
0100
0010
1000
0000
0100
0010
0001
0000
0100
1000
0100
0000
0001
0010
0001
0000
,  // measure 70
0100
0010
1000
0000
0001
0010
0100
0000
1000
0001
0100
0000
0010
0100
0001
0000
,  // measure 71
0010
0100
1000
0000
0010
0100
1000
0000
0100
0001
0010
0000
0100
1000
0010
0000
,  // measure 72
1000
0001
1000
0001
1000
0001
1000
0001
1000
0001
1000
0001
0020
0000
0000
0000
,  // measure 73
0031
1000
0001
1000
0001
1000
0001
1000
0001
0100
0010
0100
0001
0010
0200
2000
,  // measure 74
0000
0000
0000
3300
;

//---------------dance-single - ---------------
#NOTEDATA:;
#CHARTNAME:;
#CHARTSTYLE:;
#CREDIT:;
#STEPSTYPE:dance-single;
#DESCRIPTION:;
#DIFFICULTY:Challenge;
#METER:19;
#METERF:19;
#RADARVALUES:;
#NOTES:
// measure 0
0000
0000
0000
0000
,  // measure 1
0000
0000
0000
0000
,  // measure 2
0000
0000
0000
0000
,  // measure 3
0000
0000
0000
0000
,  // measure 4
2002
3003
0001
0010
0100
0001
0100
1000
,  // measure 5
2002
3003
1000
0010
0100
1000
0100
0001
,  // measure 6
1001
1001
1001
0100
0010
0100
0001
0010
,  // measure 7
0100
1000
0001
0100
0010
1000
0010
0100
,  // measure 8
1001
1001
2002
3003
,  // measure 9
1000
0010
0100
0001
0010
0001
1000
0100
1000
0010
0100
0001
1000
0100
0010
0100
,  // measure 10
1000
0010
0100
0001
0010
0100
1000
0010
0100
0001
0010
0100
0010
0001
0100
1000
,  // measure 11
0100
0001
1000
0100
0010
0100
1000
0001
0100
0010
1000
0001
0010
0001
1000
0100
,  // measure 12
0010
0100
1000
0001
0020
0000
0000
0030
0100
1000
0010
0100
0002
0000
0000
0003
,  // measure 13
1000
0010
0100
0001
0010
0001
0100
0010
1000
0100
0001
0100
1000
0010
0100
0001
,  // measure 14
0010
0001
0100
0010
1000
0100
1000
0010
0100
0001
0100
0010
1000
0100
0001
0100
,  // measure 15
1000
0001
0100
0010
1000
0100
0001
0100
1000
0010
0100
0001
0010
0100
1000
0100
,  // measure 16
0010
0100
1000
0010
0200
0000
0000
0300
0001
0100
1000
0100
0002
0000
0000
0003
,  // measure 17
1100
1100
0101
0101
1100
0101
1010
0101
,  // measure 18
1001
0000
0001
0010
0000
1000
0010
0000
0001
0100
0010
1000
2020
0000
3030
0000
,  // measure 19
1010
1010
0101
0101
0011
1100
1001
0101
,  // measure 20
1010
0000
1000
0010
0000
0001
0010
0000
1000
0010
0100
0001
0202
0000
0303
0000
,  // measure 21
0101
0101
1010
1010
0011
1100
1010
0101
,  // measure 22
1001
0000
1000
0010
0000
0010
0100
0000
0100
0001
0010
0100
2000
0000
3001
0000
,  // measure 23
1001
0000
0001
0100
0000
0100
0010
0000
1000
0010
0100
1000
0200
0000
0301
0000
,  // measure 24
0101
0000
0001
0010
0000
1000
0010
0000
0001
0100
0010
1000
0001
0010
0100
1000
,  // measure 25
0001
0100
0001
0100
1000
0100
0001
0100
0001
0100
0001
0100
0010
0100
0001
0100
,  // measure 26
0001
0100
0001
0100
1000
0100
0001
0100
0001
0100
0001
0100
1000
0100
0001
0100
,  // measure 27
0010
1000
0001
0010
0100
1000
0001
0100
0020
0000
2030
0000
3002
0000
0203
0000
,  // measure 28
0310
0100
0001
0010
0100
1000
0010
0100
2000
0000
3200
0000
0302
0000
2003
0000
,  // measure 29
3100
0010
0001
0100
1000
0100
0010
1000
0002
0000
0023
0000
0230
0000
2300
3000
,  // measure 30
1001
1001
1001
1001
0110
0110
0110
0110
,  // measure 31
1000
0010
0100
0001
0010
0100
1000
0010
0100
0001
0010
1000
0010
0001
0100
0020
,  // measure 32
2000
0000
0000
3030
,  // measure 33
1000
0000
0010
0000
0100
0010
1000
0000
1010
0000
1000
0100
0010
0000
0110
0000
,  // measure 34
0010
0000
0001
0000
0100
0010
0001
0000
0011
0000
0001
0010
0100
0000
0101
0000
,  // measure 35
0001
0000
0010
0000
1000
0010
0001
0000
1001
0000
1000
0010
0001
0000
0011
0000
,  // measure 36
0010
0000
0100
0000
1000
0001
0100
0000
1100
0000
0100
0000
0001
1000
0010
0000
,  // measure 37
0100
0000
0010
0000
1000
0010
0100
0000
0101
0000
0001
0010
0100
1000
0010
0000
,  // measure 38
0100
0000
0001
0000
0010
0100
1000
0000
1001
0000
1000
0100
0010
0100
1000
0000
,  // measure 39
0001
0100
0010
1000
0100
0010
0001
0100
0010
1000
0001
0010
0200
0000
0310
0000
,  // measure 40
0001
0100
0010
1000
0001
0010
1000
0010
0100
1000
0010
0100
0001
1000
0100
0010
,  // measure 41
0002
0003
0000
0000
2000
3000
0000
0000
0200
0300
0000
0000
0020
0030
0000
0000
,  // measure 42
0001
0010
0100
0010
0001
0100
0010
0100
,  // measure 43
0002
2003
3200
0310
,  // measure 44
0011
0000
0000
0000
1100
0000
0000
0000
0001
0100
0010
0000
1010
0000
0000
0000
,  // measure 45
1010
0000
0010
0000
0110
0000
0100
0000
0001
0100
0010
0000
1010
0000
0011
0000
,  // measure 46
1010
0010
0110
0100
0101
0001
0011
0000
,  // measure 47
0110
0000
1100
0000
1001
0000
0101
0000
1001
1000
0100
0010
0001
0100
0010
1000
,  // measure 48
0001
0010
0100
1000
0010
0100
0101
0100
,  // measure 49
0010
1000
0001
0010
0100
1000
1001
0001
,  // measure 50
0001
0100
0010
1000
0100
0010
0001
0010
0100
1000
0010
0100
0001
0000
1000
0000
,  // measure 51
1000
0010
1000
0010
0100
0010
0100
0010
0100
0001
0100
0001
1000
0001
1000
0001
,  // measure 52
0010
0001
0010
0001
0010
0100
0010
0100
1000
0100
1000
0100
1000
0001
1000
0001
,  // measure 53
0010
0001
0010
0001
0010
0100
0010
0100
1000
0100
1000
0100
1000
0001
1000
0001
,  // measure 54
0100
0010
1000
0001
0010
0100
1000
0010
0100
0001
0010
0100
1000
0001
0010
0100
,  // measure 55
0010
0001
0100
0010
1000
0001
0010
0100
1000
0010
0100
1000
0100
0001
1000
0100
,  // measure 56
0010
0001
0010
0001
0010
0100
0010
0100
1000
0100
1000
0100
1000
0001
1000
0001
,  // measure 57
0010
0001
0010
0001
0010
0100
0010
0100
1000
0100
1000
0100
1000
0001
1000
0001
,  // measure 58
1000
0010
0100
0001
0010
0100
1000
0010
0100
0010
1000
0100
0010
0001
0100
0010
,  // measure 59
1000
0010
0100
0001
0010
0100
1000
0010
0100
1000
0100
0001
1000
0100
0001
0100
,  // measure 60
2200
0000
3300
0000
2002
0000
3003
0000
0101
0000
0001
0100
0010
0000
0110
0000
,  // measure 61
2002
0000
3003
0000
0022
0000
0033
0000
1010
0000
1000
0010
0100
0000
0101
0000
,  // measure 62
0001
0100
0001
0000
1000
0010
1000
0000
0001
0010
0001
0000
1000
0100
1000
0000
,  // measure 63
0001
0100
0010
1000
0001
0010
0100
1000
0001
0000
1001
0000
1001
0000
0000
0000
,  // measure 64
1000
0100
0010
0000
0001
0010
0100
0000
1001
0000
1000
0010
0100
0000
1100
0000
,  // measure 65
0102
0000
0000
0000
1000
0000
0000
0000
0103
0000
0001
0100
0010
1000
0001
0010
,  // measure 66
0002
0000
2003
3020
,  // measure 67
0230
0000
0000
0302
,  // measure 68
0103
0001
0010
0100
1000
0010
0100
0002
0013
1000
0010
0001
0100
0010
1000
0100
,  // measure 69
0010
0100
1000
0010
0100
0001
0010
0100
1000
0001
0100
0010
0001
0010
0100
0001
,  // measure 70
0010
0100
0001
0100
1000
0010
0100
1000
0100
0010
1000
0100
0010
0001
0100
0010
,  // measure 71
1000
0100
0010
0100
1000
0010
0100
0001
0010
1000
0010
0001
0100
0010
1000
0001
,  // measure 72
0010
0001
0010
0001
0010
0001
0010
0001
0010
0001
0010
0001
0100
0001
0100
0001
,  // measure 73
1000
0010
1000
0010
1000
0010
1000
0010
1000
0010
0100
0001
0010
0100
2000
0002
,  // measure 74
0000
0000
0000
3003
;
