#TITLE:Solo;
#SUBTITLE:;
#ARTIST:Alsou;
#MUSIC:Solo.ogg;
#BANNER:Solo.png;
#BACKGROUND:Solo-bg.png;
#LYRICSPATH:;
#CDTITLE:;
#SAMPLESTART:66.149;
#SAMPLELENGTH:18.570999999999998;
#OFFSET:-0.149;
#BPMS:0.000000=105.000000,
80.000000=52.500000,
96.000000=105.000000,
100.000000=210.000000,
228.000000=105.000000
;
#STOPS:;
#TIMESIGNATURES:0.000000=4=4;
#BGCHANGES:;
#FGCHANGES:;
#ATTACKS:;
#SPEEDS:0.000000=1.000000=0.000000=0;
#SCROLLS:0.000000=1.000000;
#KEYSOUNDS:;

//---------------dance-single - ---------------
#NOTES:
     dance-single:
     :
     Beginner:
     3:
     0,0,0,0,0:
// measure 0
0000
0000
0000
0000
,  // measure 1
0000
0000
0000
0000
,  // measure 2
0000
0000
0000
0000
,  // measure 3
0000
0000
0000
0000
,  // measure 4
2000
0000
3000
0000
,  // measure 5
0002
0000
0003
0000
,  // measure 6
2000
0000
3000
0000
,  // measure 7
0200
0000
0300
0000
,  // measure 8
2000
0000
3000
0000
,  // measure 9
0020
0000
0030
0000
,  // measure 10
0200
0000
0300
0000
,  // measure 11
0002
0000
0003
0000
,  // measure 12
1000
0000
0100
0000
,  // measure 13
1000
1000
1000
0000
,  // measure 14
0001
0000
0100
0000
,  // measure 15
0001
0001
0001
0000
,  // measure 16
1000
0000
0010
0000
,  // measure 17
0100
0100
0100
0000
,  // measure 18
0001
0000
0002
0003
,  // measure 19
0001
0001
0001
0000
,  // measure 20
1000
1000
1000
0000
,  // measure 21
0010
0010
0010
0000
,  // measure 22
0001
0001
0001
0000
,  // measure 23
0100
0100
0100
0100
,  // measure 24
0200
0000
0000
0300
,  // measure 25
1001
0000
0000
0000
,  // measure 26
0100
0000
0000
0000
,  // measure 27
1000
0000
1000
0000
,  // measure 28
1000
0000
0000
0000
,  // measure 29
1001
0000
0000
0000
,  // measure 30
0100
0000
0000
0000
,  // measure 31
0001
0000
0001
0000
,  // measure 32
0001
0000
0000
0000
,  // measure 33
1000
0000
0000
0000
,  // measure 34
0100
0000
0000
0000
,  // measure 35
1000
0000
1000
0000
,  // measure 36
1000
0000
0000
0000
,  // measure 37
1000
0000
1000
0000
,  // measure 38
2002
0000
3003
0000
,  // measure 39
1000
0000
0001
0000
,  // measure 40
1001
0000
0000
0000
,  // measure 41
1000
0000
0000
0000
,  // measure 42
0010
0000
0000
0000
,  // measure 43
0100
0000
0100
0000
,  // measure 44
0100
0000
0000
0000
,  // measure 45
0001
0000
0000
0000
,  // measure 46
0010
0000
0000
0000
,  // measure 47
0100
0000
0100
0000
,  // measure 48
0100
0000
0000
0000
,  // measure 49
2000
0000
3000
0000
,  // measure 50
2000
0000
3000
0000
,  // measure 51
1000
0000
1000
0000
,  // measure 52
1000
0000
0000
0000
,  // measure 53
0010
0000
0001
0000
,  // measure 54
2002
0000
3003
0000
,  // measure 55
1000
0000
0100
0000
,  // measure 56
1001
0000
0000
0000
,  // measure 57
0200
0000
0300
0000
;

//---------------dance-single - ---------------
#NOTES:
     dance-single:
     :
     Easy:
     6:
     0,0,0,0,0:
// measure 0
0000
0000
0000
0000
,  // measure 1
0000
0000
0000
0000
,  // measure 2
0000
0000
0000
0000
,  // measure 3
0000
0000
0000
0000
,  // measure 4
1000
0100
1000
1100
,  // measure 5
0001
0100
0001
0101
,  // measure 6
0100
0010
0100
0110
,  // measure 7
1000
0100
0010
0011
,  // measure 8
0001
0100
0010
1010
,  // measure 9
1000
0010
0100
0101
,  // measure 10
1000
0010
0001
0010
,  // measure 11
1000
0100
0010
0001
,  // measure 12
2002
3003
2200
3300
,  // measure 13
1000
0100
1000
0000
,  // measure 14
2002
3003
0022
0033
,  // measure 15
0001
0010
0001
0000
,  // measure 16
2000
3000
0200
0300
,  // measure 17
0001
0100
1000
0000
,  // measure 18
1000
1001
0200
0000
,  // measure 19
0001
1000
0301
0000
,  // measure 20
1000
0001
0100
0010
,  // measure 21
1000
0100
0010
0001
,  // measure 22
0100
0010
1000
0100
,  // measure 23
0001
0000
0100
0000
1000
0001
1001
0000
,  // measure 24
2002
0000
0000
3003
,  // measure 25
1001
0000
1000
0000
,  // measure 26
1010
0000
0010
0000
,  // measure 27
0110
0000
0101
0000
,  // measure 28
1001
0000
0100
0000
,  // measure 29
0110
0000
0100
0000
,  // measure 30
0101
0000
0001
0000
,  // measure 31
1000
0000
0010
0000
,  // measure 32
1010
0000
0001
0000
,  // measure 33
1000
0000
0100
0000
,  // measure 34
0001
0000
0100
0000
,  // measure 35
1000
0000
0001
0000
,  // measure 36
1001
0000
0100
0000
,  // measure 37
1000
0000
1010
0000
,  // measure 38
0200
0000
0000
0000
,  // measure 39
0010
0000
1000
0000
,  // measure 40
0310
0000
1000
0000
,  // measure 41
1001
0000
0001
0000
,  // measure 42
0011
0000
0010
0000
,  // measure 43
0110
0000
1100
0000
,  // measure 44
1001
0000
1000
0000
,  // measure 45
1010
0000
0010
0000
,  // measure 46
0110
0000
0100
0000
,  // measure 47
0101
0000
1001
0000
,  // measure 48
0011
0000
0100
0000
,  // measure 49
1000
0000
0100
0000
,  // measure 50
0001
0000
0100
0000
,  // measure 51
1000
0000
0110
0000
,  // measure 52
1000
0000
0100
0000
,  // measure 53
0010
0000
0011
0000
,  // measure 54
0200
0000
0000
0000
,  // measure 55
0001
0000
0010
0000
,  // measure 56
1300
0000
0001
0000
,  // measure 57
0200
0000
0300
0000
;

//---------------dance-single - ---------------
#NOTES:
     dance-single:
     :
     Medium:
     10:
     0,0,0,0,0:
// measure 0
0000
0000
0000
0000
,  // measure 1
0000
0000
0000
0000
,  // measure 2
0000
0000
0000
0000
,  // measure 3
0000
0000
0000
0000
,  // measure 4
1000
0000
0001
0010
0000
0100
0010
0000
,  // measure 5
0001
0000
0010
1000
0000
1000
0010
0000
,  // measure 6
0001
0000
0100
1000
0000
1000
0100
0000
,  // measure 7
0001
0000
1000
0100
0000
0100
1000
0000
,  // measure 8
0010
0000
0001
0010
0000
1000
0010
0000
,  // measure 9
1000
0000
0100
0001
0000
0100
1000
0000
,  // measure 10
1000
0010
0100
0001
,  // measure 11
1000
0000
0100
0001
0000
0000
0100
1000
,  // measure 12
1001
0000
0001
1000
0100
0000
1000
0001
,  // measure 13
0000
0001
1000
0000
0100
0000
0100
0100
,  // measure 14
1000
0000
0100
0100
0001
0000
0100
1000
,  // measure 15
0000
1000
0010
0000
0110
0000
0010
0100
,  // measure 16
0001
1000
0200
0300
,  // measure 17
0010
0100
2000
3000
,  // measure 18
0001
0000
1001
1000
0200
0000
0000
0000
,  // measure 19
1000
0001
1300
0010
,  // measure 20
0200
0302
2003
3200
,  // measure 21
0320
2030
3020
0032
,  // measure 22
2003
3020
0032
0023
,  // measure 23
2030
0000
0000
0000
3200
0000
0300
0000
0110
0000
0001
0000
1001
0000
1000
0001
,  // measure 24
0020
0000
0000
0030
,  // measure 25
0110
0000
0001
1000
,  // measure 26
0020
0000
0130
0010
,  // measure 27
1000
1000
0001
0001
,  // measure 28
0010
0000
0100
0010
,  // measure 29
0001
0100
1000
0100
,  // measure 30
0020
0000
1030
0010
,  // measure 31
1000
0001
0100
0001
,  // measure 32
0020
0000
0130
0010
,  // measure 33
0001
1000
0010
0100
,  // measure 34
0002
0200
0303
0020
,  // measure 35
0000
0130
0010
1000
,  // measure 36
0200
0300
0100
0010
,  // measure 37
0001
1000
1001
0001
,  // measure 38
0200
0000
0010
0000
,  // measure 39
0001
0010
1000
0010
,  // measure 40
0301
0001
1000
0010
,  // measure 41
0110
0000
0010
1000
,  // measure 42
0200
0300
0010
0001
,  // measure 43
1000
0001
0100
1000
,  // measure 44
0200
0300
0100
0100
,  // measure 45
0001
0010
0100
0100
,  // measure 46
0020
0000
0031
0010
,  // measure 47
1000
0010
0001
0100
,  // measure 48
0020
0000
1030
0010
,  // measure 49
0001
0010
1000
0100
,  // measure 50
0010
2000
0000
3010
,  // measure 51
0100
1000
0001
0100
,  // measure 52
0020
0000
0130
0010
,  // measure 53
1000
0001
0011
0001
,  // measure 54
0200
0000
1000
0000
,  // measure 55
0001
0010
1000
0010
,  // measure 56
0301
0010
0100
1000
,  // measure 57
0001
0200
0000
0000
0300
0000
0000
0000
;

//---------------dance-single - ---------------
#NOTES:
     dance-single:
     :
     Hard:
     12:
     0,0,0,0,0:
// measure 0
0000
0000
0000
0000
,  // measure 1
0000
0000
0000
0000
,  // measure 2
0000
0000
0000
0000
,  // measure 3
0000
0000
0000
0000
,  // measure 4
1000
0001
0010
0100
0010
0001
1001
0000
,  // measure 5
0001
1000
0010
0100
0001
0100
0110
0000
,  // measure 6
1000
0001
0010
1000
0010
0001
1001
1000
,  // measure 7
0001
0010
0100
1000
0100
0001
1001
0000
,  // measure 8
1000
0010
1010
0010
1000
0001
1001
0000
,  // measure 9
0001
0010
0011
0010
0001
1000
1001
0000
,  // measure 10
1000
0100
0010
1000
0010
0100
1000
0010
,  // measure 11
0100
0001
1000
0010
2000
0000
3010
1000
,  // measure 12
1010
0000
1000
0001
1100
0000
1000
0001
,  // measure 13
0100
1000
0001
1000
0100
0000
0100
0001
,  // measure 14
1001
0001
1000
0010
2020
3030
1010
1000
,  // measure 15
0001
1000
0100
1000
0020
0000
1030
0100
,  // measure 16
1000
1000
0001
0100
1000
0200
0000
0320
,  // measure 17
0000
1030
0010
1000
0002
0000
1003
0010
,  // measure 18
1000
0001
1001
0001
0200
0000
0302
0000
,  // measure 19
1003
0100
0001
0100
1000
0001
0100
0010
,  // measure 20
1000
0010
0100
0010
1000
0001
0010
0001
0100
1000
0100
0001
0010
0100
1000
0010
,  // measure 21
0100
1000
0100
0001
0010
0100
1000
0100
0001
1000
0001
0100
1000
0010
0100
1000
,  // measure 22
0001
1000
0100
0001
0010
0100
1000
0010
0100
1000
0100
0010
1000
0001
0010
0100
,  // measure 23
1000
0010
0100
1000
0100
0001
0010
0001
0011
0010
0110
0100
1100
0000
1000
0001
,  // measure 24
2002
0000
0000
3003
,  // measure 25
0110
0010
1010
1001
,  // measure 26
0011
0010
0100
0010
,  // measure 27
0001
1000
1010
0110
,  // measure 28
0201
0300
0101
1100
,  // measure 29
0110
1010
1100
0101
,  // measure 30
0220
0330
1001
2000
,  // measure 31
0100
3001
0100
1000
,  // measure 32
0010
0100
0110
0100
,  // measure 33
0001
0100
1000
0100
,  // measure 34
0001
0010
0100
0010
,  // measure 35
0001
0100
0110
1000
,  // measure 36
1002
0000
0103
0010
,  // measure 37
1000
0001
0011
0001
,  // measure 38
0200
0000
0320
0000
,  // measure 39
1030
0010
0001
0010
,  // measure 40
1000
0001
0101
0001
,  // measure 41
2002
3003
1001
1000
,  // measure 42
1200
0000
1300
0010
,  // measure 43
0100
0010
1010
0011
,  // measure 44
1200
0300
1100
0101
,  // measure 45
0011
1010
0011
0101
,  // measure 46
0220
0330
1010
0010
,  // measure 47
1000
0001
0010
0100
,  // measure 48
0010
0001
1001
0001
,  // measure 49
1000
0010
0100
0010
,  // measure 50
1000
0200
1300
0020
,  // measure 51
0100
0031
0100
0001
,  // measure 52
0010
0100
0110
0010
,  // measure 53
0001
1000
1001
1000
,  // measure 54
0200
0000
1000
0000
,  // measure 55
0001
0010
1000
0010
,  // measure 56
0301
0010
0100
1000
,  // measure 57
0100
0200
0000
0000
0300
0000
0000
0000
;
