#VERSION:0.83;
#TITLE:She Got Me;
#SUBTITLE:(Live from Tel Aviv, Israel, 2019);
#ARTIST:Luca Hänni;
#TITLETRANSLIT:;
#SUBTITLETRANSLIT:;
#ARTISTTRANSLIT:;
#GENRE:;
#CREDIT:;
#MUSIC:She Got Me (Live from Tel Aviv, Israel, 2019).ogg;
#BANNER:She Got Me (Live from Tel Aviv, Israel, 2019).png;
#BACKGROUND:She Got Me (Live from Tel Aviv, Israel, 2019)-bg.png;
#JACKET:She Got Me (Live from Tel Aviv, Israel, 2019)-jacket.png;
#DISCIMAGE:;
#CDIMAGE:;
#SELECTABLE:YES;
#LYRICSPATH:;
#CDTITLE:;
#SAMPLESTART:40.797;
#SAMPLELENGTH:19.786;
#OFFSET:-1.687;
#BPMS:0.000000=97.035000;
#STOPS:;
#WARPS:;
#DELAYS:;
#SPEEDS:0.000000=1.000000=0.000000=0;
#SCROLLS:0.000000=1.000000;
#TICKCOUNTS:;
#TIMESIGNATURES:0.000000=4=4;
#LABELS:;
#COMBOS:;
#FAKES:;
#BGCHANGES:;
#FGCHANGES:;
#ATTACKS:;
#KEYSOUNDS:;

//---------------dance-single - ---------------
#NOTEDATA:;
#CHARTNAME:;
#CHARTSTYLE:;
#CREDIT:;
#STEPSTYPE:dance-single;
#DESCRIPTION:;
#DIFFICULTY:Beginner;
#METER:4;
#METERF:4;
#RADARVALUES:0,0,0,0,0;
#NOTES:
// measure 0
0000
0000
0000
0000
,  // measure 1
0000
0000
0000
0000
,  // measure 2
0000
0000
0000
0000
,  // measure 3
0000
0000
0000
0000
,  // measure 4
1000
1000
1000
0000
,  // measure 5
0001
0001
0001
0000
,  // measure 6
0010
0010
0010
0000
,  // measure 7
0001
0001
0001
0000
,  // measure 8
1000
1000
1000
0000
,  // measure 9
0100
0100
0100
0000
,  // measure 10
1000
1000
1000
0000
,  // measure 11
0010
0010
0010
0000
,  // measure 12
1000
1000
0000
1001
,  // measure 13
0001
0001
0000
1001
,  // measure 14
1000
1000
0000
1001
,  // measure 15
0010
0010
0010
0000
,  // measure 16
0001
0000
0001
0000
,  // measure 17
0100
0000
0100
0000
,  // measure 18
0010
0000
0010
0000
,  // measure 19
1000
0000
1000
0000
,  // measure 20
0100
0000
0100
0000
,  // measure 21
0010
0000
0010
0000
,  // measure 22
0001
0000
0001
0000
,  // measure 23
1000
0000
1000
1000
,  // measure 24
1000
1000
1000
0000
,  // measure 25
0001
0001
0001
0000
,  // measure 26
0010
0010
0010
0000
,  // measure 27
0001
0001
0001
0000
,  // measure 28
0100
0100
0100
0000
,  // measure 29
0001
0001
0001
0000
,  // measure 30
1000
1000
1000
0000
,  // measure 31
0010
0010
0010
0000
,  // measure 32
0100
0000
0100
0000
,  // measure 33
0001
0000
0001
0000
,  // measure 34
1000
0000
1000
0000
,  // measure 35
0010
0000
0010
0000
,  // measure 36
1000
1000
1000
0000
,  // measure 37
0001
0001
0001
0000
,  // measure 38
0010
0010
0010
0000
,  // measure 39
0100
0100
0100
0000
,  // measure 40
1000
1001
1000
0000
,  // measure 41
0001
0001
0001
0000
,  // measure 42
0010
0010
0010
0000
,  // measure 43
0001
0001
0001
0000
,  // measure 44
1000
1000
1000
0000
,  // measure 45
0010
0010
0010
0000
,  // measure 46
0100
0100
0100
0000
,  // measure 47
0001
0001
0001
0001
;

//---------------dance-single - ---------------
#NOTEDATA:;
#CHARTNAME:;
#CHARTSTYLE:;
#CREDIT:;
#STEPSTYPE:dance-single;
#DESCRIPTION:;
#DIFFICULTY:Easy;
#METER:6;
#METERF:6;
#RADARVALUES:0,0,0,0,0;
#NOTES:
// measure 0
0000
0000
0000
0000
,  // measure 1
0000
0000
0000
0000
,  // measure 2
0000
0000
0000
0000
,  // measure 3
0000
0000
0000
0000
,  // measure 4
1000
0100
0010
0001
,  // measure 5
0100
0010
1000
0001
,  // measure 6
0010
0100
1000
0001
,  // measure 7
0100
0010
1000
0010
,  // measure 8
0100
0001
0010
0100
,  // measure 9
1000
0010
0100
0001
,  // measure 10
1000
0100
0010
0001
,  // measure 11
1000
0010
0001
0010
,  // measure 12
1000
0100
0010
0011
,  // measure 13
0001
0010
0100
1100
,  // measure 14
1000
0010
0100
0101
,  // measure 15
0001
0010
0100
1000
,  // measure 16
0200
1000
1000
1300
,  // measure 17
2000
0001
0001
3001
,  // measure 18
0002
0010
0010
0013
,  // measure 19
0020
0001
0001
0031
,  // measure 20
0002
0100
0100
0103
,  // measure 21
0200
0010
0010
0310
,  // measure 22
0020
1000
1000
1030
,  // measure 23
2000
0001
3001
1001
,  // measure 24
1000
0010
0001
0010
,  // measure 25
1000
0100
0001
0100
,  // measure 26
1000
0010
0100
0001
,  // measure 27
0010
0100
1000
0100
,  // measure 28
2100
0100
3100
0001
,  // measure 29
0102
0100
0103
1000
,  // measure 30
2010
0010
3010
0010
,  // measure 31
1000
0001
0100
0010
,  // measure 32
0200
0300
0200
0300
,  // measure 33
0002
0003
0002
0003
,  // measure 34
2000
3000
2000
3000
,  // measure 35
0020
0030
0020
0030
,  // measure 36
1000
0010
0100
0010
,  // measure 37
1000
0001
0010
0100
,  // measure 38
0010
0001
0100
0010
,  // measure 39
1000
0001
0010
0100
,  // measure 40
0010
0011
0010
0100
,  // measure 41
1000
0001
0100
0010
,  // measure 42
1000
0010
0100
0001
,  // measure 43
0010
0100
1000
0001
,  // measure 44
0100
0010
1000
0001
,  // measure 45
0010
0100
1000
0001
,  // measure 46
0100
0010
1000
0001
,  // measure 47
0010
0001
0100
1001
;

//---------------dance-single - ---------------
#NOTEDATA:;
#CHARTNAME:;
#CHARTSTYLE:;
#CREDIT:;
#STEPSTYPE:dance-single;
#DESCRIPTION:;
#DIFFICULTY:Medium;
#METER:10;
#METERF:10;
#RADARVALUES:0,0,0,0,0;
#NOTES:
// measure 0
0000
0000
0000
0000
,  // measure 1
0000
0000
0000
0000
,  // measure 2
0000
0000
0000
0000
,  // measure 3
0000
0000
0000
0000
,  // measure 4
1000
0000
0001
0000
0010
0001
1000
0000
,  // measure 5
0010
0000
0100
0000
0010
1000
0001
0000
,  // measure 6
0010
0000
0100
0000
1000
0001
0100
0000
,  // measure 7
0001
1000
0010
1000
,  // measure 8
0001
0000
0010
0000
0100
0010
0001
0000
,  // measure 9
0100
0000
0010
0000
1000
0010
0100
0000
,  // measure 10
0001
0000
1000
0000
0100
0010
0001
0000
,  // measure 11
1000
0010
0001
0010
,  // measure 12
1000
0000
0001
0000
0010
0100
1100
0000
,  // measure 13
1000
0000
0010
0000
0100
0001
0011
0000
,  // measure 14
0001
0000
0010
0000
0100
1000
1001
0000
,  // measure 15
2000
0000
3002
0000
0203
0000
0301
1000
,  // measure 16
0200
1300
2000
3001
,  // measure 17
0002
0103
0200
0310
,  // measure 18
0020
1030
2000
3001
,  // measure 19
0002
0000
0013
0000
0020
0000
0031
0001
,  // measure 20
2000
3000
1001
0000
0002
0003
1001
1000
,  // measure 21
0200
0300
1100
0000
2000
3000
1001
1000
,  // measure 22
0002
0003
0011
0000
0020
0030
0110
0100
,  // measure 23
0200
0300
1100
0000
1000
1000
0001
0001
,  // measure 24
1000
0000
0010
0000
0100
0010
1000
0000
,  // measure 25
0001
0000
0010
0000
0100
0010
0001
0000
,  // measure 26
0100
0000
0010
0000
1000
0001
0010
0000
,  // measure 27
0100
0000
0010
0000
0001
1000
0100
0000
,  // measure 28
2000
0000
3002
0000
0003
0000
0001
1000
,  // measure 29
0200
0000
2300
0000
3001
0000
0001
1000
,  // measure 30
0020
0000
2030
0000
3001
0000
0001
1000
,  // measure 31
0020
0000
0130
0010
1000
0010
0001
0010
,  // measure 32
2000
0000
3020
0000
,  // measure 33
0230
0000
0302
0000
,  // measure 34
0023
0000
0032
0000
,  // measure 35
0203
0000
0320
0000
,  // measure 36
1030
0000
0010
0000
0100
0010
1000
0000
,  // measure 37
0010
0010
0100
0100
1000
0001
1000
0001
,  // measure 38
1000
0000
0001
0000
0010
0100
1000
0000
,  // measure 39
1000
1000
0001
0001
0010
0100
0010
0100
,  // measure 40
2000
3000
1001
0000
1000
0010
0100
0010
,  // measure 41
1000
0000
1001
0000
0001
0010
0100
0010
,  // measure 42
0001
0000
1001
0000
1000
0001
0010
0001
,  // measure 43
1000
0000
1001
0000
0001
1000
0100
1000
,  // measure 44
0002
0003
1001
0000
2000
3000
1001
0000
,  // measure 45
0002
0003
0101
0000
0200
0300
0110
0000
,  // measure 46
0020
0030
1010
0000
0010
1000
0001
1000
,  // measure 47
0200
0000
2300
0000
3001
0100
0010
0110
;

//---------------dance-single - ---------------
#NOTEDATA:;
#CHARTNAME:;
#CHARTSTYLE:;
#CREDIT:;
#STEPSTYPE:dance-single;
#DESCRIPTION:;
#DIFFICULTY:Hard;
#METER:15;
#METERF:15;
#RADARVALUES:0,0,0,0,0;
#NOTES:
// measure 0
0000
0000
0000
0000
,  // measure 1
0000
0000
0000
0000
,  // measure 2
0000
0000
0000
0000
,  // measure 3
0000
0000
0000
0000
,  // measure 4
1000
0000
0100
1000
0010
0000
0100
0000
0001
0100
0010
0000
1000
0000
0001
0000
,  // measure 5
0010
0000
0100
1000
0001
0000
0100
0000
0010
0100
0001
0000
1000
0000
0100
0000
,  // measure 6
0010
0000
0100
1000
0010
0000
0100
0000
1000
0100
0001
0000
1000
0000
0100
0000
,  // measure 7
0010
0000
0001
0010
0000
1000
0010
0000
0002
0000
1000
0000
0013
0000
0100
0000
,  // measure 8
1100
0000
0100
1000
0001
0000
0100
0000
0001
0100
0010
0000
1000
0000
0100
0000
,  // measure 9
0010
0000
0001
1000
0010
0000
0100
0000
1000
0100
0001
0000
0010
0000
0100
0000
,  // measure 10
0001
0000
0100
0010
0001
0000
0100
0000
0010
0100
1000
0000
0100
0000
0001
0000
,  // measure 11
1000
0000
0100
0001
0000
0100
1000
0000
0002
0000
0100
0000
0013
0000
1000
0000
,  // measure 12
0100
0010
0000
0001
0010
0000
0100
0000
1000
0000
0001
0000
2002
3003
0000
0000
,  // measure 13
0001
1000
0000
0010
0100
0000
0001
0000
1000
0000
0100
0000
0220
0330
0000
0000
,  // measure 14
0001
0010
0000
1000
0010
0000
0001
0000
0100
0000
0010
0000
2020
3030
0000
0000
,  // measure 15
1000
0000
0000
0000
0010
0000
0000
0000
0100
0000
0000
0000
0001
0000
0000
0000
0010
0000
0000
0000
0100
0000
0000
0000
2000
0000
0000
0000
0000
0000
0000
0000
0000
0000
0000
0000
3001
0000
0000
1000
0000
0000
0000
0000
0000
1000
0000
0000
,  // measure 16
0200
1300
2000
3001
,  // measure 17
0002
0013
0020
0130
,  // measure 18
0200
1300
2000
3010
,  // measure 19
0020
0000
0000
0000
0031
0000
0000
0000
0002
0000
0000
0000
0013
0001
0000
0001
,  // measure 20
2000
0000
3010
0000
0000
0010
0000
1000
0200
0000
0310
0000
0000
0010
0000
0001
,  // measure 21
0200
0000
0310
0000
0000
0010
0000
1000
0200
0000
0310
0000
0000
0100
0000
1000
,  // measure 22
0002
0000
0013
0000
0000
0001
0000
1000
0020
0000
0130
0000
1001
0000
0001
0000
,  // measure 23
2020
0030
3000
0010
2000
0000
3001
0000
0001
0010
0100
0010
0002
0000
1003
0000
,  // measure 24
1001
1000
0100
0010
0001
0100
0010
1000
0001
0010
0100
1000
0010
0100
0001
1000
,  // measure 25
1100
1000
0010
0100
0001
0010
0100
1000
0010
0100
1000
0100
0001
1000
0100
0010
,  // measure 26
0110
0010
0001
0100
0010
1000
0001
0010
0100
1000
0010
0100
0001
0010
0100
1000
,  // measure 27
1100
0100
0010
0001
0100
1000
0100
0001
0010
0100
1000
0001
0100
0000
1001
0000
,  // measure 28
1000
0000
0000
0000
0001
0000
0000
0000
0010
0000
0000
0000
0001
0000
0000
0000
1000
0000
0000
0000
0010
0000
0000
0000
0100
0000
0000
0002
0000
0000
0003
0000
0000
0001
0000
0000
1000
0000
0000
0000
0000
0000
0101
0000
0000
0000
0000
0000
,  // measure 29
0001
0000
0000
0000
1000
0000
0000
0000
0010
0000
0000
0000
1000
0000
0000
0000
0001
0000
0000
0000
0010
0000
0000
0000
0100
0000
0000
1000
0000
0000
0000
0000
0000
1000
0000
0000
0010
0000
0000
0000
0000
0000
0100
0000
0000
0000
0000
0000
,  // measure 30
0001
0000
0010
0000
0100
0000
1000
0000
0010
0000
1000
0000
0200
0000
0000
1300
0000
0000
0020
0000
0000
0130
0000
0000
,  // measure 31
0102
0000
0003
0100
0010
0000
0110
0000
0000
0000
0000
0000
0000
1000
0000
1000
,  // measure 32
0002
0000
0013
0000
0000
0010
0000
0010
0002
0000
1003
0000
0000
1000
0000
1000
,  // measure 33
0200
0000
0310
0000
0000
0001
0000
0001
0200
0000
0310
0000
0000
1000
0000
0001
,  // measure 34
0020
0000
0130
0000
0000
0010
0000
0001
2000
0000
3001
0000
0010
0000
0100
0000
,  // measure 35
2000
0000
3000
1000
0002
0000
1003
0000
2000
0000
3001
0000
0002
0000
1003
0000
,  // measure 36
1000
0010
0100
0001
0010
0100
1000
0001
0100
0010
1000
0100
0010
1000
0010
0100
,  // measure 37
1000
0001
0100
0010
1000
0100
0001
0100
1000
0010
0100
0001
0010
1000
0010
0100
,  // measure 38
1000
0010
0100
1000
0100
0001
1000
0100
0010
0001
0100
0100
0010
0010
1000
1000
,  // measure 39
1001
0000
0001
1000
0010
0000
1010
0000
0010
1000
0001
1000
0010
0000
0110
0000
,  // measure 40
0010
0010
0010
0010
0110
0000
0010
0100
0001
0010
0100
1000
0010
0100
0001
0010
,  // measure 41
0100
1000
0001
0100
0010
1000
0100
0010
0001
0100
1000
0100
0001
0010
1000
0010
,  // measure 42
0001
0100
0010
1000
0100
0010
0001
1000
0010
0100
1000
0100
0001
0010
0100
1000
,  // measure 43
0002
0003
0001
0200
0300
0100
0020
0030
0010
1000
0001
0010
0100
0000
0110
0000
,  // measure 44
1001
1000
0010
0100
0001
0010
0100
1000
0010
0100
1000
0100
0001
0010
0100
0001
,  // measure 45
0100
0010
0001
0100
0010
1000
0001
0100
1000
0100
0001
0010
0100
1000
0010
0100
,  // measure 46
0001
0010
0100
1000
0010
0100
0001
1000
0100
0010
0001
0100
0010
1000
0010
0100
,  // measure 47
0002
0000
0003
0001
2000
3000
1001
0000
1000
0010
0100
0010
1000
0000
2002
0000
,  // measure 48
3003
0000
0000
0000
;
