#TITLE:SUPER STAR (FROM NONSTOP MEGAMIX) (D.U.S Special);
#SUBTITLE:;
#ARTIST:D.J. RICH feat. TailBros.;
#MUSIC:SUPER STAR (FROM NONSTOP MEGAMIX) (D.U.S Special).ogg;
#BANNER:SUPER STAR (FROM NONSTOP MEGAMIX) (D.U.S Special).png;
#BACKGROUND:SUPER STAR (FROM NONSTOP MEGAMIX) (D.U.S Special)-bg.png;
#LYRICSPATH:;
#CDTITLE:;
#SAMPLESTART:37.66;
#SAMPLELENGTH:20;
#OFFSET:1.684;
#BPMS:0.000000=128.000000;
#STOPS:;
#TIMESIGNATURES:0.000000=4=4;
#BGCHANGES:;
#FGCHANGES:;
#ATTACKS:;
#SPEEDS:0.000000=1.000000=0.000000=0;
#SCROLLS:0.000000=1.000000;
#KEYSOUNDS:;

//---------------dance-single - ---------------
#NOTES:
     dance-single:
     :
     Challenge:
     17:
     0,0,0,0,0:
// measure 0
0000
0000
0000
0000
,  // measure 1
0000
0000
0000
0000
,  // measure 2
0000
0000
0000
0000
,  // measure 3
1000
0001
0100
0000
2002
0000
3003
0000
,  // measure 4
0001
0000
1000
0000
0100
0000
1001
0000
0010
1000
0001
0100
0001
0100
0010
1000
,  // measure 5
1001
0000
1100
0000
0101
0000
0000
0001
0100
0001
0010
0000
1010
0000
0101
0000
,  // measure 6
1100
0000
0101
0000
1001
0000
1000
0100
0000
0001
0100
0000
1100
0000
0011
0000
,  // measure 7
1010
0000
0101
0000
1001
0000
0001
0100
0010
1000
0010
0001
0010
1000
0100
0000
,  // measure 8
1100
0000
0101
0000
1001
0000
0001
0200
1000
0000
0301
0000
0001
0010
1000
0010
,  // measure 9
0220
0000
0000
0000
0330
0000
0001
0100
0010
0000
0100
0000
0101
1010
0000
0000
,  // measure 10
1000
0001
0010
0001
0100
0000
1001
0000
1000
0100
0001
0100
1000
0010
0100
0010
,  // measure 11
1000
0000
0000
0100
0000
0000
1001
0000
0000
0010
0000
0000
0001
0000
0100
0000
0001
0000
1000
0000
0100
0000
1000
0000
,  // measure 12
0001
0100
0010
0100
1000
0100
0010
0100
0001
1000
0100
0000
0011
1100
0000
0000
,  // measure 13
0001
0100
0010
1000
0000
0022
0033
0000
0001
0000
0001
1000
0010
0000
0110
0010
,  // measure 14
1000
0100
0001
0000
0101
0100
1000
0010
0100
0000
0001
0100
0000
0010
1000
0100
,  // measure 15
0010
0000
0010
0100
0000
1000
0000
0010
0100
0001
0010
0100
1000
0010
0100
0001
,  // measure 16
1001
0000
2002
0000
3003
1000
0001
0010
0100
0000
0110
0100
1001
0000
0000
0000
,  // measure 17
1000
0100
0001
0100
1000
0010
0001
0010
1000
0100
0001
0100
1000
0000
1001
0000
,  // measure 18
0001
0000
0001
0010
1000
0000
1000
0010
0001
0100
1000
0000
1100
0000
0101
0000
,  // measure 19
1000
0010
0100
1000
0100
0010
1000
0100
0010
1000
0010
0100
1000
0001
0100
0010
,  // measure 20
2020
0000
0000
0000
3030
1000
0010
0100
0010
0000
1010
0010
0011
0000
0000
0000
,  // measure 21
1010
0000
0011
0000
1001
0000
0001
0010
0100
1000
0010
0000
1010
0000
0101
0000
,  // measure 22
1100
0000
0011
0000
0110
0000
0010
0100
0000
1000
0001
0000
0101
0000
0110
0000
,  // measure 23
1010
0000
0011
0000
1001
0000
1000
0001
0010
0100
1000
0100
0010
0100
1000
0100
,  // measure 24
0001
0000
0100
0000
1001
0000
1000
0010
0100
0000
0101
0000
0001
0100
0010
1000
,  // measure 25
0001
0010
0000
0100
1000
0000
1000
0001
0100
0000
1001
0000
1100
1000
0001
0100
,  // measure 26
0010
1000
0100
0001
0100
1000
0010
0100
0002
0003
0001
0020
0030
0010
0100
1000
,  // measure 27
1001
1000
0001
0100
1000
0100
0010
1000
0100
0001
0100
1000
0002
0000
0000
1003
,  // measure 28
0100
0001
0100
1000
0002
0003
1000
0100
0010
0001
0100
0010
2000
3000
1001
0000
,  // measure 29
0011
0000
0110
0000
2200
0000
3300
1000
0001
0200
0000
0320
0000
1030
0010
0100
,  // measure 30
0110
0010
1000
0001
0010
0100
1000
0010
0100
0002
0000
2003
0000
0000
3100
1000
,  // measure 31
0100
1000
0010
0100
0001
0010
0100
1000
0010
0100
0001
1000
0200
0000
0000
0000
,  // measure 32
1300
0010
0100
0001
0010
0100
1000
0001
0100
1000
0100
0001
0010
0100
1000
0010
,  // measure 33
0100
0002
0000
1003
0010
0100
0001
2000
0000
3010
0100
0010
1000
0002
0000
0000
,  // measure 34
0013
0001
0100
0010
1000
0010
0100
0001
0020
0000
0032
0003
1001
0001
0000
0100
,  // measure 35
0010
1000
0001
0010
0001
0100
0010
1000
0001
0010
1000
0010
0100
1000
0010
0100
,  // measure 36
0001
0010
0100
0010
0001
0100
1000
0100
0001
0010
0100
1000
0010
0000
0110
0000
,  // measure 37
0200
0000
0000
0000
,  // measure 38
0302
0000
0000
2003
0000
0000
3002
0003
,  // measure 39
1001
1000
0010
0000
0220
0000
0330
0000
,  // measure 40
0101
0000
0001
0000
0010
0000
0000
0000
0110
0010
0100
1000
0010
0100
0001
0010
,  // measure 41
1000
0010
0001
0100
0010
1000
0100
1000
0010
0100
0001
0100
0010
1000
0001
1000
,  // measure 42
0100
0010
0001
0010
0100
1000
0001
1000
0010
0100
1000
0100
0020
0000
0030
0010
,  // measure 43
1000
0001
0010
0100
1000
0001
0020
0000
0031
0100
0010
1000
0001
0010
0100
1000
,  // measure 44
0002
0003
1001
0000
0000
0000
0000
0000
0000
1000
0001
0010
0200
0300
0100
0010
,  // measure 45
0001
0100
0010
1000
0100
0010
1000
0010
0100
1000
0010
0100
0002
0003
1001
0000
,  // measure 46
0001
0010
0100
0001
0100
0010
0001
0100
0010
1000
0100
0010
2000
3000
1010
0000
,  // measure 47
0010
0001
0100
1000
0100
0010
2000
0000
3002
0003
0001
0020
0030
0010
0100
1000
,  // measure 48
0001
0100
0010
1000
0200
0300
1000
0200
0300
1000
0010
0100
0002
0000
0203
0300
,  // measure 49
0220
0000
0000
0330
;

//---------------dance-double - ---------------
#NOTES:
     dance-double:
     :
     Challenge:
     17:
     0,0,0,0,0:
// measure 0
00000000
00000000
00000000
00000000
,  // measure 1
00000000
00000000
00000000
00000000
,  // measure 2
00000000
00000000
00000000
00000000
,  // measure 3
00002000
00000000
00023000
00000000
00030200
00000000
00000000
00000300
00002200
00000000
00000000
00000000
00003300
00000000
00000000
00000000
,  // measure 4
00000200
00000000
00020300
00000000
00032000
00003000
00011000
00000000
00010000
01000000
10000000
00100000
01000000
00010000
00100000
01000000
,  // measure 5
11000000
00000000
01010000
00000000
02200000
00000000
03300000
00100000
01000000
00010000
00100000
00000000
00110000
00000000
00011000
00000000
,  // measure 6
00001100
00000000
00011000
00000000
00110000
00000000
00100000
01000000
00000000
10000000
00010000
00000000
01010000
00000000
00011000
00000000
,  // measure 7
00001010
00000000
00011000
00000000
01010000
00000000
00010000
00100000
01000000
00100000
00010000
00000000
01010000
00000000
00011000
00000000
,  // measure 8
00001100
00000000
00011000
00000000
01010000
00000000
00010000
00100000
02000000
03000000
01100000
00000000
01000000
10000000
00100000
01000000
,  // measure 9
02020000
00000000
00000000
00000000
03030000
00000000
00010000
01000000
00001000
00000000
00100000
00000000
00101000
00011000
00000000
00000000
,  // measure 10
00001000
00010000
00000100
00001000
00000010
00000000
00000110
00000000
00000010
00000100
00000001
00000010
00000100
00001000
00000010
00000100
,  // measure 11
00000001
00000000
00000000
00000010
00000000
00000000
00001100
00000000
00000000
00001000
00000000
00000000
00000001
00000000
00000100
00000000
00001000
00000000
00010000
00000000
01000000
00000000
10000000
00000000
,  // measure 12
00010000
01000000
00100000
10000000
01000000
00100000
10000000
00100000
01000000
10000000
00100000
00000000
10100000
10010000
00000000
00000000
,  // measure 13
10000000
00010000
00100000
00210000
00300000
02100000
00000000
00000000
13000000
00000000
10000000
00010000
00100000
00000000
10000000
00100000
,  // measure 14
01000000
00010000
00100000
00000000
00110000
00100000
01000000
10000000
00200000
00000000
00310000
00200000
00000000
00000000
10300000
00010000
,  // measure 15
00200000
00000000
01300000
21000000
00000000
00000000
00000000
30010000
01000000
00001000
00010000
00000100
00001000
00000001
00001000
00000010
,  // measure 16
00002020
00003030
00022000
00000000
00033000
00000000
00010000
01000000
10000000
00000000
00010000
00200000
00000000
00300000
01000000
00100000
,  // measure 17
00010000
01000000
00001000
00010000
00000100
00001000
00000001
00000010
00000100
00001000
00000010
00000100
00000001
00000000
00000101
00000000
,  // measure 18
00000001
00000010
00000100
00001000
00000020
00000000
00000130
00000010
00001000
00000000
00000100
00010000
00001000
00000000
00110000
00000000
,  // measure 19
00100000
01000000
10000000
00010000
01000000
10000000
01000000
00010000
00100000
01000000
10000000
00100000
01000000
00010000
00100000
00010000
,  // measure 20
02010000
00000000
00000000
00000000
03000000
00010000
01000000
00010000
00100000
00000000
01100000
00100000
00110000
00000000
00000000
00000000
,  // measure 21
10010000
00000000
00011000
00000000
00110000
00000000
00010000
00100000
01000000
00100000
00010000
00000000
00110000
00000000
00011000
00000000
,  // measure 22
00001100
00000000
00000101
00000000
00001001
00000000
00000001
00000100
00000000
00000100
00000010
00000000
00001010
00000000
00011000
00000000
,  // measure 23
00110000
00000000
10010000
00000000
01100000
00000000
10000000
00100000
01000000
00010000
00100000
01000000
10000000
00100000
01000000
00010000
,  // measure 24
10000000
00000000
00100000
00000000
01100000
00000000
10000000
01000000
00100000
00000000
01100000
00000000
00100000
00010000
00100000
00010000
,  // measure 25
01000000
00001000
00000000
00001000
00010000
00000000
00010000
00000100
00000010
00000000
00000011
00000000
00000010
00000001
00000100
00000010
,  // measure 26
00001000
00000100
00010000
00001000
00100000
00010000
01000000
00100000
20000000
30000000
10000000
00020000
00030000
00010000
00100000
01000000
,  // measure 27
11000000
01000000
00100000
00010000
01000000
00100000
10000000
01000000
00100000
00010000
00100000
01000000
20000000
00000000
30000000
01000000
,  // measure 28
00010000
01000000
00100000
01000000
20000000
30000000
10000000
00100000
01000000
00010000
00100000
01000000
20000000
00000000
30010000
00000000
,  // measure 29
00110000
00000000
00101000
00000000
00010010
00000000
00000000
00000010
00000100
00000002
00000000
00002003
00000000
00003100
00010000
00001000
,  // measure 30
00011000
00001000
00100000
00010000
02000000
03000000
01000000
00100000
10000000
00020000
00000000
02030000
03000000
01000000
00000000
00100000
,  // measure 31
10000000
00100000
01000000
00010000
00100000
00010000
01000000
00001000
00000100
00000010
00001000
00000001
00002002
00000000
00003003
00000000
,  // measure 32
00000001
00000010
00000100
00000010
00000001
00000100
00001000
00000100
00000010
00010000
00001000
00100000
01000000
10000000
00100000
01000000
,  // measure 33
00010000
00200000
00300000
00100000
01000000
10000000
00010000
00200000
00300000
00100000
01000000
00100000
00010000
00200000
00000000
00300000
,  // measure 34
00100000
00000000
00100000
01000000
10000000
00010000
01000000
10000000
02000000
00000000
03020000
00030000
10010000
00020000
00000000
10030000
,  // measure 35
01000000
00010000
01000000
10000000
00100000
01000000
00010000
00100000
00000010
00000100
00000001
00001000
00000100
00000001
00000100
00001000
,  // measure 36
00000010
00000100
00001000
00000001
00001000
00000100
00000010
00010000
00000100
00100000
00001000
01000000
00020000
00030000
10010000
00000000
,  // measure 37
20000000
00000000
00000000
00000000
,  // measure 38
30020000
00000000
00000000
00000000
00000000
00000000
00032000
00000000
00000000
00000000
00000000
00000000
00003002
00000000
00000000
00000003
,  // measure 39
00001001
00001000
00000010
00000000
00000220
00000000
00000330
00000000
,  // measure 40
00011000
00000000
00001000
00000000
00100000
00000000
00000000
00000000
01100000
00100000
01000000
10000000
00100000
01000000
00010000
00100000
,  // measure 41
01000000
10000000
00010000
10000000
01000000
00010000
00001000
00000100
00000010
00001000
00000010
00000100
00000001
00000010
00000100
00001000
,  // measure 42
00000010
00000100
00001000
00000100
00000001
00001000
00000100
00010000
00001000
00100000
01000000
10000000
00020000
00000000
00030000
00010000
,  // measure 43
01000000
10000000
01000000
00010000
10000000
00010000
00200000
00300000
00100000
01000000
10000000
00100000
01000000
00001000
00000100
00000001
,  // measure 44
00002000
00003000
00001010
00000000
00000000
00000000
00000000
00000000
00000000
00000010
00000100
00000001
00000020
00000000
00000130
00000010
,  // measure 45
00000001
00000100
00000010
00001000
00000100
00010000
00001000
00100000
00010000
01000000
00100000
10000000
00020000
00030000
10010000
00000000
,  // measure 46
10000000
00100000
01000000
00010000
00100000
00001000
00010000
00000100
00001000
00000010
00000100
00000001
00000020
00000030
00000100
00000020
,  // measure 47
00000030
00000001
00000010
00000100
00001000
00000010
00000100
00001000
00000200
00000300
00000010
00002000
00003000
00000100
00010000
00001000
,  // measure 48
00100000
01000000
10000000
00010000
02000000
03000000
10000000
02000000
03000000
00010000
00100000
01000000
20000000
00000000
30002000
00003000
,  // measure 49
00022000
00000000
00000000
00033000
;
