#VERSION:0.83;
#TITLE:SPARK!;
#SUBTITLE:-essential RMX-;
#ARTIST:Remixed by dj TAKA VS PINK PONG;
#TITLETRANSLIT:;
#SUBTITLETRANSLIT:;
#ARTISTTRANSLIT:;
#GENRE:;
#CREDIT:;
#ORIGIN:;
#MUSIC:SPARK! -essential RMX-.ogg;
#BANNER:SPARK! -essential RMX-.png;
#BACKGROUND:SPARK! -essential RMX--bg.png;
#JACKET:SPARK! -essential RMX--jacket.png;
#DISCIMAGE:;
#CDIMAGE:;
#SELECTABLE:YES;
#LYRICSPATH:;
#CDTITLE:;
#SAMPLESTART:77.637;
#SAMPLELENGTH:13.713999999999999;
#OFFSET:0.363;
#BPMS:0.000000=140.000000,
132.000000=70.000000,
154.000000=280.000000,
164.000000=560.000000,
168.000000=140.000000
;
#STOPS:;
#WARPS:;
#DELAYS:;
#SPEEDS:0.000000=1.000000=0.000000=0;
#SCROLLS:0.000000=1.000000,
154.000000=0.750000,
164.000000=1.000000
;
#TICKCOUNTS:;
#TIMESIGNATURES:0.000000=4=4;
#LABELS:;
#COMBOS:;
#FAKES:;
#BGCHANGES:;
#FGCHANGES:;
#ATTACKS:;
#KEYSOUNDS:;

//---------------dance-single - ---------------
#NOTEDATA:;
#CHARTNAME:;
#CHARTSTYLE:;
#CREDIT:;
#STEPSTYPE:dance-single;
#DESCRIPTION:;
#DIFFICULTY:Beginner;
#METER:4;
#METERF:4;
#RADARVALUES:0,0,0,0,0;
#NOTES:
// measure 0
0000
0000
0000
0000
,  // measure 1
1000
1000
1000
0000
,  // measure 2
0001
0001
0001
0000
,  // measure 3
0001
0001
0001
0000
,  // measure 4
1000
1000
1000
0000
,  // measure 5
0010
0010
0010
0000
,  // measure 6
0100
0100
0100
0000
,  // measure 7
0100
0000
0001
0000
,  // measure 8
1000
0000
0010
0000
,  // measure 9
1000
1000
1000
0000
,  // measure 10
0001
0001
0001
0000
,  // measure 11
0010
0010
0010
0000
,  // measure 12
0001
0001
0001
0001
,  // measure 13
0001
0000
1000
0000
,  // measure 14
0010
0010
0010
0000
,  // measure 15
0100
0000
0001
0000
,  // measure 16
0010
0010
0010
0000
,  // measure 17
0100
0000
1000
0000
,  // measure 18
0001
0000
0100
0000
,  // measure 19
0010
0010
0010
0000
,  // measure 20
1000
1000
1000
0000
,  // measure 21
0001
0000
0010
0000
,  // measure 22
0100
0000
1000
0000
,  // measure 23
0001
0001
0001
0000
,  // measure 24
0100
0100
0100
0000
,  // measure 25
0010
0000
1000
0000
,  // measure 26
0001
0000
0010
0000
,  // measure 27
0100
0000
1000
0000
,  // measure 28
0010
0000
0100
0000
,  // measure 29
0001
0000
0010
0000
,  // measure 30
0100
0000
1000
0000
,  // measure 31
0001
0000
0100
0000
,  // measure 32
0010
0000
1000
0000
,  // measure 33
0001
0000
0010
0000
,  // measure 34
0001
0000
1000
1000
,  // measure 35
1000
0000
0010
0000
,  // measure 36
0100
0000
0001
0000
,  // measure 37
1000
0000
0001
0001
,  // measure 38
1000
1000
2002
0000
,  // measure 39
0000
0000
0000
0000
,  // measure 40
3003
0000
0000
0000
,  // measure 41
0110
0000
0000
0000
,  // measure 42
0100
0100
0100
0000
,  // measure 43
0010
0010
0010
0000
,  // measure 44
1000
0000
0001
0000
,  // measure 45
0010
0010
0010
0000
,  // measure 46
0100
0100
0100
0000
,  // measure 47
1000
0000
0001
0000
,  // measure 48
0100
0000
0010
0000
,  // measure 49
2000
0000
3000
0000
,  // measure 50
0100
0100
0100
0000
,  // measure 51
0010
0010
0010
0000
,  // measure 52
0001
0001
0001
0000
,  // measure 53
1000
0000
1000
0000
,  // measure 54
0010
0010
0010
0000
,  // measure 55
0100
0100
0100
0000
,  // measure 56
0001
0001
0001
0000
,  // measure 57
0010
0000
0010
0000
,  // measure 58
0100
0100
0100
0000
,  // measure 59
1000
1000
1000
0000
,  // measure 60
0001
0001
0001
0000
,  // measure 61
0010
0010
0010
0000
,  // measure 62
0110
0000
0000
0000
;

//---------------dance-single - ---------------
#NOTEDATA:;
#CHARTNAME:;
#CHARTSTYLE:;
#CREDIT:;
#STEPSTYPE:dance-single;
#DESCRIPTION:;
#DIFFICULTY:Easy;
#METER:7;
#METERF:7;
#RADARVALUES:0,0,0,0,0;
#NOTES:
// measure 0
0000
0000
0000
0000
,  // measure 1
1000
0001
0100
0010
,  // measure 2
1000
0100
0010
0001
,  // measure 3
0100
0010
1000
0001
,  // measure 4
0010
0100
1000
0010
,  // measure 5
0100
1000
0100
0001
,  // measure 6
0010
0100
0001
0100
,  // measure 7
2000
0000
3020
0000
,  // measure 8
0032
0000
0023
0000
,  // measure 9
1030
0001
0010
0100
,  // measure 10
1000
0010
0100
0001
,  // measure 11
0010
1000
0001
0100
,  // measure 12
1000
0001
0100
0010
,  // measure 13
1000
0001
0010
1000
,  // measure 14
0010
0001
0100
0010
,  // measure 15
1000
0100
0010
0001
,  // measure 16
0100
0010
0001
0010
,  // measure 17
0100
0001
1000
0010
,  // measure 18
0200
0001
1000
0310
,  // measure 19
0010
1000
0001
0010
,  // measure 20
0100
1000
0001
0100
,  // measure 21
0010
1000
0001
0010
,  // measure 22
0100
1000
0010
0100
,  // measure 23
1000
0100
0001
0010
,  // measure 24
0220
0000
0330
1001
,  // measure 25
0001
0100
1000
0100
,  // measure 26
0001
0010
1000
0010
,  // measure 27
0001
0100
0010
1000
,  // measure 28
0100
0010
0001
1000
,  // measure 29
0010
0100
1000
0100
,  // measure 30
0001
0010
0100
0001
,  // measure 31
0100
1000
0001
0100
,  // measure 32
0010
1000
0001
0010
,  // measure 33
0220
0330
0022
0033
,  // measure 34
2002
3003
1000
0001
,  // measure 35
0100
0010
1000
0001
,  // measure 36
0010
0010
0001
1000
,  // measure 37
0010
0100
0001
0001
,  // measure 38
1000
1000
2002
0000
,  // measure 39
0000
0000
0000
0000
,  // measure 40
0000
0000
3003
0000
,  // measure 41
0110
0000
0000
0000
,  // measure 42
0100
0010
1000
0001
,  // measure 43
0010
0100
0110
0010
,  // measure 44
0001
1000
0010
0100
,  // measure 45
1000
0100
0010
1010
,  // measure 46
1000
0001
0010
0100
,  // measure 47
0001
0100
0010
0001
,  // measure 48
0100
0010
1000
0001
,  // measure 49
0020
0100
1000
0100
,  // measure 50
0031
0100
0010
1000
,  // measure 51
0001
0010
0100
1000
,  // measure 52
0010
0001
1000
0100
,  // measure 53
0001
0010
0100
1000
,  // measure 54
0010
0100
1000
0100
,  // measure 55
0001
0010
0100
0001
,  // measure 56
0100
1000
0010
0100
,  // measure 57
0001
0010
0100
1000
,  // measure 58
1010
0010
0100
0001
,  // measure 59
1000
0100
0010
0001
,  // measure 60
0100
0010
1000
0001
,  // measure 61
0010
0100
1000
0001
,  // measure 62
2002
0000
3003
0000
;

//---------------dance-single - ---------------
#NOTEDATA:;
#CHARTNAME:;
#CHARTSTYLE:;
#CREDIT:;
#STEPSTYPE:dance-single;
#DESCRIPTION:;
#DIFFICULTY:Medium;
#METER:11;
#METERF:11;
#RADARVALUES:0,0,0,0,0;
#NOTES:
// measure 0
0000
0000
0000
0000
,  // measure 1
0001
0000
1000
0000
0100
0010
0001
0000
,  // measure 2
0100
0000
0010
0000
1000
0001
0010
0000
,  // measure 3
0100
0000
1000
0000
0010
0100
1000
0000
,  // measure 4
0100
0000
0001
0000
0010
0100
0001
0000
,  // measure 5
0100
0000
1000
0000
0001
0100
0010
0000
,  // measure 6
1000
0000
0001
0000
0010
0100
1000
0000
,  // measure 7
0002
0103
2000
3100
,  // measure 8
0002
0013
2000
3010
,  // measure 9
0011
0000
0010
0000
0100
1000
0001
0000
,  // measure 10
0100
0000
0010
0000
1000
0001
0010
0000
,  // measure 11
0100
0000
1000
0000
0001
0100
0010
0000
,  // measure 12
0100
0000
0001
0000
1000
0010
0100
0000
,  // measure 13
0001
0000
1000
0000
0100
0010
0001
0000
,  // measure 14
0100
0000
0010
0000
0100
0010
1000
0000
,  // measure 15
0010
0000
0100
0000
0001
0010
1000
0000
,  // measure 16
0010
0100
1000
0000
0010
0100
0001
0000
,  // measure 17
2000
3200
0320
0032
,  // measure 18
0203
1000
0001
0310
,  // measure 19
0010
0100
0001
0000
0010
0100
1000
0000
,  // measure 20
0001
1000
0100
1000
0001
0100
0010
0000
,  // measure 21
0200
0302
2003
3020
,  // measure 22
0230
0001
1000
0310
,  // measure 23
0010
0000
1000
0001
0100
0000
0010
0100
,  // measure 24
0002
1000
1000
0103
,  // measure 25
0100
0001
0010
0000
0100
0000
1000
0000
,  // measure 26
0010
0100
1000
0000
0100
0000
0001
0000
,  // measure 27
0010
0100
0001
0000
0100
0000
1000
0000
,  // measure 28
0001
0100
1000
0000
0100
0000
0001
0000
,  // measure 29
0010
0100
0001
0000
0100
0000
1000
0000
,  // measure 30
0010
0100
1000
0000
0100
0000
0001
0000
,  // measure 31
0010
0100
0001
0000
0100
0000
0010
0000
,  // measure 32
0001
1000
0010
0000
0100
0010
1000
0001
,  // measure 33
2002
0000
0000
3003
0002
0000
0000
0000
,  // measure 34
2003
0000
0000
0000
3001
1000
0010
0100
,  // measure 35
0002
0000
2003
0000
,  // measure 36
3020
0100
0032
0010
,  // measure 37
0023
0100
0230
0001
0301
0001
1000
0100
,  // measure 38
0010
0010
0001
0010
0220
0000
0000
0000
,  // measure 39
0000
0000
0000
0000
,  // measure 40
0000
0330
0000
0000
,  // measure 41
1001
0000
0000
0000
,  // measure 42
1000
0000
0001
0000
0100
0001
0010
0000
,  // measure 43
0100
1000
0010
1010
0000
1000
0010
0000
,  // measure 44
0100
0100
0001
0000
1000
1000
0010
0000
,  // measure 45
2000
3002
0023
0230
,  // measure 46
1300
0000
0001
0000
0100
0010
0100
0000
,  // measure 47
0001
0010
0100
1100
0000
0100
1000
0000
,  // measure 48
0002
0203
0320
2030
,  // measure 49
3002
1000
0010
1003
,  // measure 50
1001
2000
3200
0320
,  // measure 51
0031
0002
0203
0320
,  // measure 52
1030
2000
3002
0023
,  // measure 53
0230
0001
1000
0010
,  // measure 54
1300
2000
3002
0203
,  // measure 55
0310
0020
2030
3002
,  // measure 56
0103
0200
0320
2030
,  // measure 57
3002
0100
1000
0103
,  // measure 58
0100
0001
0010
0000
0100
1000
0010
0000
,  // measure 59
0100
0001
1000
0000
0100
1000
0001
0000
,  // measure 60
0100
0001
1000
0000
0100
1000
0001
0000
,  // measure 61
0100
0010
1000
0001
0010
0100
1000
0000
,  // measure 62
1001
0000
0000
0000
;

//---------------dance-single - ---------------
#NOTEDATA:;
#CHARTNAME:;
#CHARTSTYLE:;
#CREDIT:;
#STEPSTYPE:dance-single;
#DESCRIPTION:;
#DIFFICULTY:Hard;
#METER:16;
#METERF:16;
#RADARVALUES:0,0,0,0,0;
#NOTES:
// measure 0
0000
0000
0000
0000
,  // measure 1
1000
0000
0001
0000
0010
0000
0100
0010
0001
0000
0100
0000
0010
0000
1000
0001
,  // measure 2
0010
0000
0100
0000
1000
0000
0001
0100
0010
0000
0001
0000
0010
0000
0100
0001
,  // measure 3
0010
0000
0100
0000
1000
0000
0001
0100
0010
0000
0001
0000
0010
0000
1000
0001
,  // measure 4
0010
0000
1000
0000
0010
0000
0001
1000
0010
0000
0100
0000
0001
0000
1000
0100
,  // measure 5
0010
0000
0001
0000
1000
0000
0010
1000
0100
0000
0010
0000
0001
0000
1000
0001
,  // measure 6
0100
0000
0010
0000
0100
0000
0001
0010
0100
0000
1000
0000
0010
0000
0001
0010
,  // measure 7
0200
0000
0302
0000
,  // measure 8
1003
0100
0010
0001
1000
0010
0100
0001
0200
0000
0000
0000
0320
0000
0000
0000
,  // measure 9
1030
0000
1000
0010
0100
0000
0100
0001
0010
0100
1000
0010
0100
0000
0101
0000
,  // measure 10
0100
0001
0010
0100
1000
0010
0100
1000
0100
0001
0010
0100
2000
0000
3010
0000
,  // measure 11
1010
0000
1000
0010
0100
0000
0100
0001
0010
0100
1000
0001
0100
0000
0101
0000
,  // measure 12
0001
0000
0100
0010
1000
0000
1010
0000
1000
0010
0001
0010
1000
0100
0001
0100
,  // measure 13
1000
0000
0001
0100
0010
0000
1000
0001
0010
0100
1000
0001
0100
0000
0110
0000
,  // measure 14
0100
0000
0010
1000
0001
0000
0010
1000
0001
0100
1000
0001
0100
0000
0110
0000
,  // measure 15
0010
0000
1000
0010
0100
0000
0001
0010
0100
0000
1000
0000
0010
0000
0200
0000
,  // measure 16
0301
0000
0010
0000
1000
0000
0200
0000
0310
0000
0010
0001
1000
0010
0100
0001
,  // measure 17
0020
0032
0023
2030
,  // measure 18
3020
0000
0030
0010
0001
1000
0010
0100
,  // measure 19
0001
0000
1000
0100
0010
0000
0001
0100
0010
1000
0001
0010
0100
0000
1000
0001
,  // measure 20
0000
0001
0100
0010
1000
0000
0001
0000
0100
0010
1000
0010
0100
0001
0010
0001
,  // measure 21
0200
0320
2030
3002
,  // measure 22
0203
0000
0300
0100
0001
0010
0100
1000
,  // measure 23
0001
0000
0100
0000
0010
0100
0000
0002
0000
0000
1003
0000
0100
0010
0000
2002
,  // measure 24
0000
0000
0000
0000
3003
0220
0000
0330
,  // measure 25
0100
0000
0010
0000
1000
0001
0000
0020
0000
0000
0031
0100
0010
1000
0001
0010
,  // measure 26
0100
0000
1000
0000
0001
0100
0000
0020
0000
0000
1030
0010
0100
0001
0010
0100
,  // measure 27
1000
0000
0001
0000
0100
0010
0000
2000
0000
0000
3001
0010
0100
1000
0001
0100
,  // measure 28
1000
0000
0100
0000
0010
1000
0000
0002
0000
0000
0013
0001
0100
0010
1000
0001
,  // measure 29
0010
0000
0100
0000
1000
0001
0000
0200
0000
0000
1300
0100
0010
1000
0001
0010
,  // measure 30
0100
0000
1000
0000
0001
0100
0000
0020
0000
0000
1030
0010
0100
0001
0010
0100
,  // measure 31
1000
0000
0001
0000
0100
0010
0000
2000
0000
0000
3001
0010
0100
1000
0001
0100
,  // measure 32
0010
1000
0001
0010
0100
1000
0010
0200
0002
0000
0000
0000
0303
0000
0000
0000
,  // measure 33
1001
0000
0000
0000
0001
1000
0010
0100
0002
0000
0000
0000
1003
0100
0010
0001
,  // measure 34
2000
0000
0000
0000
0000
0000
0000
0000
0000
0000
3001
0000
1000
0000
0010
0000
0100
0010
1000
0001
0010
0100
1000
0010
0100
0001
0010
0100
1000
0010
0100
1000
,  // measure 35
0200
0000
0000
0000
0000
0000
0000
0000
0000
0000
0301
0000
0010
0000
0100
0000
2000
0000
0000
3002
0000
0000
0203
0000
0000
0000
0000
0000
0000
0000
0301
1000
,  // measure 36
0200
0000
0300
0100
1000
0010
0100
0002
0000
0000
0000
0013
0100
1000
0001
0010
,  // measure 37
0100
0000
1000
0000
0001
0000
0010
0000
0100
0000
1000
0000
0001
0000
0010
0000
0110
0000
0000
1100
0000
0000
1001
0000
0000
0101
0000
0000
0001
0100
0010
0100
,  // measure 38
0101
0000
0000
0110
0000
0000
1010
0000
0000
1001
0000
0000
1000
0100
0010
0001
2002
0000
0000
0000
0000
0000
0000
0000
0000
0000
0000
0000
0000
0000
0000
0000
,  // measure 39
0000
0000
0000
0000
,  // measure 40
0000
0000
3003
0000
,  // measure 41
0110
0000
0000
0000
,  // measure 42
1001
0000
0001
0100
0010
1000
0010
1000
0002
0000
0000
0013
0000
0000
0022
0000
,  // measure 43
0033
0000
0011
0000
1001
0000
2020
0000
0000
0000
3030
0000
1010
0000
1000
0010
,  // measure 44
0100
0001
0010
0100
1000
0001
0100
0001
1000
0010
0100
0020
0000
0000
2030
0000
,  // measure 45
0000
3200
2300
3020
0000
0032
0000
0000
,  // measure 46
0013
0000
0010
0001
0100
0010
0100
0010
2000
0000
0000
3001
0000
0000
2002
0000
,  // measure 47
3003
0000
1000
0000
0010
0000
0200
0000
0000
0000
0301
0010
0100
1000
0010
0100
,  // measure 48
0002
0000
0000
0000
2003
0000
0000
0000
3200
0000
0000
2300
0000
0000
3002
0000
,  // measure 49
1000
0000
0100
0000
0010
0000
0100
0000
1003
0000
1000
0000
0100
0010
0001
0010
,  // measure 50
0200
2300
3002
0203
,  // measure 51
0320
2030
3002
0023
,  // measure 52
0230
2300
3002
0203
,  // measure 53
0320
0000
0000
0000
0000
0000
1030
0010
0200
0000
0000
0000
0001
0000
0000
0000
,  // measure 54
0302
2003
3200
0320
,  // measure 55
0032
0203
0320
2030
,  // measure 56
3002
0023
0230
2300
,  // measure 57
3001
0100
0010
1000
0001
0010
0100
1000
0010
0100
1000
0100
0010
1000
0001
0010
,  // measure 58
0100
0000
1000
0001
0100
0000
0010
0100
0001
0000
0010
0100
1000
0000
0010
0100
,  // measure 59
1000
0000
0100
0001
0010
0000
0100
1000
0010
0000
0100
0001
0010
0000
0100
0001
,  // measure 60
1000
0001
0100
1000
0010
0100
1000
0001
1000
0100
0010
1000
0001
0010
0100
1000
,  // measure 61
0010
0100
0001
0010
0100
1000
0010
0001
0010
1000
0001
0010
0100
1000
0010
0100
,  // measure 62
0202
0000
0303
0000
;
