#VERSION:0.83;
#TITLE:Replay;
#SUBTITLE:(Live from Tel Aviv , Israel, 2019);
#ARTIST:Tamta;
#TITLETRANSLIT:;
#SUBTITLETRANSLIT:;
#ARTISTTRANSLIT:;
#GENRE:;
#CREDIT:;
#MUSIC:Replay (Live from Tel Aviv, Israel, 2019).ogg;
#BANNER:Replay (Live from Tel Aviv, Israel, 2019).png;
#BACKGROUND:Replay (Live from Tel Aviv, Israel, 2019)-bg.png;
#JACKET:Replay (Live from Tel Aviv, Israel, 2019)-jacket.png;
#DISCIMAGE:;
#CDIMAGE:;
#SELECTABLE:YES;
#LYRICSPATH:;
#CDTITLE:;
#SAMPLESTART:29.879;
#SAMPLELENGTH:18.824;
#OFFSET:-1.644;
#BPMS:0.000000=102.000000;
#STOPS:;
#WARPS:;
#DELAYS:;
#SPEEDS:0.000000=1.000000=0.000000=0;
#SCROLLS:0.000000=1.000000;
#TICKCOUNTS:;
#TIMESIGNATURES:0.000000=4=4;
#LABELS:;
#COMBOS:;
#FAKES:;
#BGCHANGES:;
#FGCHANGES:;
#ATTACKS:;
#KEYSOUNDS:;

//---------------dance-single - ---------------
#NOTEDATA:;
#CHARTNAME:;
#CHARTSTYLE:;
#CREDIT:;
#STEPSTYPE:dance-single;
#DESCRIPTION:;
#DIFFICULTY:Beginner;
#METER:4;
#METERF:4;
#RADARVALUES:0,0,0,0,0;
#NOTES:
// measure 0
0000
0000
0000
0000
,  // measure 1
0000
0000
0000
0000
,  // measure 2
0000
0000
0000
0000
,  // measure 3
0000
0000
0000
0000
,  // measure 4
1000
0000
0100
0000
,  // measure 5
1000
1000
1000
0000
,  // measure 6
0001
0000
0100
0000
,  // measure 7
0010
0000
0100
0000
,  // measure 8
0001
0000
0010
0000
,  // measure 9
0100
0100
0100
0000
,  // measure 10
1000
0000
0010
0000
,  // measure 11
0100
0000
0010
0000
,  // measure 12
0220
0000
0330
0000
,  // measure 13
0200
0000
0300
0000
,  // measure 14
0002
0000
0003
0000
,  // measure 15
2000
0000
3000
0000
,  // measure 16
0010
0010
0010
0000
,  // measure 17
1000
1000
1000
0000
,  // measure 18
0010
0010
0010
0000
,  // measure 19
0200
0000
0300
0000
,  // measure 20
0101
0000
1010
0000
,  // measure 21
0001
0001
0001
0000
,  // measure 22
0011
0000
1100
0000
,  // measure 23
1001
0000
0001
0001
,  // measure 24
0110
0000
1001
0000
,  // measure 25
1000
1000
1000
0000
,  // measure 26
1001
0000
0110
0000
,  // measure 27
0001
0001
0001
0000
,  // measure 28
2000
0000
3000
0000
,  // measure 29
0002
0000
0003
0000
,  // measure 30
0020
0000
0030
0000
,  // measure 31
0002
0000
0003
0000
,  // measure 32
1000
0000
0010
0000
,  // measure 33
0020
0000
0030
0000
,  // measure 34
0200
0000
0000
0000
,  // measure 35
0000
0000
0300
0000
,  // measure 36
1001
0000
1001
0110
,  // measure 37
1001
1000
1000
0000
,  // measure 38
0001
0001
0001
0000
,  // measure 39
0010
0010
0010
0000
,  // measure 40
0001
0000
0010
0000
,  // measure 41
0100
0100
0100
0000
,  // measure 42
1000
0000
0001
0000
,  // measure 43
0100
0100
0100
0000
,  // measure 44
0001
0000
0010
0000
,  // measure 45
0001
0001
0001
0000
,  // measure 46
1000
0000
0010
0000
,  // measure 47
1000
1000
1000
0000
,  // measure 48
1001
0000
0000
0000
;

//---------------dance-single - ---------------
#NOTEDATA:;
#CHARTNAME:;
#CHARTSTYLE:;
#CREDIT:;
#STEPSTYPE:dance-single;
#DESCRIPTION:;
#DIFFICULTY:Easy;
#METER:6;
#METERF:6;
#RADARVALUES:0,0,0,0,0;
#NOTES:
// measure 0
0000
0000
0000
0000
,  // measure 1
0000
0000
0000
0000
,  // measure 2
0000
0000
0000
0000
,  // measure 3
0000
0000
0000
0000
,  // measure 4
1000
0100
0010
0100
,  // measure 5
1000
0010
0100
0010
,  // measure 6
1000
0001
0010
0001
,  // measure 7
0100
0010
1000
0100
,  // measure 8
1000
0010
0100
0010
,  // measure 9
1000
0001
0010
0100
,  // measure 10
0010
0001
0100
0010
,  // measure 11
1000
0001
0010
0100
,  // measure 12
0012
0000
2003
0000
,  // measure 13
3200
0000
1000
1000
,  // measure 14
2300
0000
3002
0000
,  // measure 15
0203
0000
0001
0301
,  // measure 16
1001
1000
0010
0100
,  // measure 17
0010
1000
0001
0010
,  // measure 18
0100
0010
0001
0100
,  // measure 19
2002
0000
0000
3003
,  // measure 20
1001
1000
1100
0100
,  // measure 21
0110
0011
0110
0011
,  // measure 22
0101
0100
0110
0010
,  // measure 23
2020
3030
1000
0010
,  // measure 24
1010
0010
0110
0100
,  // measure 25
0101
0110
0101
0110
,  // measure 26
1010
1000
1100
0100
,  // measure 27
0110
0010
0011
0001
,  // measure 28
2002
0003
3020
0000
,  // measure 29
0230
0000
0302
0000
,  // measure 30
2003
0000
3020
0000
,  // measure 31
0032
0000
0023
0000
,  // measure 32
1030
0010
0100
0010
,  // measure 33
2000
0000
0000
3000
,  // measure 34
2002
0000
0000
0000
,  // measure 35
0000
0000
0000
3003
,  // measure 36
0110
0000
1010
0101
,  // measure 37
1001
1000
0100
0010
,  // measure 38
0002
0103
2000
3100
,  // measure 39
0001
0010
0100
0010
,  // measure 40
0001
0100
0010
1000
,  // measure 41
0100
0010
1000
0010
,  // measure 42
0100
1000
0010
0100
,  // measure 43
0001
0010
0100
0010
,  // measure 44
0011
0001
1001
1000
,  // measure 45
1100
0110
1100
0110
,  // measure 46
0011
0001
0101
0100
,  // measure 47
0110
1010
0110
0101
,  // measure 48
1001
0000
0000
0000
;

//---------------dance-single - ---------------
#NOTEDATA:;
#CHARTNAME:;
#CHARTSTYLE:;
#CREDIT:;
#STEPSTYPE:dance-single;
#DESCRIPTION:;
#DIFFICULTY:Medium;
#METER:11;
#METERF:11;
#RADARVALUES:0,0,0,0,0;
#NOTES:
// measure 0
0000
0000
0000
0000
,  // measure 1
0000
0000
0000
0000
,  // measure 2
0000
0000
0000
0000
,  // measure 3
0000
0000
0000
0000
,  // measure 4
0001
0000
0000
0000
1000
0000
0001
0000
0100
0000
0000
0001
0000
0000
0000
0000
,  // measure 5
1000
0000
0010
0000
0100
0010
1000
0000
,  // measure 6
0001
0000
0010
0100
0010
0000
0001
1000
,  // measure 7
0001
1000
0010
0100
,  // measure 8
0010
0000
0000
0000
1000
0000
0001
0000
0010
0000
0000
0001
0000
0000
0000
0000
,  // measure 9
1000
0000
0010
0000
0100
0010
1000
0000
,  // measure 10
0001
0000
0010
0100
0010
0000
0001
1000
,  // measure 11
0001
0000
1000
0000
0100
0100
0010
0000
,  // measure 12
0002
0000
2003
0000
,  // measure 13
3020
0000
0230
0000
,  // measure 14
0320
0000
2030
0000
,  // measure 15
3002
0000
0023
0030
,  // measure 16
0110
0010
0011
0001
,  // measure 17
1001
1000
1010
0010
,  // measure 18
0100
0010
1000
0001
,  // measure 19
0202
0000
0000
0303
,  // measure 20
0101
0000
0000
0001
0000
0000
0001
0000
1000
0000
0000
0010
0000
0000
0010
0000
,  // measure 21
0110
0101
1010
0110
,  // measure 22
0110
0000
0000
0010
0000
0000
0010
0000
0001
0000
0000
0010
0000
0000
0010
0000
,  // measure 23
0220
0000
0000
0330
0100
0010
0001
0100
,  // measure 24
0110
0000
0000
0010
0000
0000
0010
0000
1000
0000
0000
0001
0000
0000
0001
0000
,  // measure 25
0011
1100
1010
0101
,  // measure 26
1001
0000
0000
1000
0000
0000
1000
0000
0100
0000
0000
0001
0000
0000
0001
0000
,  // measure 27
0100
0000
0000
1000
0000
0000
1000
0000
0010
0000
0010
0000
0100
0000
0001
0000
,  // measure 28
1001
0000
1000
1000
0010
0100
0002
0000
,  // measure 29
1003
0000
1000
0001
0010
0100
0010
0001
,  // measure 30
2000
0000
3001
0010
0100
1000
0010
0100
,  // measure 31
0020
0000
0000
0000
0030
0000
1000
0000
0000
1000
0000
0000
0010
0000
0000
0000
,  // measure 32
0100
0010
1000
1000
0100
0010
0001
0001
,  // measure 33
2002
0000
0000
3003
,  // measure 34
0220
0000
0000
0000
,  // measure 35
0000
0000
0330
0000
0100
0001
1000
0100
,  // measure 36
2200
0000
0000
3300
0000
0000
1000
0001
0100
0001
0000
0000
,  // measure 37
1000
0000
0100
0000
0010
0100
0110
0000
,  // measure 38
0010
0010
0100
0100
1000
0001
1000
0001
,  // measure 39
2000
0000
3100
1000
0100
0001
0100
1000
,  // measure 40
0001
0000
0001
0010
0100
0010
0001
0000
,  // measure 41
1000
0000
1000
0010
0001
0010
1000
0000
,  // measure 42
0001
0000
0001
0100
0010
0100
1000
0100
,  // measure 43
0001
0000
0001
0010
0100
1000
0001
0100
,  // measure 44
0110
0000
0000
0100
0000
0000
0010
0000
1000
0000
0000
0001
0000
0000
0010
0000
,  // measure 45
0200
2300
3002
0103
,  // measure 46
0101
0000
0000
0001
0000
0000
1000
0000
0100
0000
0000
0010
0000
0000
0100
0000
,  // measure 47
1000
0000
0000
0001
0000
0000
0100
0000
0001
0000
0010
0000
0100
0000
0010
0000
,  // measure 48
0011
0000
0000
0000
;

//---------------dance-single - ---------------
#NOTEDATA:;
#CHARTNAME:;
#CHARTSTYLE:;
#CREDIT:;
#STEPSTYPE:dance-single;
#DESCRIPTION:;
#DIFFICULTY:Hard;
#METER:15;
#METERF:15;
#RADARVALUES:0,0,0,0,0;
#NOTES:
// measure 0
0000
0000
0000
0000
,  // measure 1
0000
0000
0000
0000
,  // measure 2
0000
0000
0000
0000
,  // measure 3
0000
0000
0000
0000
,  // measure 4
1001
0000
0000
1000
0100
0010
0200
0000
2300
0000
0000
0000
,  // measure 5
3001
0010
0000
0000
1000
0010
0000
0000
0001
0100
0000
0000
0110
0000
0000
0000
,  // measure 6
1001
0000
0000
0000
0000
0000
0000
0000
0000
1000
0000
0000
0001
0000
0000
0000
0010
0000
0000
0000
0100
0000
0000
0000
2000
0000
0000
0000
0000
0000
0000
0000
3002
0000
0000
0000
0000
0000
0000
0000
0000
0000
0103
0000
0000
0020
0000
0000
,  // measure 7
1030
0000
0000
1000
0000
0000
0001
0000
0000
2000
0000
0000
3001
0000
0001
0000
,  // measure 8
1100
0000
0100
1000
0010
0001
0020
0000
2030
0000
0000
0000
,  // measure 9
3001
0010
0000
0000
1000
0010
0000
0000
0001
1000
0000
0000
1010
0000
0000
0000
,  // measure 10
1100
0000
0000
0000
0000
0000
0000
0000
0000
0100
0000
0000
1000
0000
0000
0000
0001
0000
0000
0000
0100
0000
0000
0000
0020
0000
0000
0000
0000
0000
0000
0000
2030
0000
0000
0000
0000
0000
0000
0000
0000
0000
3001
0000
0000
0010
0000
0000
,  // measure 11
0100
0000
0000
0100
0000
0000
1000
0000
0000
0001
0000
0000
0010
0000
0110
0000
,  // measure 12
2001
0000
3020
0000
,  // measure 13
0230
0000
0000
0000
0301
0001
0010
0010
,  // measure 14
0210
0000
2300
0000
,  // measure 15
3002
0000
0000
0000
0103
0100
0010
0010
,  // measure 16
1010
0000
0000
0010
1000
0000
0001
0000
1001
0000
0000
1000
0001
0000
0100
0000
,  // measure 17
0101
0000
0000
0100
0010
0000
0100
0000
0110
0000
0000
0010
1000
0000
0100
0000
,  // measure 18
1100
0000
0000
1000
0001
0000
0010
0000
0021
0000
0130
0000
1200
0000
0310
0000
,  // measure 19
1001
0000
0001
1000
0000
0010
0000
0100
0100
0000
0001
0000
1000
0000
0100
0000
,  // measure 20
1001
0000
0000
0001
1000
0000
0010
0000
0110
0000
0000
0010
0100
0000
0001
0000
,  // measure 21
2000
3010
0000
0000
0002
0013
0000
0000
2000
3010
0000
0000
1001
0000
1000
0000
,  // measure 22
1010
0000
0000
0010
1000
0000
0100
0000
0101
0000
0000
0100
1000
0000
0001
0000
,  // measure 23
1010
0000
0010
1000
0000
0001
0000
0010
0100
0000
1000
0000
0001
0000
0100
0000
,  // measure 24
0110
0000
0000
0010
0100
0000
0001
0000
1001
0000
0000
1000
0100
0000
0010
0000
,  // measure 25
0002
0013
0000
0000
2000
3010
0000
0000
0002
0013
0000
0000
1001
0000
1000
0000
,  // measure 26
1010
0000
0000
1000
0010
0000
0100
0000
0101
0000
0000
0100
0001
0000
0010
0000
,  // measure 27
0110
0000
0000
0010
0100
0000
1000
0000
0010
0100
0000
1000
0100
0000
0001
0000
,  // measure 28
1001
0000
0000
0000
1000
0100
0010
0100
2000
0000
3002
0000
0203
0000
0000
0000
,  // measure 29
0301
0000
0000
0000
0001
1000
0010
0100
0002
0000
0000
0023
0000
0000
2030
0000
,  // measure 30
3010
0000
0000
0000
0010
0001
2000
0000
3020
0000
0000
0230
0000
0000
1300
0100
,  // measure 31
0002
0000
0000
0000
0000
0000
1003
0000
0000
1000
0000
0000
0010
0000
0000
0000
,  // measure 32
0100
0001
0000
1000
0010
0000
0100
0000
0100
0010
0000
1000
0001
0000
0010
0000
,  // measure 33
0020
0000
0000
0030
,  // measure 34
0110
0000
0000
0100
0000
0000
0100
0000
0000
0000
0000
0010
0000
0000
0010
0000
,  // measure 35
0000
0000
0000
0001
0000
0000
0001
0000
1000
0010
0000
0001
0010
0000
0100
0000
,  // measure 36
1001
0000
0000
0000
0000
0000
1001
1100
0101
1001
0000
0000
,  // measure 37
0110
0000
0000
0010
1000
0000
1000
0100
0020
0000
0031
0000
2000
0000
3100
0000
,  // measure 38
1000
0010
0000
0100
0001
0000
1000
0000
0001
0010
0000
0100
1000
0000
0001
0000
,  // measure 39
0100
0000
0000
0100
0001
0000
0010
0001
0200
0000
0310
0000
2000
0000
3010
0000
,  // measure 40
1001
0000
0000
0001
1000
0010
0000
0010
0100
0000
0001
0000
1001
0000
0001
0000
,  // measure 41
0010
0000
0000
0010
0100
0010
0000
0001
1000
0001
0100
0000
0110
0000
0010
0000
,  // measure 42
1010
0000
0010
1000
0000
0100
0000
0010
0002
0000
0103
0000
2000
0000
3100
0000
,  // measure 43
0001
0000
0100
1000
0000
0100
0000
0010
1000
0000
0100
0000
0001
0000
0100
0000
,  // measure 44
1001
0000
0000
0001
1000
0000
0010
0000
0110
0000
0000
0010
0100
0000
0001
0000
,  // measure 45
2000
3100
0000
0000
0002
0103
0000
0000
2000
3100
0000
0000
1001
0000
0001
0000
,  // measure 46
0011
0000
0000
0001
0010
0000
0100
0000
1100
0000
0000
0100
1000
0000
0010
0000
,  // measure 47
0110
0000
0100
0001
0000
0010
0000
0100
0100
0000
1000
0000
0010
0000
0100
0000
,  // measure 48
0220
0330
0000
0000
;
