#VERSION:0.83;
#TITLE:Pigen Er Min;
#SUBTITLE:;
#ARTIST:COOL KIDS;
#TITLETRANSLIT:;
#SUBTITLETRANSLIT:;
#ARTISTTRANSLIT:;
#GENRE:;
#CREDIT:;
#ORIGIN:;
#MUSIC:Pigen Er Min.ogg;
#BANNER:Pigen Er Min.png;
#BACKGROUND:Pigen Er Min-bg.png;
#JACKET:;
#DISCIMAGE:;
#CDIMAGE:;
#SELECTABLE:YES;
#LYRICSPATH:;
#CDTITLE:;
#SAMPLESTART:103;
#SAMPLELENGTH:19.260000000000005;
#OFFSET:-0.26;
#BPMS:0.000000=100.000000;
#STOPS:;
#WARPS:;
#DELAYS:;
#SPEEDS:;
#SCROLLS:;
#TICKCOUNTS:;
#TIMESIGNATURES:;
#LABELS:;
#COMBOS:;
#FAKES:;
#BGCHANGES:;
#FGCHANGES:;
#ATTACKS:;
#KEYSOUNDS:;

//---------------dance-single - ---------------
#NOTEDATA:;
#CHARTNAME:;
#CHARTSTYLE:;
#CREDIT:;
#STEPSTYPE:dance-single;
#DESCRIPTION:;
#DIFFICULTY:Beginner;
#METER:4;
#METERF:4;
#RADARVALUES:0.028029,0.034336,0.000000,0.007848,0.000000,25.000000,25.000000,0.000000,1.000000,0.000000,0.000000,0.028029,0.034336,0.000000,0.007848,0.000000,25.000000,25.000000,0.000000,1.000000,0.000000,0.000000;
#NOTES:
// measure 0
0000
0000
0000
0000
,  // measure 1
0000
0000
0000
0000
,  // measure 2
0000
1000
0000
1000
,  // measure 3
0000
0001
0000
0001
,  // measure 4
0000
0010
0000
0010
,  // measure 5
0020
0000
0000
0030
,  // measure 6
0010
0010
0000
0000
,  // measure 7
0001
0001
0000
0000
,  // measure 8
1000
1000
0000
0000
,  // measure 9
0100
0100
0100
0000
,  // measure 10
1000
1000
1000
0000
,  // measure 11
0001
0001
0001
0000
,  // measure 12
0010
0010
0010
0000
,  // measure 13
0100
0100
0100
0000
,  // measure 14
1000
1000
1000
0000
,  // measure 15
0001
0001
0001
0000
,  // measure 16
0010
0010
0010
0000
,  // measure 17
0100
0100
0100
0000
,  // measure 18
1000
1000
0000
0000
,  // measure 19
0001
0001
0000
0000
,  // measure 20
0010
0010
0000
0000
,  // measure 21
0100
0100
0100
0000
,  // measure 22
1000
1000
0000
0000
,  // measure 23
0001
0001
0000
0000
,  // measure 24
0100
0100
0000
0000
,  // measure 25
0010
0010
0010
0000
,  // measure 26
0200
0000
0000
0300
,  // measure 27
0100
0100
0100
0000
,  // measure 28
0001
0001
0001
0000
,  // measure 29
1000
1000
1000
0000
,  // measure 30
0010
0010
0010
0000
,  // measure 31
1000
1000
1000
0000
,  // measure 32
0001
0001
0001
0000
,  // measure 33
0010
0010
0010
0000
,  // measure 34
0100
0100
0100
0000
,  // measure 35
1000
1000
1000
0000
,  // measure 36
0001
0001
0001
0000
,  // measure 37
0100
0100
0100
0000
,  // measure 38
0001
0001
0001
0000
,  // measure 39
1000
1000
1000
0000
,  // measure 40
0100
0100
0100
0000
,  // measure 41
1000
1000
1000
0000
,  // measure 42
0001
0001
0001
0000
,  // measure 43
0100
0100
0000
0000
,  // measure 44
0001
0001
0000
0000
,  // measure 45
1000
1000
0000
0000
,  // measure 46
0010
0010
0010
0000
,  // measure 47
1000
1000
0000
0000
,  // measure 48
0001
0001
0000
0000
,  // measure 49
0010
0010
0000
0000
,  // measure 50
0100
0100
0100
0000
,  // measure 51
1001
1001
1001
0000
;

//---------------dance-single - ---------------
#NOTEDATA:;
#CHARTNAME:;
#CHARTSTYLE:;
#CREDIT:;
#STEPSTYPE:dance-single;
#DESCRIPTION:;
#DIFFICULTY:Easy;
#METER:6;
#METERF:6;
#RADARVALUES:0,0,0,0,0;
#NOTES:
// measure 0
0000
0000
0000
0000
,  // measure 1
0000
0000
0000
0000
,  // measure 2
0000
1000
0000
0001
,  // measure 3
0000
1000
0000
0010
,  // measure 4
0000
1000
0000
0001
,  // measure 5
0200
0000
0000
0300
,  // measure 6
0001
0001
0010
0010
,  // measure 7
1000
1000
0010
0010
,  // measure 8
0001
0001
0010
0010
,  // measure 9
1000
0010
0001
0100
,  // measure 10
0001
0100
1000
0100
,  // measure 11
0001
1000
0100
0010
,  // measure 12
0001
1000
0100
0001
,  // measure 13
0100
0010
0001
1000
,  // measure 14
0100
0010
0100
1000
,  // measure 15
0001
0100
0001
0010
,  // measure 16
0100
1000
0100
0010
,  // measure 17
0200
0001
1000
0301
,  // measure 18
1000
1000
0010
0010
,  // measure 19
0001
0001
0010
0010
,  // measure 20
1000
1000
0010
0010
,  // measure 21
0001
0010
1000
0100
,  // measure 22
0001
0001
0010
0010
,  // measure 23
1000
1000
0010
0010
,  // measure 24
0001
0001
0010
0010
,  // measure 25
1000
0010
0001
0100
,  // measure 26
0002
0000
0000
1003
,  // measure 27
1000
0001
0010
0100
,  // measure 28
1000
0010
0001
0010
,  // measure 29
1000
0001
0010
0100
,  // measure 30
1000
0010
0001
0010
,  // measure 31
1000
0010
0100
0001
,  // measure 32
0010
0100
1000
0001
,  // measure 33
0100
1000
0100
0001
,  // measure 34
0010
0100
1000
0010
,  // measure 35
0100
0001
1000
0001
,  // measure 36
0010
0100
1000
0001
,  // measure 37
0100
0001
1000
0001
,  // measure 38
0100
0010
1000
0001
,  // measure 39
0010
0001
0100
0001
,  // measure 40
0010
0001
0100
1000
,  // measure 41
0100
0001
0010
1000
,  // measure 42
0010
0001
1000
1001
,  // measure 43
1000
1000
0010
0010
,  // measure 44
0001
0001
0010
0010
,  // measure 45
1000
1000
0010
0010
,  // measure 46
0001
0010
1000
0100
,  // measure 47
0001
0001
0010
0010
,  // measure 48
1000
1000
0010
0010
,  // measure 49
0001
0001
0010
0010
,  // measure 50
1000
0010
0001
0100
,  // measure 51
0001
0000
0000
1000
0000
0000
1001
0000
0000
0000
0000
0000
0000
0000
0000
0000
;

//---------------dance-single - ---------------
#NOTEDATA:;
#CHARTNAME:;
#CHARTSTYLE:;
#CREDIT:;
#STEPSTYPE:dance-single;
#DESCRIPTION:;
#DIFFICULTY:Medium;
#METER:12;
#METERF:12;
#RADARVALUES:0,0,0,0,0;
#NOTES:
// measure 0
0000
0000
0000
0000
,  // measure 1
0000
0000
0000
0000
,  // measure 2
0000
0000
1000
0000
0001
0100
0001
0100
,  // measure 3
0001
0000
0001
0000
1000
1000
1001
0000
,  // measure 4
1000
0000
0001
0000
1000
0010
1000
0010
,  // measure 5
0200
0001
0010
1300
,  // measure 6
0001
0000
0010
0000
0001
0000
0001
0000
0002
0000
0003
0001
0000
0000
0000
0000
,  // measure 7
0001
0010
0001
0010
0010
0010
0010
0000
,  // measure 8
1000
0000
0100
0000
1000
0000
0001
0000
0002
0000
0003
0001
0000
0000
0000
0000
,  // measure 9
1000
0000
0010
0000
0100
0010
1000
0000
,  // measure 10
1000
0000
0001
0000
0100
0010
1000
0000
,  // measure 11
0001
0000
0100
0000
0001
0001
0010
0000
,  // measure 12
0100
0000
0010
0000
0001
0001
1000
0000
,  // measure 13
0010
0000
0110
0000
0010
0100
0001
0000
,  // measure 14
1000
0000
1100
0000
1000
0001
0100
0000
,  // measure 15
0001
0000
0101
0000
0001
0010
1000
0000
,  // measure 16
0010
0000
0011
0000
0001
0010
0110
0000
,  // measure 17
1200
0001
0010
1300
,  // measure 18
0001
0000
0100
0000
0001
0000
0010
0000
0020
0000
0030
0010
0000
0000
0000
0000
,  // measure 19
1000
0100
1000
0010
0010
0010
0010
0000
,  // measure 20
0100
0000
0001
0000
0100
0000
0010
0000
0020
0000
0030
0010
0000
0000
0000
0000
,  // measure 21
1000
0000
0010
0000
0100
0010
1000
0000
,  // measure 22
0001
0000
0100
0000
0001
0000
0010
0000
0020
0000
0030
0010
0000
0000
0000
0000
,  // measure 23
0100
1000
0100
0010
0010
0010
0010
0000
,  // measure 24
0001
0000
1000
0000
0001
0000
0010
0000
0020
0000
0030
0010
0000
0000
0000
0000
,  // measure 25
0001
0000
0010
0000
0100
1000
0010
0000
,  // measure 26
0200
0000
0300
0101
,  // measure 27
0001
1000
0100
0000
1000
0001
0100
0000
,  // measure 28
0001
0011
1000
1010
,  // measure 29
1000
0001
0010
0000
0001
1000
0010
0000
,  // measure 30
1000
1010
0001
0011
,  // measure 31
0001
0010
0100
0000
0010
0001
0100
0000
,  // measure 32
0001
0000
1001
0000
1000
0010
0100
0000
,  // measure 33
0001
0010
0100
0000
0010
0001
1000
0000
,  // measure 34
0010
0100
1000
0000
0100
0001
1000
0000
,  // measure 35
0001
1000
0010
0000
1000
0001
0010
0000
,  // measure 36
0100
0010
0001
0000
0100
0010
1000
0000
,  // measure 37
1000
0001
0010
0000
0001
0100
1000
0000
,  // measure 38
0100
0001
0010
0000
0100
0010
0001
0000
,  // measure 39
0100
0010
1000
0000
0001
0010
1000
0000
,  // measure 40
0010
0001
1000
0000
0010
0100
1000
0000
,  // measure 41
0100
0001
1000
0000
0100
1000
0010
0000
,  // measure 42
0200
0001
1000
0310
,  // measure 43
1000
0000
0010
0000
0100
0000
0010
0000
0020
0000
0030
0010
0000
0000
0000
0000
,  // measure 44
1000
0010
0100
0010
0010
0010
0010
0000
,  // measure 45
1000
0000
0001
0000
0100
0000
0010
0000
0020
0000
0030
0010
0000
0000
0000
0000
,  // measure 46
1000
0010
0100
0010
1000
0001
0010
0000
,  // measure 47
0100
0000
0010
0000
0001
0000
1000
0000
0020
0000
0030
0010
0000
0000
0000
0000
,  // measure 48
0010
1000
0001
0010
0010
0010
0010
0000
,  // measure 49
0001
0000
0010
0000
0100
0000
1000
0000
0020
0000
0030
0010
0000
0000
0000
0000
,  // measure 50
1000
0010
0100
1000
0100
0001
1000
0000
,  // measure 51
1001
0000
0000
0110
0000
0000
1001
0000
0000
0000
0000
0000
0000
0000
0000
0000
;

//---------------dance-single - ---------------
#NOTEDATA:;
#CHARTNAME:;
#CHARTSTYLE:;
#CREDIT:;
#STEPSTYPE:dance-single;
#DESCRIPTION:;
#DIFFICULTY:Hard;
#METER:15;
#METERF:15;
#RADARVALUES:0,0,0,0,0;
#NOTES:
// measure 0
0000
0000
0000
0000
,  // measure 1
0000
0000
0000
0000
,  // measure 2
1000
0000
0000
1000
0001
0000
1000
0000
0100
0000
0010
0000
0011
0000
0010
0000
,  // measure 3
0100
0000
0000
1000
0010
0000
0100
0000
0001
0010
0100
0010
0011
0000
0010
0000
,  // measure 4
0100
0000
0000
0100
1000
0000
0010
0000
0100
0000
0001
0000
1001
0000
0001
0000
,  // measure 5
0200
0000
0000
1000
1000
0000
0010
0000
0001
0000
0010
0000
0301
0000
1000
0100
,  // measure 6
0001
0000
0001
0100
1000
0000
1001
0000
0220
0000
0330
0110
0000
0000
1000
0010
,  // measure 7
0001
0000
0001
0010
1000
0000
1001
0000
0110
0000
0110
0000
1001
0000
1000
0010
,  // measure 8
0100
0000
0001
0010
0100
0000
1001
0000
2200
0000
3300
1100
0000
0000
0000
0000
,  // measure 9
2000
3000
0020
0030
0200
0300
0020
0030
2000
3000
0002
0003
0020
0030
0000
0000
,  // measure 10
0001
0000
0010
0100
1000
0000
1100
0000
1000
0000
0010
0100
0001
0000
0101
0000
,  // measure 11
1000
0000
0010
0100
0001
0000
0010
0100
1000
0000
0001
0000
0110
0000
0000
0000
,  // measure 12
1001
0000
1000
0010
0001
0000
0010
0000
1000
0000
0001
0010
1000
0000
0010
0000
,  // measure 13
0001
1000
0110
1001
1000
0010
0110
0010
,  // measure 14
0100
0000
0001
1000
0010
0000
0100
0000
0001
0010
1000
0000
0010
0000
0100
0000
,  // measure 15
1000
0000
0010
0100
0001
0000
1000
0000
0001
0000
0010
0000
0110
0000
1001
0000
,  // measure 16
0110
0000
1000
0010
0100
0000
0101
0000
0100
0001
0010
0000
0011
0000
1100
0000
,  // measure 17
1002
0000
0010
0000
0100
0000
0010
0000
1000
0000
0100
0000
0013
0000
0001
0010
,  // measure 18
0110
0000
0010
0100
1000
0000
0001
0000
0202
0000
0303
0101
0000
0000
0001
0100
,  // measure 19
0010
0000
1000
0010
0100
0000
0101
0000
1100
0000
1010
0000
0011
0000
0010
0001
,  // measure 20
0100
0000
0010
1000
0100
0000
1001
0000
0220
0000
0330
0110
0000
0000
0000
0000
,  // measure 21
2000
3000
0020
0030
0200
0300
0020
0030
2000
3000
0002
0003
0020
0030
0100
0010
,  // measure 22
0001
0000
0100
0010
1000
0000
1001
0000
2020
0000
3030
1010
0000
0000
1000
0010
,  // measure 23
0001
0000
0001
0010
1000
0000
1001
0000
0110
0000
0011
0000
1100
0000
1000
0010
,  // measure 24
0100
0000
0001
0010
0100
0000
0011
0000
2200
0000
3300
1100
0000
0000
0000
0000
,  // measure 25
2000
3000
0020
0030
0200
0300
0020
0030
2000
3000
0002
0003
0020
0030
0200
0300
,  // measure 26
0010
0000
0000
0010
0000
0000
0010
0000
0010
0001
0100
0010
0110
0000
1010
0000
,  // measure 27
0101
0001
0010
0100
0000
1000
0010
0000
0010
0100
0001
1000
0100
0010
0001
1000
,  // measure 28
0010
0100
0001
0000
0101
0000
1100
0000
1000
0010
0100
0000
0101
0000
1100
0000
,  // measure 29
1010
1000
0010
0100
0000
0100
0001
0000
0001
0010
0100
0010
0001
1000
0010
1000
,  // measure 30
1001
0001
0010
0000
0011
0000
1100
0000
1001
1000
0010
0000
1010
0000
0101
0000
,  // measure 31
1001
1000
0010
0100
0000
0100
0001
0000
0001
0010
0100
1000
0010
0100
1000
0100
,  // measure 32
0001
0010
0100
0000
1100
0000
0011
0000
1000
0010
0100
0000
0101
0000
1010
0000
,  // measure 33
1001
0001
0010
0100
1000
0010
0100
1000
0100
0001
0010
0100
1000
0010
0100
0001
,  // measure 34
0010
0010
0001
0001
1000
1000
0010
0010
0100
0100
1000
1000
0100
0100
0001
0001
,  // measure 35
1000
0010
0100
0010
1000
0000
1010
0000
0001
0100
0010
0100
0001
0000
0011
0000
,  // measure 36
0001
0010
0100
1000
0010
0100
1000
0100
0001
1000
0100
0010
0001
0000
0011
0000
,  // measure 37
1100
0000
1000
0010
0100
0000
1100
0000
1000
0100
0001
0000
1001
0000
1100
0100
,  // measure 38
0110
0010
0001
0010
0100
0000
0100
1000
0010
0100
1000
0100
0001
0010
0100
1000
,  // measure 39
0010
0000
0010
0100
0001
0000
0001
0010
0100
1000
0010
0100
2000
0000
3000
0000
,  // measure 40
1000
0100
0001
0010
0100
1000
0010
0100
0001
0010
0100
1000
0010
0000
0110
0010
,  // measure 41
1010
0101
2002
3003
1001
0011
0220
0330
,  // measure 42
1100
0000
1000
0010
0000
0010
0100
0001
0010
0100
1000
0010
0110
0000
0100
0010
,  // measure 43
1000
0000
1000
0010
0001
0000
0011
0000
2020
0000
3030
1010
0000
0000
1000
0010
,  // measure 44
0001
0000
0001
0010
1000
0000
1010
0000
0101
0000
0011
0000
1100
0000
1000
0001
,  // measure 45
0010
0000
0001
1000
0010
0000
1010
0000
0202
0000
0303
0101
0000
0000
0000
0000
,  // measure 46
0002
0003
0020
0030
0200
0300
0020
0030
0002
0003
2000
3000
0020
0030
0100
0010
,  // measure 47
1000
0000
0100
0010
0001
0000
0011
0000
2200
0000
3300
1100
0000
0000
1000
0100
,  // measure 48
0001
0000
0001
0100
1000
0000
1001
0000
1100
0000
0101
0000
1001
0000
1000
0100
,  // measure 49
0010
0000
0001
0010
0100
0000
1100
0000
0022
0000
0033
0011
0000
0000
0000
0000
,  // measure 50
0002
0003
0020
0030
0200
0300
0020
0030
0002
0003
2000
3000
0020
0030
0100
0010
,  // measure 51
1010
0000
0000
0101
0000
0000
1001
0000
0000
0000
0000
0000
0000
0000
0000
0000
;

//---------------dance-double - 8Chasey 2026---------------
#NOTEDATA:;
#CHARTNAME:;
#CHARTSTYLE:;
#CREDIT:;
#STEPSTYPE:dance-double;
#DESCRIPTION:8Chasey 2026;
#DIFFICULTY:Hard;
#METER:14;
#METERF:14;
#RADARVALUES:0,0,0,0,0;
#NOTES:
// measure 0
00000000
00000000
00000000
00000000
,  // measure 1
00000000
00000000
00000000
00000000
,  // measure 2
00000001
00000000
00000000
00001000
00000001
00000000
00000100
00000000
00001000
00000000
00010000
00000000
00011000
00000000
00001000
00000000
,  // measure 3
00100000
00000000
00000000
01000000
00100000
00000000
01000000
10000000
00000000
10000000
01000000
00100000
00020000
00000000
10000000
00000000
,  // measure 4
10030000
00000000
00000000
00010000
10000000
00000000
01000000
00000000
00010000
00000000
00001000
00000000
00011000
00000000
00010000
00000000
,  // measure 5
00000200
00000000
00000000
00001000
00001000
00000000
00000310
00000000
00000001
00000010
00000001
00000010
00000100
00000000
00010000
00001000
,  // measure 6
01000000
00000000
00001000
00010000
00000100
00000000
00000110
00000000
00000001
00000100
00000000
00000001
00000100
00000000
00001000
00010000
,  // measure 7
00000010
00000000
00010000
00001000
00100000
00000000
01100000
00000000
10100000
00000000
01100000
00000000
01010000
00000000
00010000
00100000
,  // measure 8
01000000
00000000
10000000
00100000
01000000
00000000
00001000
00000000
00010000
00000100
00000000
00010000
00000100
00001000
00000100
00000000
,  // measure 9
00001000
00000000
00000010
00000100
00000010
00000000
00002000
00000000
00000100
00000000
00000010
00000000
00000002
00000000
00003003
00000000
,  // measure 10
00000100
00000000
00001000
00010000
00001000
00000000
00011000
00000000
00010000
00000000
00100000
01000000
00100000
00000000
01100000
00000000
,  // measure 11
01000000
00000000
00010000
00100000
01000000
00000000
10000000
01000000
00100000
00000000
00001000
00000000
00022000
00000000
00033000
00000000
,  // measure 12
00010000
00000000
00000100
00000010
00000001
00000000
00000100
00000000
00000110
00000000
00000010
00001000
00000100
00000000
00010000
00000000
,  // measure 13
00001000
00100000
01100000
10010000
10000000
01000000
00110000
00100000
,  // measure 14
00001000
00000000
00010000
00000100
00000010
00000000
00000001
00000000
00000100
00000010
00001000
00000000
00000100
00000000
00000110
00000000
,  // measure 15
00000010
00000001
00000010
00000000
00001100
00000000
00000100
00000000
00010000
00001000
01000000
00000000
01010000
00000000
10100000
00000000
,  // measure 16
10010000
00000000
00010000
01000000
00100000
10000000
01000000
00000000
10000000
00010000
00100000
00000000
00101000
00000000
00010100
00000000
,  // measure 17
00000200
00000000
00000010
00000000
00000001
00000000
00000010
00000000
00001300
00000100
00001000
00000100
00001000
00000000
00000001
00000100
,  // measure 18
00001000
00000000
00010000
00100000
10000000
00000000
01000000
00000000
10000000
01000000
00000000
10000000
00100000
00000000
10000000
01000000
,  // measure 19
00010000
00000000
00001000
00000010
00000001
00000000
00000101
00000000
00001010
00000000
00010100
00000000
00011000
00000000
00010000
00000100
,  // measure 20
00000010
00000000
00000100
00010000
00001000
00000000
00010000
00000000
00000100
00000010
00000000
00000100
00000010
00000000
00000100
00000000
,  // measure 21
00010000
00000000
00001000
00100000
00001000
00000000
00200000
00000000
00010000
00000000
10000000
00000000
01300000
00000000
10000000
01000000
,  // measure 22
00010000
00000000
00001000
00000010
00000001
00000000
00000100
00000000
00000001
00000100
00000000
00000001
00000010
00000000
00000001
00000100
,  // measure 23
00001000
00000000
00010000
00100000
10000000
00000000
10100000
00000000
01010000
00000000
00101000
00000000
00011000
00000000
00001000
01000000
,  // measure 24
00100000
00000000
01000000
00001000
00010000
00000000
00001000
00000000
01000000
00100000
00000000
01000000
00100000
00000000
01000000
00000000
,  // measure 25
00001000
00000000
00010000
00000010
00010000
00000000
00000020
00000000
00001000
00000000
00000001
00000000
00000130
00000000
00000002
00000000
,  // measure 26
00001000
00000000
00000000
00001000
00000000
00000000
00001003
00000000
00000100
00000000
00010000
00000000
00011000
00000000
00001000
00000000
,  // measure 27
00100000
00010000
00100000
00010000
00000000
01000000
00010000
00000000
10000000
01000000
00100000
01000000
10000000
01000000
00100000
00000000
,  // measure 28
00001000
00010000
00001000
00000000
00010000
00000100
00000000
00010000
00000100
00000010
00000001
00000000
00001001
00000000
00001000
00000000
,  // measure 29
00000001
00000100
00000001
00000100
00000000
00000010
00001000
00000000
00000001
00000010
00000100
00000010
00000001
00000010
00000100
00000000
,  // measure 30
00010000
00001000
00010000
00001000
00000000
00100000
00010000
00000000
10000000
00010000
10000000
00000000
11000000
00000000
00110000
00000000
,  // measure 31
00010000
01000000
00010000
01000000
00000000
00001000
00010000
00000000
00000100
00000010
00000100
00000000
00000010
00000100
00000010
00000000
,  // measure 32
00000001
00000100
00001000
00010000
00000000
00001000
00100000
00001000
00000000
00100000
00010000
00100000
01000000
10000000
01000000
00100000
,  // measure 33
00001000
00010000
00001000
00010000
00000000
00000100
00001000
00000000
00000010
00000100
00000010
00000000
00000100
00000010
00000100
00000000
,  // measure 34
00000001
00001000
00000001
00001000
00000000
00000100
00001000
00000000
00000100
00000010
00000100
00000000
00001100
00000000
00000011
00000000
,  // measure 35
00000001
00000000
00000100
00000000
00001000
00010000
00001000
00000000
00010000
00000000
00001000
00000000
00100000
00000000
01100000
00000000
,  // measure 36
01000000
10000000
01000000
10000000
00010000
00000000
01010000
00000000
01200000
00000000
10300000
00000000
12000000
00000000
03100000
00000000
,  // measure 37
00101000
00000000
00010000
00001000
00010000
00000000
00000100
00001000
00000100
00000000
00000100
00000000
00000110
00000000
00000010
00000001
,  // measure 38
00000010
00000001
00000000
00001001
00000000
00000000
00001000
00000100
00000010
00000000
00000001
00000000
00002002
00000000
00003003
00001000
,  // measure 39
00000010
00000000
00000100
00001000
00010000
00000000
00001000
00100000
00000000
00010000
01000000
00010000
01000000
00000000
00100000
00000000
,  // measure 40
10100000
00000000
10000000
00010000
10000000
00000000
00010000
00100000
00010000
00000000
01010000
00000000
10010000
00000000
10000000
10000000
,  // measure 41
00010000
00000000
00100000
00001000
00100000
00000000
00001000
00000000
00011000
00000000
00010000
00000100
00010000
00000000
00000010
00000000
,  // measure 42
00000200
00000000
00000000
00000001
00000000
00000000
00000301
00000000
00000010
00000001
00000010
00000001
00001000
00000000
00000100
00001000
,  // measure 43
00000010
00000000
00000100
00000001
00000010
00000000
00000100
00000000
00001000
00000100
00000000
00001000
00000100
00000000
00010000
00001000
,  // measure 44
00100000
00000000
00001000
00010000
00000010
00000000
00000110
00000000
00000100
00001000
00010000
00000000
00011000
00000000
00001000
00100000
,  // measure 45
01000000
00000000
10000000
00100000
01000000
00000000
00010000
00000000
10000000
01000000
00000000
10000000
01000000
00000000
00100000
00000000
,  // measure 46
00110000
00000000
00100000
00001000
00010000
00000000
00000200
00000000
00000001
00000000
00000010
00000000
00001300
00000000
00000010
00001000
,  // measure 47
00000100
00000000
00000010
00000001
00000100
00000000
00001000
00000000
00010000
00001000
00000000
00001000
00010000
00000000
00001000
00010000
,  // measure 48
01000000
00000000
10000000
01000000
00100000
00000000
00110000
00000000
01100000
00000000
11000000
00000000
10010000
00000000
10000000
01000000
,  // measure 49
00010000
00000000
00001000
00000010
00000001
00000000
00001000
00000000
00000100
00001000
00000000
00000100
00010000
00000000
00011000
00000000
,  // measure 50
00001000
00000000
00100000
00010000
00100000
00000000
02000000
00000000
00010000
00000000
00100000
00000000
13000000
00000000
01000000
00010000
,  // measure 51
00002000
00000000
00000000
00013000
00000000
00000000
00011000
00000000
00000000
00000000
00000000
00000000
00000000
00000000
00000000
00000000
;

//---------------dance-double - D.U.S---------------
#NOTEDATA:;
#CHARTNAME:;
#CHARTSTYLE:;
#CREDIT:;
#STEPSTYPE:dance-double;
#DESCRIPTION:D.U.S;
#DIFFICULTY:Easy;
#METER:7;
#METERF:7;
#RADARVALUES:0,0,0,0,0;
#NOTES:
// measure 0
00000000
00000000
00000000
00000000
,  // measure 1
00000000
00000000
00000000
00000000
,  // measure 2
00000000
00010000
00000000
00010000
,  // measure 3
00000000
00001000
00000000
00001000
,  // measure 4
00000000
00100000
00000000
00100000
,  // measure 5
02200000
00000000
00000000
03300000
,  // measure 6
01000000
10000000
00100000
00100000
,  // measure 7
01000000
00010000
00100000
00100000
,  // measure 8
00001000
00010000
00000010
00000010
,  // measure 9
00000100
00000010
00001000
00000001
,  // measure 10
00000010
00000100
00000010
00000100
,  // measure 11
00001000
00000010
00001000
00000010
,  // measure 12
00000100
00000001
00000010
00000100
,  // measure 13
00001000
00001010
00001000
00000100
,  // measure 14
00000010
00000100
00001000
00000010
,  // measure 15
00000100
00001000
00010000
00100000
,  // measure 16
01000000
00010000
10000000
10010000
,  // measure 17
20000000
30020000
00032000
00003001
,  // measure 18
00001000
00000100
00000010
00000010
,  // measure 19
00000001
00001000
00000010
00000010
,  // measure 20
00010000
00001000
00100000
00100000
,  // measure 21
01000000
10000000
00100000
01000000
,  // measure 22
00010000
10000000
00100000
00100000
,  // measure 23
10000000
01000000
00100000
00100000
,  // measure 24
00001000
00010000
00000010
00000010
,  // measure 25
00000100
00000001
00000010
00000100
,  // measure 26
00002000
00000000
00000000
00003001
,  // measure 27
00001000
00000001
00000100
00000010
,  // measure 28
00001000
00001010
00010000
00011000
,  // measure 29
00010000
00001000
00100000
01000000
,  // measure 30
10000000
10010000
00010000
01010000
,  // measure 31
01000000
00100000
10000000
00010000
,  // measure 32
00100000
01100000
01000000
10000000
,  // measure 33
00010000
01000000
00100000
01000000
,  // measure 34
00020000
20030000
30002000
00023000
,  // measure 35
00030001
00000001
00000010
00000100
,  // measure 36
00001000
00000010
00000100
00001000
,  // measure 37
00000100
00000010
00010000
00001000
,  // measure 38
00100000
00100000
01000000
00100000
,  // measure 39
00010000
01000000
00100000
10000000
,  // measure 40
10000000
01000000
00100000
00010000
,  // measure 41
02000000
03001000
00020000
00030010
,  // measure 42
00002000
00003002
00000203
00000320
,  // measure 43
00001030
00000100
00000010
00000010
,  // measure 44
00000001
00000100
00000010
00000010
,  // measure 45
00010000
00001000
00100000
00100000
,  // measure 46
01000000
00100000
00010000
01000000
,  // measure 47
00010000
10000000
00100000
00100000
,  // measure 48
10000000
00010000
00100000
00100000
,  // measure 49
00001000
00010000
00000010
00000010
,  // measure 50
00000100
00000001
00000010
00000100
,  // measure 51
00010000
00000000
00000000
00001000
00000000
00000000
00011000
00000000
00000000
00000000
00000000
00000000
00000000
00000000
00000000
00000000
;

//---------------dance-double - D.U.S---------------
#NOTEDATA:;
#CHARTNAME:;
#CHARTSTYLE:;
#CREDIT:;
#STEPSTYPE:dance-double;
#DESCRIPTION:D.U.S;
#DIFFICULTY:Medium;
#METER:12;
#METERF:12;
#RADARVALUES:0,0,0,0,0;
#NOTES:
// measure 0
00000000
00000000
00000000
00000000
,  // measure 1
00000000
00000000
00000000
00000000
,  // measure 2
00010000
00000000
00001000
00000000
00001000
00100000
00001000
01000000
,  // measure 3
00001000
00000000
00010000
00000000
00001000
00010000
00011000
00000000
,  // measure 4
00010000
00000000
00000100
00000000
00010000
00000010
00010000
00000100
,  // measure 5
00020000
00000000
00001000
00000000
00000100
00000000
00030010
00000010
,  // measure 6
00001000
00000000
00000100
00000000
00000010
00000000
00000000
00000000
00000002
00000000
00000003
00000001
00000000
00000000
00000000
00000000
,  // measure 7
00000001
00000100
00000010
00000000
00001000
00001000
00001000
00000000
,  // measure 8
00000100
00000000
00010000
00000000
00001000
00000000
00000000
00000000
00200000
00000000
00300000
00100000
00000000
00000000
00000000
00000000
,  // measure 9
01000000
01000000
10000000
10000000
00010000
00010000
01000000
00000000
,  // measure 10
01000000
00000000
00100000
00000000
10000000
01000000
00100000
00000000
,  // measure 11
00010000
00000000
01000000
00000000
00001000
00010000
00000010
00000000
,  // measure 12
00000100
00000000
00000001
00000000
00000010
00000100
00001000
00000000
,  // measure 13
00000010
00000000
00011000
00000000
00010000
00001000
00100000
00100000
,  // measure 14
01000000
01000000
00100000
00000000
00010000
00010000
10000000
10000000
,  // measure 15
01000000
01000000
10000000
00000000
00010000
00010000
00100000
00100000
,  // measure 16
00001000
00001000
00010000
00000000
00010000
00010000
00000010
00000010
,  // measure 17
00000200
00000001
00001000
00000301
,  // measure 18
00000001
00000000
00001000
00000000
00000100
00000000
00000000
00000000
00000020
00000000
00000030
00000010
00000000
00000000
00000000
00000000
,  // measure 19
00000001
00001000
00000010
00000000
00010000
00010000
00010000
00000000
,  // measure 20
00001000
00000000
01000000
00000000
00010000
00000000
00000000
00000000
20000000
00000000
30000000
10000000
00000000
00000000
00000000
00000000
,  // measure 21
01000000
01000000
10000000
10000000
00010000
00010000
00100000
00000000
,  // measure 22
01000000
00000000
00100000
00000000
00010000
00000000
00000000
00000000
20000000
00000000
30000000
10000000
00000000
00000000
00000000
00000000
,  // measure 23
00100000
01000000
00010000
00000000
10000000
10000000
10000000
00000000
,  // measure 24
01000000
00000000
00100000
00000000
00010000
00000000
00000000
00000000
20000000
00000000
30000000
10000000
00000000
00000000
00000000
00000000
,  // measure 25
00100000
00100000
10000000
10000000
00001000
00001000
00010000
00000000
,  // measure 26
00022000
00000000
00033000
00011000
,  // measure 27
00010000
00010000
00000100
00000100
00001000
00001000
00000010
00000010
,  // measure 28
00000200
00000300
00000101
00000000
00000002
00000003
00000011
00000000
,  // measure 29
00000001
00000001
00000010
00000010
00000100
00000100
00001000
00001000
,  // measure 30
00000020
00000030
00001010
00000000
00020000
00030000
00011000
00000000
,  // measure 31
00001000
00001000
00100000
00100000
01000000
01000000
10000000
10000000
,  // measure 32
00100000
00100000
01000000
01000000
10000000
10000000
01000000
01000000
,  // measure 33
00010000
10000000
01000000
10000000
00100000
01000000
00100000
10000000
,  // measure 34
00010000
00100000
00001000
00010000
00000010
00000100
00000001
00001000
,  // measure 35
00000100
00000000
00001000
00000000
00000010
00000100
00000001
00000000
,  // measure 36
00000010
00000000
00001000
00000000
00010000
00100000
01000000
00000000
,  // measure 37
00010000
00000000
00100000
00000000
01000000
10000000
00010000
00000000
,  // measure 38
01000000
01000000
00100000
00000000
10000000
00100000
01000000
00000000
,  // measure 39
00010000
00010000
10000000
10000000
01000000
10000000
00010000
00000000
,  // measure 40
01000000
01000000
00100000
00100000
10000000
00100000
01000000
00000000
,  // measure 41
00010000
00100000
00001000
00000000
00010000
00000100
00000010
00000000
,  // measure 42
00000002
00002003
00023000
20030000
,  // measure 43
31000000
00000000
10000000
00000000
00010000
00000000
00000000
00000000
02000000
00000000
03000000
01000000
00000000
00000000
00000000
00000000
,  // measure 44
00100000
01000000
00010000
00000000
10000000
10000000
10000000
00000000
,  // measure 45
01000000
00000000
00100000
00000000
00010000
00000000
00000000
00000000
00200000
00000000
00300000
00100000
00000000
00000000
00000000
00000000
,  // measure 46
00010000
00010000
00100000
00100000
00001000
00001000
00010000
00000000
,  // measure 47
00000100
00000000
00001000
00000000
00000001
00000000
00000000
00000000
00000200
00000000
00000300
00000100
00000000
00000000
00000000
00000000
,  // measure 48
00000001
00001000
00000100
00000000
00010000
00010000
00010000
00000000
,  // measure 49
00001000
00000000
00100000
00000000
01000000
00000000
00000000
00000000
20000000
00000000
30000000
00010000
00000000
00000000
00000000
00000000
,  // measure 50
00100000
00100000
01000000
01000000
10000000
00010000
10000000
00010000
,  // measure 51
10000000
00000000
00000000
00001000
00000000
00000000
00011000
00000000
00000000
00000000
00000000
00000000
00000000
00000000
00000000
00000000
;
10000000
00000000
,  // measure 45
01000000
00000000
00100000
00000000
00010000
00000000
00000000
00000000
00200000
00000000
00300000
00100000
00000000
00000000
00000000
00000000
,  // measure 46
00010000
00010000
00100000
00100000
00001000
00001000
00010000
00000000
,  // measure 47
00000100
00000000
00001000
00000000
00000001
00000000
00000000
00000000
00000200
00000000
00000300
00000100
00000000
00000000
00000000
00000000
,  // measure 48
00000001
00001000
00000100
00000000
00010000
00010000
00010000
00000000
,  // measure 49
00001000
00000000
00100000
00000000
01000000
00000000
00000000
00000000
20000000
00000000
30000000
00010000
00000000
00000000
00000000
00000000
,  // measure 50
00100000
00100000
01000000
01000000
10000000
00010000
10000000
00010000
,  // measure 51
10000000
00000000
00000000
00001000
00000000
00000000
00011000
00000000
00000000
00000000
00000000
00000000
00000000
00000000
00000000
00000000
;
