#TITLE:Neoreul Saranghae -super euro version-;
#SUBTITLE:(D.U.S Special);
#ARTIST:S.E.S;
#MUSIC:Neoreul Saranghae -super euro version- (D.U.S Special).ogg;
#BANNER:Neoreul Saranghae -super euro version- (D.U.S Special).png;
#BACKGROUND:Neoreul Saranghae -super euro version- (D.U.S Special)-bg.png;
#LYRICSPATH:;
#CDTITLE:;
#SAMPLESTART:47.501;
#SAMPLELENGTH:13.241;
#OFFSET:-1.156;
#BPMS:0.000000=145.000000;
#STOPS:146.250000=0.103000,
146.500000=0.103000,
146.750000=0.103000,
147.000000=0.103000,
147.250000=0.103000,
147.500000=0.103000,
147.750000=0.103000,
148.000000=0.103000,
148.250000=0.103000,
148.500000=0.103000,
148.750000=0.103000,
149.000000=0.103000,
149.250000=0.103000,
149.500000=0.103000,
149.750000=0.103000,
150.000000=0.103000,
150.250000=0.103000,
150.500000=0.103000,
151.000000=0.206000,
151.500000=0.206000,
152.000000=0.103000,
152.250000=0.103000,
152.500000=0.103000,
152.750000=0.206000,
153.750000=0.103000,
154.000000=0.103000,
154.250000=0.103000,
154.500000=0.103000,
154.750000=0.103000,
155.000000=0.103000,
155.250000=0.103000,
155.500000=0.103000,
155.750000=0.103000,
156.000000=0.103000,
156.250000=0.103000,
156.500000=0.103000,
156.750000=0.103000,
157.000000=0.103000,
157.250000=0.103000,
157.500000=0.103000,
157.750000=0.103000,
158.000000=0.103000,
158.250000=0.103000,
158.500000=0.103000,
158.750000=0.103000,
159.000000=0.103000,
159.250000=0.103000,
159.500000=0.103000,
159.750000=0.103000,
160.000000=0.103000,
160.250000=0.103000,
160.500000=0.103000,
160.750000=0.103000,
161.000000=0.103000
;
#TIMESIGNATURES:0.000000=4=4;
#BGCHANGES:;
#FGCHANGES:;
#ATTACKS:;
#SPEEDS:0.000000=1.000000=0.000000=0;
#SCROLLS:0.000000=1.000000;
#KEYSOUNDS:;

//---------------dance-single - ---------------
#NOTES:
     dance-single:
     :
     Challenge:
     17:
     0,0,0,0,0:
// measure 0
0000
0000
0000
0000
,  // measure 1
0000
0000
0000
0000
0000
0000
0000
2000
,  // measure 2
0000
3200
0000
0302
0000
0103
1000
0001
,  // measure 3
1001
0000
1000
0000
0100
0000
0010
0000
0001
0100
1000
0100
0010
0000
1000
0000
,  // measure 4
1001
0001
0101
1010
1100
0011
0001
0100
,  // measure 5
1100
0100
0110
1010
1001
0011
0001
0010
,  // measure 6
0110
0100
1100
0011
0101
1010
1000
0001
,  // measure 7
0011
0000
0110
0000
1100
0000
0110
0000
0011
0000
0001
0100
1000
0100
0010
1000
,  // measure 8
1010
0101
0011
0110
0100
1100
1000
1001
,  // measure 9
0101
1010
1100
0011
0010
0110
0100
1100
,  // measure 10
1001
0101
1001
1010
0010
0110
0100
0101
,  // measure 11
0011
0000
0110
0000
1100
0000
0110
0000
0001
0010
0100
1000
0010
0100
0001
0010
,  // measure 12
0110
0000
0100
0000
1100
0000
0100
1000
0010
0100
0001
0000
0101
0000
0011
0000
,  // measure 13
0110
0000
0100
0000
1100
0000
0100
1000
0010
0100
0001
0000
1000
0000
0100
0000
,  // measure 14
0202
0303
0000
0100
1000
0000
0010
0000
0100
0000
0001
0000
1000
0000
0100
0000
,  // measure 15
0002
0203
2300
3020
0230
2300
3200
0302
,  // measure 16
1003
0000
1000
0100
0010
0000
0010
0001
0100
0000
0100
0010
1000
0000
1000
0010
,  // measure 17
0100
0001
0010
0100
1000
0000
1000
0001
0100
0000
0100
0010
1000
0000
1000
0001
,  // measure 18
0020
0032
0203
2300
3200
0320
2030
3002
,  // measure 19
0013
0000
0010
0100
1000
0000
1000
0001
0200
0310
1000
0001
0200
0310
1000
0001
,  // measure 20
0011
0000
0010
0000
0110
0000
0100
0010
0001
0100
0010
0000
1010
0000
0010
0000
,  // measure 21
0011
0000
0010
0000
0110
0000
0100
1000
0010
0100
1000
0000
1100
0000
0100
0000
,  // measure 22
0202
0303
0000
0100
0001
0000
0010
0000
0100
1000
0010
0000
0100
0001
0010
0100
,  // measure 23
2000
3020
0032
0023
2030
3200
0302
0203
,  // measure 24
0310
0000
0010
0001
0100
0000
0100
0010
1000
0000
1000
0001
0010
0000
0011
0000
,  // measure 25
1010
0110
1100
1002
0100
0010
1000
0013
,  // measure 26
0011
0010
0100
1000
0001
0100
1000
0100
,  // measure 27
0010
0000
0010
1000
0001
0000
0001
0010
0100
1000
0010
0001
0010
1000
0100
0010
,  // measure 28
0011
0001
0101
1100
0101
0011
1010
0011
,  // measure 29
0101
0100
0110
1010
1001
0011
0110
1100
,  // measure 30
1001
0000
1000
0100
0010
0000
0001
0100
0120
0000
0130
0000
0110
0100
0001
0000
,  // measure 31
1000
0000
0001
0100
1000
0000
0100
0010
1000
0000
0001
0010
0100
0000
0100
1000
,  // measure 32
1001
0001
0101
0100
0110
1010
0011
1010
,  // measure 33
1100
0100
0110
0010
0011
0101
1100
0201
,  // measure 34
0301
0102
0013
0021
0130
0210
1300
1100
,  // measure 35
1001
0000
0101
0000
1001
0000
1000
0010
0100
0001
0010
0100
1000
0001
0100
0010
,  // measure 36
0110
0000
0000
0000
0000
0000
0000
0000
0000
0000
0000
0000
0000
0000
0000
0000
0000
0000
0000
0000
0000
0000
0000
0000
0000
0000
0000
0000
0000
0000
0000
0000
0000
0000
0000
0000
0000
0000
0000
0000
0000
0000
0000
0000
0000
0000
0000
0000
0101
0000
0000
0000
0000
0000
0000
0000
0000
0000
0000
0000
0000
0000
0000
0000
0000
0000
0000
0000
0000
0000
0000
0000
1010
0000
0000
0000
0000
0000
0000
0000
0000
0000
0000
0000
0000
0000
0000
0000
0000
0000
0000
0000
0000
0000
0000
0000
1000
0000
0000
0000
0000
0000
0000
0000
0000
0000
0000
0000
0001
0010
0000
0000
0000
0000
0000
0000
0000
0000
0000
0000
0100
1000
0000
0000
0000
0000
0000
0000
0000
0000
0000
0000
0001
1000
0000
0000
0000
0000
0000
0000
0000
0000
0000
0000
0001
0010
0000
0000
0000
0000
0000
0000
0000
0000
0000
0000
0100
0010
0000
0000
0000
0000
0000
0000
0000
0000
0000
0000
0001
0100
0000
0000
0000
0000
0000
0000
0000
0000
0000
0000
0010
1000
0000
0000
0000
0000
0000
0000
0000
0000
0000
0000
,  // measure 37
0100
0001
0000
0000
0000
0000
0000
0000
0000
0000
0000
0000
0100
1000
0000
0000
0000
0000
0000
0000
0000
0000
0000
0000
0010
0001
0000
0000
0000
0000
0000
0000
0000
0000
0000
0000
0010
1000
0000
0000
0000
0000
0000
0000
0000
0000
0000
0000
0100
0010
0000
0000
0000
0000
0000
0000
0000
0000
0000
0000
0001
0100
0000
0000
0000
0000
0000
0000
0000
0000
0000
0000
1000
0100
0000
0000
0000
0000
0000
0000
0000
0000
0000
0000
0001
0010
0000
0000
0000
0000
0000
0000
0000
0000
0000
0000
0100
1000
0000
0000
0000
0000
0000
0000
0000
0000
0000
0000
0010
0100
0000
0000
0000
0000
0000
0000
0000
0000
0000
0000
0010
0001
0000
0000
0000
0000
0000
0000
0000
0000
0000
0000
0000
0000
0000
0000
0000
0000
0000
0000
0000
0000
0000
0000
0011
1010
0000
0000
0000
0000
0000
0000
0000
0000
0000
0000
0000
0000
0000
0000
0000
0000
0000
0000
0000
0000
0000
0000
1100
1001
0000
0000
0000
0000
0000
0000
0000
0000
0000
0000
0000
0000
0000
0000
0000
0000
0000
0000
0000
0000
0000
0000
,  // measure 38
0001
0010
0000
0000
0000
0000
0000
0000
0000
0000
0000
0000
0100
1000
0000
0000
0000
0000
0000
0000
0000
0000
0000
0000
0001
0100
0000
0000
0000
0000
0000
0000
0000
0000
0000
0000
0010
0110
0000
0000
0000
0000
0000
0000
0000
0000
0000
0000
0000
0000
0000
0000
0000
0000
0000
0000
0000
0000
0000
0000
1001
0000
0000
0000
0000
0000
0000
0000
0000
0000
0000
0000
0000
0000
0000
0000
0000
0000
0000
0000
0000
0000
0000
0000
1000
0100
0000
0000
0000
0000
0000
0000
0000
0000
0000
0000
0001
0100
0000
0000
0000
0000
0000
0000
0000
0000
0000
0000
1000
0010
0000
0000
0000
0000
0000
0000
0000
0000
0000
0000
0001
0010
0000
0000
0000
0000
0000
0000
0000
0000
0000
0000
1000
0100
0000
0000
0000
0000
0000
0000
0000
0000
0000
0000
0010
0001
0000
0000
0000
0000
0000
0000
0000
0000
0000
0000
0100
1000
0000
0000
0000
0000
0000
0000
0000
0000
0000
0000
0100
0001
0000
0000
0000
0000
0000
0000
0000
0000
0000
0000
0010
1000
0000
0000
0000
0000
0000
0000
0000
0000
0000
0000
,  // measure 39
0010
0001
0000
0000
0000
0000
0000
0000
0000
0000
0000
0000
0100
0001
0000
0000
0000
0000
0000
0000
0000
0000
0000
0000
0010
0100
0000
0000
0000
0000
0000
0000
0000
0000
0000
0000
1000
0001
0000
0000
0000
0000
0000
0000
0000
0000
0000
0000
0100
0010
0000
0000
0000
0000
0000
0000
0000
0000
0000
0000
1000
0100
0000
0000
0000
0000
0000
0000
0000
0000
0000
0000
0001
0100
0000
0000
0000
0000
0000
0000
0000
0000
0000
0000
1000
0010
0000
0000
0000
0000
0000
0000
0000
0000
0000
0000
0001
0010
0000
0000
0000
0000
0000
0000
0000
0000
0000
0000
1000
0100
0000
0000
0000
0000
0000
0000
0000
0000
0000
0000
0001
0100
0000
0000
0000
0000
0000
0000
0000
0000
0000
0000
1000
0010
0000
0000
0000
0000
0000
0000
0000
0000
0000
0000
0100
0001
0000
0000
0000
0000
0000
0000
0000
0000
0000
0000
0010
0100
0000
0000
0000
0000
0000
0000
0000
0000
0000
0000
1000
0010
0000
0000
0000
0000
0000
0000
0000
0000
0000
0000
0100
0001
0000
0000
0000
0000
0000
0000
0000
0000
0000
0000
,  // measure 40
0010
0100
0000
0000
0000
0000
0000
0000
0000
0000
0000
0000
1000
0001
0000
0000
0000
0000
0000
0000
0000
0000
0000
0000
0100
0010
0000
0000
0000
0000
0000
0000
0000
0000
0000
0000
1000
0010
0000
0000
0000
0000
0000
0000
0000
0000
0000
0000
0100
0001
0000
0000
0000
0000
0000
0000
0000
0000
0000
0000
0010
0000
0000
0000
0000
0000
0000
0000
0000
0000
0000
0000
0000
0000
0000
0000
0000
0000
0000
0000
0000
0000
0000
0000
0220
0000
0000
0000
0000
0000
0000
0000
0000
0000
0000
0000
0000
0000
0000
0000
0000
0000
0000
0000
0000
0000
0000
0000
0000
0000
0000
0000
0000
0000
0000
0000
0000
0000
0000
0000
0000
0000
0000
0000
0000
0000
0000
0000
0000
0000
0000
0000
0000
0000
0000
0000
0000
0000
0000
0000
0000
0000
0000
0000
0000
0000
0000
0000
0000
0000
0000
0000
0000
0000
0000
0000
0000
0000
0000
0000
0000
0000
0000
0000
0000
0000
0000
0000
0000
0000
0000
0000
0000
0000
0000
0000
0000
0000
0000
0000
0000
0000
0000
0000
0000
0000
0000
0000
0000
0000
0000
0000
,  // measure 41
0000
0000
0000
0000
,  // measure 42
0000
0000
0000
0000
,  // measure 43
0330
0000
0000
0000
;

//---------------dance-double - ---------------
#NOTES:
     dance-double:
     :
     Challenge:
     17:
     0,0,0,0,0:
// measure 0
00000000
00000000
00000000
00000000
,  // measure 1
00000000
00000000
00000000
00000000
00000000
00000000
00000000
20000000
,  // measure 2
00000000
30002000
00000000
00023000
00000000
00030002
00000000
00001003
,  // measure 3
00001001
00000000
00001000
00000000
00000001
00000000
00000010
00000000
00000100
00001000
00000001
00000010
00000100
00000000
00010000
00000000
,  // measure 4
00011000
00001000
00101000
01100000
11000000
10010000
00010000
01000000
,  // measure 5
01100000
01000000
01010000
00110000
01100000
11000000
10000000
00100000
,  // measure 6
01100000
01000000
01010000
00110000
00101000
00011000
00010010
00001010
,  // measure 7
00001001
00000000
00000101
00000000
00001001
00000000
00001100
00000000
00001000
00000010
00000100
00000001
00000010
00000100
00001000
00000010
,  // measure 8
00000110
00000100
00000101
00001001
00001100
00010100
00010000
00001000
,  // measure 9
00101000
00100000
01100000
11000000
10010000
01010000
00010000
01000000
,  // measure 10
01100000
01000000
01010000
00110000
00101000
00011000
00010010
00001010
,  // measure 11
00001001
00000000
00001000
00000001
00000010
00000000
00000010
00000100
00001000
00000010
00010000
00001000
00100000
01000000
10000000
00010000
,  // measure 12
01010000
00000000
00010000
00000000
00110000
00000000
00010000
00100000
01000000
10000000
00010000
00000000
20010000
00000000
30010000
00000000
,  // measure 13
10010000
00000000
00010000
00000000
00110000
00000000
00100000
00001000
00010000
00000010
00000100
00000000
00000001
00000010
00000100
00000000
,  // measure 14
00002000
00000000
00000000
00003001
00001000
00000000
00000020
00000000
00000130
00000010
00001000
00000000
00000001
00000010
00000100
00001000
,  // measure 15
00000020
00020030
00032000
00203000
02300000
23000000
30020000
02030000
,  // measure 16
03100000
00000000
01000000
00100000
10000000
00000000
01000000
00100000
00010000
00000000
01000000
00100000
10000000
00000000
01000000
10000000
,  // measure 17
00010000
01000000
00001000
00010000
00000100
00000000
00000100
00001000
00000010
00000000
00000100
00000001
00000010
00000000
00000100
00001000
,  // measure 18
00000002
00000023
00000230
00002300
00003020
00020030
00032000
00203000
,  // measure 19
01300000
00000000
01000000
10000000
00100000
00000000
01000000
00010000
00100000
01000000
10000000
00010000
00100000
01000000
10000000
00010000
,  // measure 20
10010000
00000000
00010000
00000000
00110000
00000000
00010000
00100000
00001000
00010000
00000010
00000000
00001010
00000000
00000011
00000000
,  // measure 21
00001010
00000000
00001000
00000000
00001100
00000000
00000100
00001000
00000010
00000100
00000001
00000000
00000101
00000000
00001010
00000000
,  // measure 22
00000102
00000000
00000000
00001003
00000002
00000000
00000023
00000000
00000130
00001000
00000010
00000000
00000100
00001000
00000100
00000001
,  // measure 23
00000020
00002030
00023000
00230000
02300000
03020000
20030000
31000000
,  // measure 24
01200000
00000000
01300000
00100000
00010000
00000000
01000000
00100000
10000000
00000000
10100000
00000000
00100000
00000000
01100000
00000000
,  // measure 25
01010000
00000000
00110000
00000000
00101000
00000000
00100010
00000000
00100000
00000010
00010000
00000000
00010000
00000010
00000100
00000000
,  // measure 26
00000200
00000302
00000023
00000230
00002300
00003020
00200030
02300000
,  // measure 27
13000000
00000000
10000000
00100000
01000000
00000000
01000000
00010000
10000000
01000000
00010000
01000000
10000000
00001000
00010000
00000100
,  // measure 28
00001100
00001000
00001010
00000110
00000101
00000110
00001010
00001001
,  // measure 29
00000011
00000010
00000110
00001100
00000110
00000011
00001001
00001010
,  // measure 30
00010010
00000000
00000010
00010000
00001000
00000000
00001000
00100000
00101000
00000000
00100000
00000000
00100010
00000010
00001000
00000000
,  // measure 31
00000100
00000000
00001000
00000001
00000010
00000000
00000100
00010000
00001000
00000000
00100000
00010000
01000000
00000000
01000000
00100000
,  // measure 32
10100000
00100000
01100000
01010000
10010000
11000000
01100000
00110000
,  // measure 33
10010000
10000000
10100000
00110000
10100000
11000000
01100000
00120000
,  // measure 34
01030000
01002000
00013000
00010200
00001300
00002100
00003010
00000201
,  // measure 35
00000310
00000000
00000100
00000010
00001000
00000000
00001010
00000000
00001000
00000001
00000010
00000100
00001000
00000010
00010000
00001000
,  // measure 36
00101000
00000000
00000000
00000000
00000000
00000000
00000000
00000000
00000000
00000000
00000000
00000000
00000000
00000000
00000000
00000000
00000000
00000000
00000000
00000000
00000000
00000000
00000000
00000000
00001000
00000000
00000000
00000000
00000000
00000000
00000000
00000000
00000000
00000000
00000000
00000000
00000000
00000000
00000000
00000000
00000000
00000000
00000000
00000000
00000000
00000000
00000000
00000000
00011000
00000000
00000000
00000000
00000000
00000000
00000000
00000000
00000000
00000000
00000000
00000000
00000000
00000000
00000000
00000000
00000000
00000000
00000000
00000000
00000000
00000000
00000000
00000000
00001010
00000000
00000000
00000000
00000000
00000000
00000000
00000000
00000000
00000000
00000000
00000000
00000000
00000000
00000000
00000000
00000000
00000000
00000000
00000000
00000000
00000000
00000000
00000000
00010000
00000000
00000000
00000000
00000000
00000000
00000000
00000000
00000000
00000000
00000000
00000000
00001000
00100000
00000000
00000000
00000000
00000000
00000000
00000000
00000000
00000000
00000000
00000000
01000000
10000000
00000000
00000000
00000000
00000000
00000000
00000000
00000000
00000000
00000000
00000000
00100000
01000000
00000000
00000000
00000000
00000000
00000000
00000000
00000000
00000000
00000000
00000000
00010000
00100000
00000000
00000000
00000000
00000000
00000000
00000000
00000000
00000000
00000000
00000000
00001000
00010000
00000000
00000000
00000000
00000000
00000000
00000000
00000000
00000000
00000000
00000000
00001000
01000000
00000000
00000000
00000000
00000000
00000000
00000000
00000000
00000000
00000000
00000000
00100000
10000000
00000000
00000000
00000000
00000000
00000000
00000000
00000000
00000000
00000000
00000000
,  // measure 37
01000000
10000000
00000000
00000000
00000000
00000000
00000000
00000000
00000000
00000000
00000000
00000000
00001000
00010000
00000000
00000000
00000000
00000000
00000000
00000000
00000000
00000000
00000000
00000000
00000001
00001000
00000000
00000000
00000000
00000000
00000000
00000000
00000000
00000000
00000000
00000000
00000010
00000100
00000000
00000000
00000000
00000000
00000000
00000000
00000000
00000000
00000000
00000000
00000001
00000010
00000000
00000000
00000000
00000000
00000000
00000000
00000000
00000000
00000000
00000000
00001000
00000010
00000000
00000000
00000000
00000000
00000000
00000000
00000000
00000000
00000000
00000000
00000100
00001000
00000000
00000000
00000000
00000000
00000000
00000000
00000000
00000000
00000000
00000000
00000010
00010000
00000000
00000000
00000000
00000000
00000000
00000000
00000000
00000000
00000000
00000000
00001000
00100000
00000000
00000000
00000000
00000000
00000000
00000000
00000000
00000000
00000000
00000000
01000000
10000000
00000000
00000000
00000000
00000000
00000000
00000000
00000000
00000000
00000000
00000000
00010000
10010000
00000000
00000000
00000000
00000000
00000000
00000000
00000000
00000000
00000000
00000000
00000000
00000000
00000000
00000000
00000000
00000000
00000000
00000000
00000000
00000000
00000000
00000000
00011000
00001001
00000000
00000000
00000000
00000000
00000000
00000000
00000000
00000000
00000000
00000000
00000000
00000000
00000000
00000000
00000000
00000000
00000000
00000000
00000000
00000000
00000000
00000000
00011000
10010000
00000000
00000000
00000000
00000000
00000000
00000000
00000000
00000000
00000000
00000000
00000000
00000000
00000000
00000000
00000000
00000000
00000000
00000000
00000000
00000000
00000000
00000000
,  // measure 38
10000000
01000000
00000000
00000000
00000000
00000000
00000000
00000000
00000000
00000000
00000000
00000000
00100000
01000000
00000000
00000000
00000000
00000000
00000000
00000000
00000000
00000000
00000000
00000000
10000000
00010000
00000000
00000000
00000000
00000000
00000000
00000000
00000000
00000000
00000000
01000000
00000000
01100000
00000000
00000000
00000000
00000000
00000000
00000000
00000000
00000000
00000000
00000000
00000000
00000000
00000000
00000000
00000000
00000000
00000000
00000000
00000000
00000000
00000000
00000000
10010000
00000000
00000000
00000000
00000000
00000000
00000000
00000000
00000000
00000000
00000000
00000000
00000000
00000000
00000000
00000000
00000000
00000000
00000000
00000000
00000000
00000000
00000000
00000000
10000000
01000000
00000000
00000000
00000000
00000000
00000000
00000000
00000000
00000000
00000000
00000000
00100000
01000000
00000000
00000000
00000000
00000000
00000000
00000000
00000000
00000000
00000000
00000000
10000000
00100000
00000000
00000000
00000000
00000000
00000000
00000000
00000000
00000000
00000000
00000000
01000000
00010000
00000000
00000000
00000000
00000000
00000000
00000000
00000000
00000000
00000000
00000000
00100000
00001000
00000000
00000000
00000000
00000000
00000000
00000000
00000000
00000000
00000000
00000000
00010000
00000010
00000000
00000000
00000000
00000000
00000000
00000000
00000000
00000000
00000000
00000000
00000100
00000001
00000000
00000000
00000000
00000000
00000000
00000000
00000000
00000000
00000000
00000000
00000010
00000100
00000000
00000000
00000000
00000000
00000000
00000000
00000000
00000000
00000000
00000000
00001000
00000010
00000000
00000000
00000000
00000000
00000000
00000000
00000000
00000000
00000000
00000000
,  // measure 39
00010000
00001000
00000000
00000000
00000000
00000000
00000000
00000000
00000000
00000000
00000000
00000000
00100000
01000000
00000000
00000000
00000000
00000000
00000000
00000000
00000000
00000000
00000000
00000000
10000000
00100000
00000000
00000000
00000000
00000000
00000000
00000000
00000000
00000000
00000000
00000000
01000000
10000000
00000000
00000000
00000000
00000000
00000000
00000000
00000000
00000000
00000000
00000000
01000000
00010000
00000000
00000000
00000000
00000000
00000000
00000000
00000000
00000000
00000000
00000000
00100000
00001000
00000000
00000000
00000000
00000000
00000000
00000000
00000000
00000000
00000000
00000000
00010000
00000010
00000000
00000000
00000000
00000000
00000000
00000000
00000000
00000000
00000000
00000000
00000100
00000001
00000000
00000000
00000000
00000000
00000000
00000000
00000000
00000000
00000000
00000000
00000010
00000100
00000000
00000000
00000000
00000000
00000000
00000000
00000000
00000000
00000000
00000000
00001000
00000010
00000000
00000000
00000000
00000000
00000000
00000000
00000000
00000000
00000000
00000000
00010000
00001000
00000000
00000000
00000000
00000000
00000000
00000000
00000000
00000000
00000000
00000000
00100000
01000000
00000000
00000000
00000000
00000000
00000000
00000000
00000000
00000000
00000000
00000000
10000000
00100000
00000000
00000000
00000000
00000000
00000000
00000000
00000000
00000000
00000000
00000000
01000000
00010000
00000000
00000000
00000000
00000000
00000000
00000000
00000000
00000000
00000000
00000000
10000000
01000000
00000000
00000000
00000000
00000000
00000000
00000000
00000000
00000000
00000000
00000000
10000000
00100000
00000000
00000000
00000000
00000000
00000000
00000000
00000000
00000000
00000000
00000000
,  // measure 40
01000000
00001000
00000000
00000000
00000000
00000000
00000000
00000000
00000000
00000000
00000000
00000000
00010000
00000010
00000000
00000000
00000000
00000000
00000000
00000000
00000000
00000000
00000000
00000000
00000100
00000001
00000000
00000000
00000000
00000000
00000000
00000000
00000000
00000000
00000000
00000000
00001000
00000100
00000000
00000000
00000000
00000000
00000000
00000000
00000000
00000000
00000000
00000000
00010000
00001000
00000000
00000000
00000000
00000000
00000000
00000000
00000000
00000000
00000000
00000000
00010000
00000000
00000000
00000000
00000000
00000000
00000000
00000000
00000000
00000000
00000000
00000000
00000000
00000000
00000000
00000000
00000000
00000000
00000000
00000000
00000000
00000000
00000000
00000000
00022000
00000000
00000000
00000000
00000000
00000000
00000000
00000000
00000000
00000000
00000000
00000000
00000000
00000000
00000000
00000000
00000000
00000000
00000000
00000000
00000000
00000000
00000000
00000000
00000000
00000000
00000000
00000000
00000000
00000000
00000000
00000000
00000000
00000000
00000000
00000000
00000000
00000000
00000000
00000000
00000000
00000000
00000000
00000000
00000000
00000000
00000000
00000000
00000000
00000000
00000000
00000000
00000000
00000000
00000000
00000000
00000000
00000000
00000000
00000000
00000000
00000000
00000000
00000000
00000000
00000000
00000000
00000000
00000000
00000000
00000000
00000000
00000000
00000000
00000000
00000000
00000000
00000000
00000000
00000000
00000000
00000000
00000000
00000000
00000000
00000000
00000000
00000000
00000000
00000000
00000000
00000000
00000000
00000000
00000000
00000000
00000000
00000000
00000000
00000000
00000000
00000000
00000000
00000000
00000000
00000000
00000000
00000000
,  // measure 41
00000000
00000000
00000000
00000000
,  // measure 42
00000000
00000000
00000000
00000000
,  // measure 43
00033000
00000000
00000000
00000000
;
