#TITLE:Navegando en Internet;
#SUBTITLE:;
#ARTIST:María José, Sara y Úrsula;
#MUSIC:Navegando en Internet.mp3;
#BANNER:Navegando en Internet.png;
#BACKGROUND:Navegando en Internet-bg.png;
#LYRICSPATH:;
#CDTITLE:;
#SAMPLESTART:60.92;
#SAMPLELENGTH:15.879999999999995;
#BPMS:0.000000=125.000000;
#STOPS:;
#TIMESIGNATURES:;
#BGCHANGES:;
#FGCHANGES:;
#ATTACKS:;
#SPEEDS:;
#SCROLLS:;
#KEYSOUNDS:;

//---------------dance-single - ---------------
#NOTES:
     dance-single:
     :
     Beginner:
     5:
     0,0,0,0,0:
// measure 0
0000
0000
0000
0000
,  // measure 1
0000
0000
0000
0000
,  // measure 2
1000
1000
1000
0000
,  // measure 3
0001
0001
0001
0000
,  // measure 4
0020
0030
0010
0000
,  // measure 5
0100
0100
0100
0000
,  // measure 6
0001
0001
0001
0000
,  // measure 7
1000
1000
1000
0000
,  // measure 8
0020
0030
0010
0000
,  // measure 9
0100
0100
0100
0000
,  // measure 10
0001
0001
0001
0000
,  // measure 11
1000
1000
1000
0000
,  // measure 12
0001
0001
0001
0000
,  // measure 13
0010
0010
0010
0000
,  // measure 14
0001
0001
0001
0000
,  // measure 15
1000
1000
1000
0000
,  // measure 16
0001
0001
0001
0000
,  // measure 17
0100
0100
0100
0000
,  // measure 18
0001
0001
0001
0000
,  // measure 19
1000
1000
1000
0000
,  // measure 20
0010
0010
0010
0000
,  // measure 21
0010
0010
0010
0000
,  // measure 22
1000
1000
1000
0000
,  // measure 23
0001
0001
0001
0000
,  // measure 24
0010
0010
0010
0000
,  // measure 25
0100
0100
0100
0000
,  // measure 26
0002
0003
0001
0000
,  // measure 27
2000
3000
1000
0000
,  // measure 28
0200
0300
0100
0000
,  // measure 29
0020
0030
0010
0000
,  // measure 30
2000
3000
1000
0000
,  // measure 31
0002
0003
0001
0000
,  // measure 32
1000
1000
1000
0000
,  // measure 33
0001
0001
0001
0000
,  // measure 34
0020
0030
0010
0000
,  // measure 35
0100
0100
0100
0000
,  // measure 36
0001
0001
0001
0000
,  // measure 37
1000
1000
1000
0000
,  // measure 38
0020
0030
0010
0000
,  // measure 39
0100
0100
0100
0000
,  // measure 40
2000
3000
1000
0000
,  // measure 41
0002
0003
0001
0000
,  // measure 42
1001
1001
1001
0000
,  // measure 43
2000
3000
1000
0000
,  // measure 44
1001
1001
1001
0000
,  // measure 45
0110
0110
0110
0000
,  // measure 46
1001
1001
1001
0000
,  // measure 47
0110
0110
0110
0000
,  // measure 48
2002
0000
0000
3003
,  // measure 49
1000
1000
1000
0000
,  // measure 50
0001
0001
0001
0000
,  // measure 51
0020
0030
0010
0000
,  // measure 52
0100
0100
0100
0000
,  // measure 53
0001
0001
0001
0000
,  // measure 54
1000
1000
1000
0000
,  // measure 55
0020
0030
0010
0000
,  // measure 56
0100
0100
0100
0000
,  // measure 57
0010
0010
0010
0000
,  // measure 58
0100
0100
0100
0000
,  // measure 59
0002
0003
0001
0000
,  // measure 60
1000
1000
1000
0000
,  // measure 61
1001
0000
0000
0000
;

//---------------dance-single - ---------------
#NOTES:
     dance-single:
     :
     Easy:
     8:
     0,0,0,0,0:
// measure 0
0000
0000
0000
0000
,  // measure 1
0000
0000
0000
0000
,  // measure 2
1000
0001
1000
0000
,  // measure 3
1000
0001
1000
0000
,  // measure 4
0002
0000
0023
0000
,  // measure 5
0130
0100
0100
0000
,  // measure 6
1000
0001
1000
0000
,  // measure 7
1000
0001
1000
0000
,  // measure 8
0002
0000
0023
0000
,  // measure 9
0031
0001
0001
0000
,  // measure 10
1000
0001
0100
0010
,  // measure 11
0100
0001
0010
0100
,  // measure 12
0010
0001
1000
0010
,  // measure 13
0100
0010
1000
1001
,  // measure 14
1000
0001
0100
0010
,  // measure 15
1000
0100
0010
0001
,  // measure 16
0010
0100
1000
0010
,  // measure 17
0100
0001
0010
0110
,  // measure 18
0010
0001
0010
0100
,  // measure 19
1000
0100
1000
0010
,  // measure 20
0200
0000
0301
0000
,  // measure 21
2000
0000
3010
0000
,  // measure 22
0100
0001
0100
0010
,  // measure 23
1000
0100
1000
0010
,  // measure 24
0200
0000
0301
0000
,  // measure 25
0020
0000
0130
0000
,  // measure 26
1000
0100
0001
0100
,  // measure 27
2000
0000
3020
0000
,  // measure 28
1030
0001
0100
0010
,  // measure 29
2000
0000
3200
0000
,  // measure 30
0301
0100
2000
0000
,  // measure 31
3001
0100
1000
0101
,  // measure 32
1000
0001
1000
0001
,  // measure 33
1000
0001
1000
0002
,  // measure 34
0023
0000
0230
0000
,  // measure 35
1300
1000
1000
1001
,  // measure 36
0001
1000
0001
1000
,  // measure 37
0001
1000
0001
2000
,  // measure 38
3020
0000
0230
0000
,  // measure 39
0301
0001
0001
0000
,  // measure 40
1001
1000
0010
0100
,  // measure 41
0101
0011
1100
1010
,  // measure 42
1001
0100
0001
0010
,  // measure 43
0011
1100
1010
0101
,  // measure 44
1001
1100
1001
0101
,  // measure 45
1001
0110
1001
0110
,  // measure 46
1001
0001
0010
0100
,  // measure 47
1000
0001
0100
0010
,  // measure 48
0220
0000
0000
0330
,  // measure 49
1001
0001
1000
0001
,  // measure 50
1000
0001
1000
0002
,  // measure 51
0023
0000
0230
0000
,  // measure 52
1300
1000
1000
1100
,  // measure 53
0001
1000
0001
1000
,  // measure 54
0001
1000
0001
2000
,  // measure 55
3020
0000
0230
0000
,  // measure 56
0301
0001
0001
0011
,  // measure 57
0100
0010
0100
0010
,  // measure 58
0100
0010
0100
0020
,  // measure 59
0032
0000
2003
0000
,  // measure 60
3010
0010
1000
0001
,  // measure 61
1001
0000
0000
0000
;

//---------------dance-single - ---------------
#NOTES:
     dance-single:
     :
     Medium:
     10:
     0,0,0,0,0:
// measure 0
0000
0000
0000
0000
,  // measure 1
0000
0000
0000
0000
,  // measure 2
1001
0000
1000
0000
0010
1000
0100
0000
,  // measure 3
1000
0000
0001
0000
0100
0010
0100
0000
,  // measure 4
0001
0000
0000
1000
0000
0000
2002
0000
0000
0000
0000
0000
3003
0000
0000
0000
,  // measure 5
1000
0000
0000
0001
0000
0000
2002
0000
0000
0000
3003
0000
1001
0000
0000
0000
,  // measure 6
0001
0000
0010
0000
0100
1000
0010
0000
,  // measure 7
1000
0000
0010
0000
0100
0001
0010
0000
,  // measure 8
0001
0000
0000
1000
0000
0000
2002
0000
0000
0000
0000
0000
3003
0000
0000
0000
,  // measure 9
1000
0000
0000
0010
0000
0000
0220
0000
0000
0000
0000
0000
0330
0000
0000
0000
,  // measure 10
1000
0001
1000
0000
0001
1000
0001
0000
,  // measure 11
0011
1100
1010
0101
,  // measure 12
0100
0001
0100
0000
0001
0100
0001
0000
,  // measure 13
0101
1010
1100
0011
,  // measure 14
0010
0001
0010
0000
0010
0001
0010
0000
,  // measure 15
0011
1100
1010
0101
,  // measure 16
0010
0100
0010
0000
0010
0100
0010
0000
,  // measure 17
0110
0011
1100
1010
,  // measure 18
1000
0000
1000
0000
0001
1000
0001
0000
,  // measure 19
0010
0000
0010
0000
0001
1000
0001
0000
,  // measure 20
1000
0000
0000
0010
0000
0000
0020
0000
0000
0000
0000
0000
0030
0000
0000
0000
,  // measure 21
1000
0000
0000
0001
0000
0000
0200
0000
0000
0000
0000
0000
0300
0000
0000
0000
,  // measure 22
0010
0000
0010
0000
0010
0100
0010
0000
,  // measure 23
0100
0000
0100
0000
0100
0010
0100
0000
,  // measure 24
0100
0000
0000
0001
0000
0000
2000
0000
0000
0000
0000
0000
3000
0000
0000
0000
,  // measure 25
0100
0000
0000
1000
0000
0000
0020
0000
0000
0000
0000
0000
0030
0000
0000
0000
,  // measure 26
1000
0001
1000
0000
0001
1000
0010
0000
,  // measure 27
0010
0100
0001
0000
1000
0100
0010
0000
,  // measure 28
0001
1000
0010
0000
0010
1000
0001
0000
,  // measure 29
0100
0001
0010
0000
0010
0001
0100
0000
,  // measure 30
0001
1000
0010
0000
0010
1000
0001
0000
,  // measure 31
2000
0000
3002
0000
0023
0030
0110
0000
,  // measure 32
1000
0000
0001
0000
1000
0010
1000
0000
,  // measure 33
0001
0000
1000
0000
0001
0100
0001
0000
,  // measure 34
1000
0000
0000
0001
0000
0000
2002
0000
0000
0000
0000
0000
3003
0000
0000
0000
,  // measure 35
0001
0000
0000
1000
0000
0000
2002
0000
0000
0000
3003
0000
1001
0000
0000
0000
,  // measure 36
1000
0000
0010
0000
0100
0001
0010
0000
,  // measure 37
0001
0000
0100
0000
0010
1000
0100
0000
,  // measure 38
1000
0000
0000
0001
0000
0000
0022
0000
0000
0000
0000
0000
0033
0000
0000
0000
,  // measure 39
0001
0000
0000
1000
0000
0000
2020
0000
0000
0000
0000
0000
3030
0000
0000
0000
,  // measure 40
1100
1000
0010
0100
,  // measure 41
0101
1010
1100
0011
,  // measure 42
0101
1100
0101
1001
,  // measure 43
1100
0101
1100
1001
,  // measure 44
1010
1000
0001
0010
,  // measure 45
0011
1100
1010
0101
,  // measure 46
1001
1000
0010
0100
,  // measure 47
0001
0000
0000
1000
0000
0000
0020
0000
0000
0000
0000
0000
0000
0000
0200
0000
,  // measure 48
0000
0000
0000
0000
0000
0330
1001
0000
,  // measure 49
1000
0000
0001
0000
0100
0010
1000
0000
,  // measure 50
0001
0000
1000
0000
0100
0010
0001
0000
,  // measure 51
1000
0000
0000
0001
0000
0000
2002
0000
0000
0000
0000
0000
3003
0000
0000
0000
,  // measure 52
0001
0000
0000
1000
0000
0000
2002
0000
0000
0000
3003
0000
1001
0000
0000
0000
,  // measure 53
1000
0000
0001
0000
0010
0100
1000
0000
,  // measure 54
0001
0000
1000
0000
0010
0100
0001
0000
,  // measure 55
1000
0000
0000
0001
0000
0000
0022
0000
0000
0000
0000
0000
0033
0000
0000
0000
,  // measure 56
0001
0000
0000
1000
0000
0000
2020
0000
0000
0000
3030
0000
1010
0000
0000
0000
,  // measure 57
1000
0000
0010
0000
0100
1000
0100
0000
,  // measure 58
0001
0000
1000
0000
0100
0001
0100
0000
,  // measure 59
1000
0000
0000
0001
0000
0000
2002
0000
0000
0000
0000
0000
3003
0000
0000
0000
,  // measure 60
0100
0000
0000
0010
0000
0000
0220
0000
0000
0000
0000
0000
0330
0000
0000
0000
,  // measure 61
1001
0000
0000
0000
;

//---------------dance-single - ---------------
#NOTES:
     dance-single:
     :
     Hard:
     14:
     0,0,0,0,0:
// measure 0
0000
0000
0000
0000
,  // measure 1
0000
0000
0000
0000
0000
0000
0010
1000
,  // measure 2
0010
0000
0000
0100
0000
0010
0000
1000
0000
0000
0000
0000
0010
0000
1000
0000
,  // measure 3
0010
0000
0000
0100
0000
0001
0000
0002
0000
0000
0000
0000
1003
0000
0001
0000
,  // measure 4
0010
0000
0000
0100
0000
0000
0200
0000
0000
0000
0000
0000
0300
0000
0000
0000
,  // measure 5
1000
0000
0000
0010
0000
0000
0002
0000
0000
0000
0000
0000
0013
0000
1000
0000
,  // measure 6
0001
0000
0000
0100
0000
0010
0000
1000
0000
0000
0000
0000
0010
0000
1000
0000
,  // measure 7
0001
0000
0000
0010
0000
0001
0000
0002
0000
0000
0000
0000
1003
0000
0001
0000
,  // measure 8
0010
0000
0000
0100
0000
0000
0200
0000
0000
0000
0000
0000
0300
0000
1000
0000
,  // measure 9
0010
0000
0000
0100
0000
0000
0002
0000
0000
0000
0000
0000
1003
0000
0000
0000
,  // measure 10
1000
0000
0010
0000
0100
0010
0000
0000
0010
0000
1000
0000
0001
0000
0010
0000
,  // measure 11
0100
0000
0010
0000
0100
0010
0000
0000
0010
0000
0001
0000
0001
0000
1000
0000
,  // measure 12
0100
0000
0010
0000
0100
0010
0000
0000
1000
0000
0010
0000
0001
0000
0100
0000
,  // measure 13
0010
0000
1000
0000
0010
1000
0000
0000
0001
1000
0001
1000
0001
0000
1001
0000
,  // measure 14
0001
0000
0010
0000
0100
0010
0000
0000
0001
0000
0100
0000
0010
0000
1000
0000
,  // measure 15
0100
0000
0010
0000
0100
0010
0000
0000
0001
0000
0010
0000
0100
0000
0010
0000
,  // measure 16
0001
0000
0010
0000
0100
0010
0000
0000
1000
0000
0010
0000
0001
0000
0100
0000
,  // measure 17
0010
0000
1000
0000
0010
1000
0000
0000
1000
0001
1000
0001
1000
0000
1001
0000
,  // measure 18
2000
0000
0000
0100
0000
0100
0000
0001
0000
0001
0000
3100
0000
0000
0001
0000
,  // measure 19
0200
0000
0000
0010
0000
0010
0000
1000
0000
1000
0000
0020
0000
0330
0000
0000
,  // measure 20
2000
0000
0000
3020
0000
0000
0032
0000
0000
0000
0000
0000
1000
0000
0000
0000
,  // measure 21
0023
0000
0000
2030
0000
0000
3002
0000
0000
0000
0000
0000
0013
0000
0100
0000
,  // measure 22
2000
0000
0000
0010
0000
0010
0000
0001
0000
0001
0000
3010
0000
0000
0100
0000
,  // measure 23
0002
0000
0000
0010
0000
0010
0000
1000
0000
1000
0000
0200
0000
0303
0000
0000
,  // measure 24
2000
0000
0000
3020
0000
0000
0032
0000
0000
0000
0000
0000
1000
0000
0000
0000
,  // measure 25
0023
0000
0000
0230
0000
0000
0302
0000
0000
0000
0000
0000
1003
0000
0000
0000
,  // measure 26
2000
0000
0000
0010
0000
3010
0000
0000
0200
0000
0000
0001
0000
0301
0000
0000
,  // measure 27
0020
0000
0000
0100
0000
0130
0000
0000
0002
0000
0000
1000
0000
1003
0000
0000
,  // measure 28
0200
0000
0000
0010
0000
0310
0000
0000
2000
0000
0000
0010
0000
3010
0000
0000
,  // measure 29
0002
0000
0000
0010
0000
0013
0000
0000
0200
0000
0000
0010
0000
0310
0000
0000
,  // measure 30
0001
0000
0000
1000
0000
0000
2001
0000
0001
0000
0000
0001
0000
0000
3001
0000
,  // measure 31
0010
0000
0000
0100
0000
0000
2000
0000
0001
0000
0000
0000
3001
0000
1000
0000
,  // measure 32
0010
0000
0000
0100
0000
0001
0000
0010
0000
0000
0000
0000
0100
0000
0010
0000
,  // measure 33
0001
0000
0000
1000
0000
0001
0000
0020
0000
0000
0030
0000
0010
0000
0001
0000
,  // measure 34
0010
0000
0000
0100
0000
0000
0200
0000
0000
0000
0000
0000
0300
0000
0000
0000
,  // measure 35
1000
0000
0000
0010
0000
0000
0002
0000
0000
0000
0000
0000
0013
0000
1000
0000
,  // measure 36
0001
0000
0000
1000
0000
0010
0000
0001
0000
0000
0000
0000
0001
0000
0010
0000
,  // measure 37
1000
0000
0000
0100
0000
0001
0000
0200
0000
0000
0000
0000
0310
0000
0001
0000
,  // measure 38
0010
0000
0000
0100
0000
0000
2000
0000
0000
0000
0000
0000
3001
0000
1000
0000
,  // measure 39
0010
0000
0000
0100
0000
0000
0002
0000
0000
0000
0000
0000
1003
0000
0000
0000
,  // measure 40
1001
0000
0000
0000
0110
0000
0000
0010
0001
0000
1000
0000
0010
0000
0000
0000
,  // measure 41
0110
0000
0000
0000
1010
0000
0000
0010
0001
0000
0010
0000
1000
0000
0100
0000
,  // measure 42
0011
0000
0000
2200
0000
0000
0000
0000
3300
0000
0000
0000
0100
0000
0010
0000
,  // measure 43
0002
0000
0000
2000
0000
0000
0000
0000
3003
0000
0000
0000
1001
0000
0100
0000
,  // measure 44
0110
0000
0000
0012
0000
0000
2000
0000
0003
0000
0200
0000
3000
0000
0310
0000
,  // measure 45
0011
0000
0000
1100
0000
0000
1010
0000
0000
0000
0102
0000
0013
0000
0100
0000
,  // measure 46
1100
0000
0000
2020
0000
0000
0000
0000
3030
0000
1000
0000
0010
0000
0100
0000
,  // measure 47
0001
0000
0000
0001
0000
0000
2000
0000
0000
0000
0000
0000
0000
0000
3001
0000
,  // measure 48
0001
1000
0001
1000
0001
1000
0001
2000
0002
0000
3003
0000
1001
0000
1000
0000
,  // measure 49
1010
0000
0000
0100
0000
0010
0000
1000
0000
0000
0000
0000
0010
0000
0100
0000
,  // measure 50
0001
0000
0000
0010
0000
0100
0000
2000
0000
0000
0000
0000
3010
0000
1000
0000
,  // measure 51
1010
0000
0000
0101
0000
0000
2020
0000
0000
0000
3030
0000
1010
0000
0000
0000
,  // measure 52
1000
0000
0000
0100
0000
0000
0002
0000
0000
0000
0000
0000
0103
0000
1000
0000
,  // measure 53
0010
0000
0000
0100
0000
0010
0000
0001
0000
0000
0000
0000
0010
0000
0100
0000
,  // measure 54
0001
0000
0000
0010
0000
0100
0000
2000
0000
0000
0000
0000
3010
0000
0100
0000
,  // measure 55
0001
0000
0000
1000
0000
0000
2002
0000
0000
0000
3003
0000
1001
0000
1000
0000
,  // measure 56
0010
0000
0000
0100
0000
0000
0020
0000
0000
0000
0000
0000
1030
0000
0001
0000
,  // measure 57
0010
0000
0001
0010
0000
0001
0000
0010
0000
0000
0000
0000
0100
0000
0010
0000
,  // measure 58
0100
0000
1000
0100
0000
1000
0000
0100
0000
2000
0000
0000
3010
0000
0100
0000
,  // measure 59
0001
0000
0000
0010
0000
0000
0021
0000
0100
0000
0000
0000
0031
0000
1000
0000
,  // measure 60
1010
0000
0000
0101
0000
0000
1001
0000
1000
0001
1000
0001
1000
0001
1000
0001
,  // measure 61
0011
0000
0000
0000
;

//---------------dance-single - ---------------
#NOTES:
     dance-single:
     :
     Challenge:
     17:
     0,0,0,0,0:
// measure 0
0000
0000
0000
0000
,  // measure 1
0000
0000
0000
0000
0000
0000
1000
0001
,  // measure 2
0011
0000
0100
0100
0000
0010
0000
0002
0000
0000
0000
0000
0013
0000
0100
0000
,  // measure 3
0010
0000
0001
0001
0000
1000
0000
0001
0000
0002
0000
0000
0013
0000
0001
0000
,  // measure 4
0011
0000
0000
1100
0000
0000
0220
0000
0000
0000
0000
0000
0330
0000
0000
0000
,  // measure 5
2000
0000
0000
3200
0000
0000
0302
0000
1000
0000
1000
0000
0203
0000
2300
0000
,  // measure 6
3010
0000
0100
0100
0000
0010
0000
2000
0000
0000
0000
0000
3010
0000
1000
0000
,  // measure 7
0001
0000
0100
0010
0000
1000
0000
0001
0000
0002
0000
0000
0013
0000
0001
0000
,  // measure 8
0011
0000
0000
1100
0000
0000
0220
0000
0000
0000
0000
0000
0330
0000
1000
0000
,  // measure 9
0010
0000
0000
0100
0000
0000
0002
0000
1000
0000
1003
0000
1000
0001
1000
0001
,  // measure 10
0011
0000
0010
0000
0001
0100
0010
0000
1000
0100
0010
0000
0011
0000
0101
0000
,  // measure 11
1010
0000
0010
0000
1000
0010
0100
0000
0001
0020
0031
0000
0100
0020
0130
0000
,  // measure 12
0101
0000
1000
0000
0010
1000
0100
0000
0010
0001
0100
0000
0101
0000
1000
0000
,  // measure 13
1010
0000
0001
0000
1000
0001
0010
0000
0001
0100
0001
1000
0010
0000
1010
0000
,  // measure 14
0101
0000
0010
0000
0001
0100
0010
0000
0010
1000
0100
0000
1100
0000
0010
0000
,  // measure 15
0110
0000
0010
0000
1000
0001
0010
0000
0010
0200
1300
0000
1000
0020
0130
0000
,  // measure 16
0101
0000
0001
0000
0010
0001
0100
0000
0010
1000
0100
0000
1100
0000
0001
0000
,  // measure 17
0101
0000
0001
0000
0010
0001
0100
0000
0001
1000
0100
1000
0010
0000
1010
0010
,  // measure 18
1000
1000
0000
0100
0000
0010
0000
0100
0000
1000
0000
0001
0000
0001
0100
0010
,  // measure 19
0100
0010
0000
0010
0000
0100
0000
0100
0000
0001
0000
0200
0000
0300
0000
0000
,  // measure 20
0201
0000
0000
0010
0000
0000
2000
0000
0000
0000
0000
0000
3300
0000
0000
0000
,  // measure 21
1200
0000
0000
0010
0000
0000
0002
0000
0000
0000
0303
0000
0101
0000
0100
0100
,  // measure 22
0001
0000
0001
1000
0000
0010
0000
0100
0000
0010
0000
0100
0000
0100
0010
1000
,  // measure 23
0010
0000
1000
0001
0000
0010
0000
0010
0000
0100
0000
0200
0000
0300
0000
0000
,  // measure 24
0201
0000
0000
0010
0000
0000
2000
0000
0000
0000
0000
0000
3300
0000
0000
0000
,  // measure 25
0201
0000
0000
0010
0000
0000
2000
0000
0000
0000
3300
0000
1100
0000
0100
0000
,  // measure 26
0002
0000
0000
0010
0000
0010
0013
0000
0020
0000
0000
0100
0000
0100
0130
0000
,  // measure 27
0020
0000
0000
0001
0000
0001
0031
0000
0002
0000
0000
1000
0000
1000
1003
0000
,  // measure 28
2000
0000
0000
0010
0000
0010
3010
0000
0020
0000
0000
0100
0000
0100
0130
0000
,  // measure 29
0200
0000
0000
0001
0000
0001
0301
0000
0002
0000
0000
1000
0000
1000
1003
0001
,  // measure 30
0022
0033
0000
2200
3300
0000
2002
0000
0000
0000
0000
0000
3003
0000
1010
0000
,  // measure 31
2020
3030
0000
0022
0033
0000
2002
0000
0000
0000
3003
0000
1001
0000
1000
0000
,  // measure 32
1010
0000
0100
0100
0000
0010
0000
2000
0000
0000
0000
0000
3010
0000
1000
0000
,  // measure 33
1100
0000
0100
0010
0000
1000
0000
0010
0000
0200
0000
0000
0310
0000
0001
0000
,  // measure 34
0011
0000
0000
1100
0000
0000
0220
0000
0000
0300
0000
0000
0031
0000
0000
0000
,  // measure 35
0101
0000
0000
1100
0000
0000
0102
0000
1000
0000
1003
0000
0010
0000
0001
0000
,  // measure 36
0011
0000
0100
0100
0000
0010
0000
0002
0000
0000
0000
0000
0013
0000
0001
0000
,  // measure 37
0101
0000
0100
0010
0000
1000
0000
0001
0000
0002
0000
0000
0013
0000
0001
0000
,  // measure 38
0101
0000
0000
1100
0000
0000
0220
0000
0000
0300
0000
0000
1030
0000
0001
0000
,  // measure 39
0021
0030
0000
0210
0300
0000
2200
0000
0000
0000
0000
0000
0000
0000
3300
0000
,  // measure 40
1001
0000
0000
0010
0010
0001
0100
0010
1000
0100
0010
0100
1000
0010
0100
0001
,  // measure 41
0202
0303
0000
0000
2002
3003
0000
1000
1010
0000
0010
0000
0001
0000
0010
0000
,  // measure 42
1010
0000
0000
0202
0000
0000
0303
0000
1000
0000
1000
0000
0100
0000
0010
0000
,  // measure 43
0002
0000
0003
0002
0000
0003
1000
0000
0001
0000
0001
0000
0011
0000
0001
0000
,  // measure 44
0011
0000
0000
2200
3300
0000
0220
0000
0330
0000
0220
0000
0330
0000
0110
0000
,  // measure 45
0011
0000
0000
0101
0000
0000
1010
0000
0000
0000
2100
0000
0010
0000
3100
0000
,  // measure 46
0011
0000
0000
0202
0000
0000
0000
0000
0303
0000
0001
0000
0010
0000
0001
0000
,  // measure 47
1000
0000
0000
0001
0000
0000
0200
0000
0000
0000
0000
0000
0000
0000
0310
0000
,  // measure 48
0100
0010
0100
0010
0100
0010
0100
0020
0200
0000
0330
0000
0110
0000
0100
0000
,  // measure 49
0101
0000
0100
0100
0000
0010
0000
2000
0000
0000
0000
0000
3010
0000
1000
0000
,  // measure 50
1010
0000
0100
0001
0000
0010
0000
0001
0000
0002
0000
0000
0013
0000
0001
0000
,  // measure 51
0011
0000
0000
1100
0000
0000
0120
0000
0100
0000
0001
0000
0031
0000
0001
0000
,  // measure 52
0011
0000
0000
1010
0000
0000
0210
0000
1000
0000
1000
0000
0310
0000
0001
0000
,  // measure 53
0011
0000
1000
1000
0000
0010
0000
2000
0000
0000
0000
0000
3010
0000
1000
0000
,  // measure 54
1010
0000
0100
0001
0000
0010
0000
0001
0000
0002
0000
0000
1003
0000
0010
0000
,  // measure 55
1010
0000
0000
0101
0000
0000
2001
0000
0010
0000
0010
0000
0010
0000
3100
0000
,  // measure 56
1100
0000
0000
0101
0000
0000
0220
0000
0030
0000
2300
0000
0010
3000
0100
0000
,  // measure 57
0101
0000
1000
0100
0000
0010
0000
0002
0000
0010
0000
0013
0010
0000
0001
0000
,  // measure 58
0101
0000
0100
0010
0000
1000
0000
0002
0000
0010
0000
0013
0010
0000
0100
0000
,  // measure 59
1100
0000
0000
1010
0000
0000
0102
0000
0100
0003
0100
0010
0000
0010
1000
0000
,  // measure 60
1010
0000
0100
0110
0000
0100
0101
0000
0001
1000
0010
0100
0001
1000
0001
1000
,  // measure 61
2002
0000
0000
3003
;

//---------------dance-single - This is a free-style chart---------------
#NOTES:
     dance-single:
     This is a free-style chart:
     Edit:
     9:
     0,0,0,0,0:
// measure 0
0000
0000
0000
0000
,  // measure 1
0000
0000
0000
0000
,  // measure 2
0001
1000
0001
1000
,  // measure 3
0001
1000
0002
1000
,  // measure 4
0020
0000
0000
0033
,  // measure 5
1000
1000
1000
1000
,  // measure 6
0001
1000
0001
1000
,  // measure 7
0001
1000
0002
1000
,  // measure 8
0020
0000
0000
0033
,  // measure 9
1000
1000
1000
1000
,  // measure 10
1000
0010
0001
0100
,  // measure 11
1000
0100
0001
0010
,  // measure 12
1000
0100
0001
0010
,  // measure 13
1000
0010
0001
0100
,  // measure 14
1000
0010
0100
0101
,  // measure 15
0001
0010
0100
1100
,  // measure 16
1000
0010
0001
0100
,  // measure 17
1000
0100
0001
0010
,  // measure 18
1000
0001
0100
0010
,  // measure 19
1000
0001
0100
0010
,  // measure 20
1000
0000
0000
0001
0000
0000
0020
0000
0000
0000
0000
0000
0030
0000
0000
0000
,  // measure 21
0001
0000
0000
1000
0000
0000
0020
0000
0000
0000
0000
0000
0030
0000
0000
0000
,  // measure 22
0100
0001
0010
0110
,  // measure 23
0010
0001
1000
1010
,  // measure 24
1000
0000
0000
0001
0000
0000
0200
0000
0000
0000
0000
0000
0300
0000
0000
0000
,  // measure 25
0001
0000
0000
1000
0000
0000
0200
0000
0000
0000
0000
0000
0300
0000
0000
0000
,  // measure 26
0010
0100
0010
0110
,  // measure 27
1000
0001
1000
1001
,  // measure 28
1000
0100
1000
1100
,  // measure 29
0010
0001
0010
0011
,  // measure 30
0001
0000
0000
1000
0000
0000
2002
0000
0000
0000
0000
0000
3003
0000
0000
0000
,  // measure 31
1000
0000
0000
0000
0000
0000
0001
0000
0000
0000
0000
0000
2002
0000
0000
0000
0000
0000
0000
0000
0000
3003
0000
0000
1001
0000
0000
0000
0000
0000
0000
0000
,  // measure 32
0001
1000
0001
1000
,  // measure 33
0001
1000
0002
1000
,  // measure 34
0020
0000
0000
0033
,  // measure 35
1000
1000
1000
1000
,  // measure 36
0001
1000
0001
1000
,  // measure 37
0001
1000
0002
1000
,  // measure 38
0020
0000
0000
0033
,  // measure 39
1000
1000
1000
1000
,  // measure 40
0001
0100
0010
1000
,  // measure 41
1010
0101
0011
1100
,  // measure 42
1001
0000
0000
2002
0000
0000
0000
0000
3003
0000
0000
0000
1000
0000
0000
0000
,  // measure 43
1000
0001
0010
0100
,  // measure 44
0110
0000
0000
0110
0000
0000
1000
0000
0000
0000
0001
0000
0000
0000
0010
0000
,  // measure 45
0011
1100
1010
0101
,  // measure 46
0011
0000
0000
0022
0000
0000
0000
0000
0033
0000
0001
0000
0010
0000
0000
0000
,  // measure 47
0001
0000
0000
1000
0000
0000
0020
0000
0000
0000
0000
0000
0000
0000
0200
0000
,  // measure 48
0000
0000
0330
1001
,  // measure 49
0001
1000
0001
1000
,  // measure 50
0001
1000
0002
1000
,  // measure 51
0020
0000
0000
0033
,  // measure 52
1000
1000
1000
1000
,  // measure 53
0001
1000
0001
1000
,  // measure 54
0001
1000
0002
1000
,  // measure 55
0020
0000
0000
0033
,  // measure 56
1000
1000
1000
1000
,  // measure 57
0010
0100
0010
0100
,  // measure 58
0010
0100
0020
0100
,  // measure 59
2000
0000
0000
3030
,  // measure 60
0100
0100
0001
0010
,  // measure 61
0220
0000
0000
0330
;

//---------------dance-double - ---------------
#NOTES:
     dance-double:
     :
     Easy:
     10:
     0,0,0,0,0:
// measure 0
00000000
00000000
00000000
00000000
,  // measure 1
00000000
00000000
00000000
00000000
,  // measure 2
00010000
00001000
00010000
00001000
,  // measure 3
00100000
00010000
00100000
00010000
,  // measure 4
01000000
01000000
02200000
03300000
,  // measure 5
01000000
00010000
00100000
00001000
,  // measure 6
00010000
00001000
00010000
00001000
,  // measure 7
00010000
00000010
00001000
00000001
,  // measure 8
00001000
00000100
00002200
00003300
,  // measure 9
00001000
00000001
00000100
00001001
,  // measure 10
00000001
00001000
00000100
00001000
,  // measure 11
00000010
00010000
00001000
00010000
,  // measure 12
00000100
00010000
00001000
00100000
,  // measure 13
00010000
01000000
00100000
10100000
,  // measure 14
10000000
00010000
00100000
00001000
,  // measure 15
00010000
00000100
00001000
00000010
,  // measure 16
00001000
00000001
00000010
00000011
,  // measure 17
00000010
00000100
00001000
00001100
,  // measure 18
00001000
00000010
00000100
00000010
,  // measure 19
00001000
00000001
00000100
00000001
,  // measure 20
00000002
00000000
00002003
00000000
,  // measure 21
00003200
00000000
00020300
00000000
,  // measure 22
00031000
00100000
00010000
00100000
,  // measure 23
00001000
00100000
00010000
10000000
,  // measure 24
00200000
00000000
20300000
00000000
,  // measure 25
30020000
00000000
00230000
00000000
,  // measure 26
00301000
00010000
00000010
00000100
,  // measure 27
00000001
00000010
00000100
00000010
,  // measure 28
00000001
00000100
00001000
00000100
,  // measure 29
00000001
00000010
00000100
00000010
,  // measure 30
00000002
00000000
00002003
00000000
,  // measure 31
00003020
00000000
00000000
00000000
00020030
00030000
00011000
00000000
,  // measure 32
00010000
00000100
00010000
00001000
,  // measure 33
00010000
00000010
00001000
00000001
,  // measure 34
00000022
00000033
00000202
00000303
,  // measure 35
00000001
00000100
00000010
00001000
,  // measure 36
00000100
00010000
00000100
00010000
,  // measure 37
00001000
00100000
00001000
00100000
,  // measure 38
00220000
00330000
22000000
33000000
,  // measure 39
20200000
30300000
02020000
03030000
,  // measure 40
01000000
00010000
00100000
00010000
,  // measure 41
00110000
11000000
10100000
01010000
,  // measure 42
00110000
00001000
00010000
00000100
,  // measure 43
00001100
00001010
00000101
00000011
,  // measure 44
00000001
00000100
00001000
00010000
,  // measure 45
01010000
11000000
01010000
11000000
,  // measure 46
01010000
00010000
00001000
00000100
,  // measure 47
00000010
00001000
00000002
00000000
,  // measure 48
00002000
00000000
00003003
00001001
,  // measure 49
00001000
00000010
00000100
00001000
,  // measure 50
00010000
00001000
00000100
00000010
,  // measure 51
00002020
00003030
00002200
00003300
,  // measure 52
00001000
00000100
00010000
00001000
,  // measure 53
00100000
00010000
01000000
00100000
,  // measure 54
10000000
01000000
00010000
00001000
,  // measure 55
00022000
00033000
00202000
00303000
,  // measure 56
00100000
00001000
00010000
00000010
,  // measure 57
00001000
00000010
00000100
00000001
,  // measure 58
00000100
00000010
00001000
00000100
,  // measure 59
00020200
00030300
00022000
00033000
,  // measure 60
01000000
00001000
00010000
00000010
,  // measure 61
00001010
00000000
00000000
00000000
;

//---------------dance-double - ---------------
#NOTES:
     dance-double:
     :
     Medium:
     13:
     0,0,0,0,0:
// measure 0
00000000
00000000
00000000
00000000
,  // measure 1
00000000
00000000
00000000
00000000
,  // measure 2
10000000
00000000
01000000
00000000
00100000
00010000
01000000
00000000
,  // measure 3
00001000
00000000
00010000
00000000
00000010
00001000
00000100
00000000
,  // measure 4
00001000
00000000
00000000
00000001
00000000
00000000
00002002
00000000
00000000
00000000
00000000
00000000
00003003
00000000
00000000
00000000
,  // measure 5
00001000
00000000
00000000
00000010
00000000
00000000
00020020
00000000
00000000
00000000
00030030
00000000
00010010
00000000
00000000
00000000
,  // measure 6
00010000
00000000
00001000
00000000
00100000
00010000
01000000
00000000
,  // measure 7
10000000
00000000
00010000
00000000
00100000
00001000
00010000
00000000
,  // measure 8
00001000
00000000
00000000
00010000
00000000
00000000
00022000
00000000
00000000
00000000
00000000
00000000
00033000
00000000
00000000
00000000
,  // measure 9
00010000
00000000
00000000
00000010
00000000
00000000
00002020
00000000
00000000
00000000
00000000
00000000
00003030
00000000
00000000
00000000
,  // measure 10
00001000
00000001
00000100
00000000
00000001
00001000
00000100
00000000
,  // measure 11
00001001
00001100
00001010
00011000
,  // measure 12
00010000
00001000
00100000
00000000
00100000
00010000
10000000
00000000
,  // measure 13
10100000
01010000
00110000
00011000
,  // measure 14
00001000
00010000
00000010
00000000
00010000
00001000
00100000
00000000
,  // measure 15
00101000
00110000
01100000
11000000
,  // measure 16
10000000
00100000
01000000
00000000
00010000
00100000
00001000
00000000
,  // measure 17
00001010
00000101
00000011
00001100
,  // measure 18
00001000
00000000
00000001
00000000
00000010
00000001
00000100
00000000
,  // measure 19
00000010
00000000
00010000
00000000
00001000
00010000
00000100
00000000
,  // measure 20
00010000
00000000
00000000
00000010
00000000
00000000
00002000
00000000
00000000
00000000
00000000
00000000
00003001
00000000
00000000
00000000
,  // measure 21
00000001
00000000
00000000
00000100
00000000
00000000
00002000
00000000
00000000
00000000
00000000
00000000
00013000
00000000
00000000
00000000
,  // measure 22
00010000
00000000
00001000
00000000
00100000
00010000
01000000
00000000
,  // measure 23
00010000
00000000
01000000
00000000
00100000
01000000
00001000
00000000
,  // measure 24
00010000
00000000
00000000
00001000
00000000
00000000
00200000
00000000
00000000
00000000
00000000
00000000
00310000
00000000
00000000
00000000
,  // measure 25
00010000
00000000
00000000
10000000
00000000
00000000
00200000
00000000
00000000
00000000
00000000
00000000
01300000
00000000
00000000
00000000
,  // measure 26
10000000
01000000
00010000
00001000
,  // measure 27
00001010
00000011
00000101
00001100
,  // measure 28
00000001
00000100
00001000
00010000
,  // measure 29
00110000
10100000
11000000
01010000
,  // measure 30
00010000
00000000
00000000
00001000
00000000
00000000
00022000
00000000
00000000
00000000
00000000
00000000
00033000
00000000
00000000
00000000
,  // measure 31
00010000
00000000
00000000
00000100
00000000
00000000
00020200
00000000
00000000
00000000
00030300
00000000
00010100
00000000
00000000
00000000
,  // measure 32
00010000
00000000
00001000
00000000
00100000
00010000
01000000
00000000
,  // measure 33
00100000
00000000
10000000
00000000
01000000
00100000
00010000
00000000
,  // measure 34
01000000
00000000
00000000
00001000
00000000
00000000
00022000
00000000
00000000
00000000
00000000
00000000
00033000
00000000
00000000
00000000
,  // measure 35
00010000
00000000
00000000
00000010
00000000
00000000
00002020
00000000
00000000
00000000
00003030
00000000
00001010
00000000
00000000
00000000
,  // measure 36
00001000
00000000
00000001
00000000
00000010
00000100
00001000
00000000
,  // measure 37
00000010
00000000
00010000
00000000
00000100
00010000
00001000
00000000
,  // measure 38
00100000
00000000
00000000
00010000
00000000
00000000
00220000
00000000
00000000
00000000
00000000
00000000
00330000
00000000
00000000
00000000
,  // measure 39
01000000
00000000
00000000
10000000
00000000
00000000
22000000
00000000
00000000
00000000
00000000
00000000
33000000
00000000
00000000
00000000
,  // measure 40
10010000
10000000
00100000
01000000
,  // measure 41
10100000
01010000
00110000
11000000
,  // measure 42
10010000
11000000
10010000
01010000
,  // measure 43
10010000
01001000
00010100
00001001
,  // measure 44
00000110
00001000
00000010
00000100
,  // measure 45
00001010
00000101
00000011
00001100
,  // measure 46
00001001
00001010
00001001
00000011
,  // measure 47
00001001
00010010
00101000
10010000
,  // measure 48
02200000
00000000
00000000
00000000
00000000
03300000
01100000
00000000
,  // measure 49
10000000
00000000
00010000
00000000
01000000
00001000
00010000
00000000
,  // measure 50
00000100
00000000
00001000
00000000
00000010
00010000
00001000
00000000
,  // measure 51
00100000
00000000
00000000
00010000
00000000
00000000
00220000
00000000
00000000
00000000
00000000
00000000
00330000
00000000
00000000
00000000
,  // measure 52
01000000
00000000
00000000
00001000
00000000
00000000
02002000
00000000
00000000
00000000
03003000
00000000
01001000
00000000
00000000
00000000
,  // measure 53
01000000
00000000
00000100
00000000
00001000
00000100
00000001
00000000
,  // measure 54
00000100
00000000
01000000
00000000
10000000
01000000
00010000
00000000
,  // measure 55
10000000
00000000
00000000
00100000
00000000
00000000
20200000
00000000
00000000
00000000
30300000
00000000
10100000
00000000
00000000
00000000
,  // measure 56
10000000
00000000
00000000
00001000
00000000
00000000
20002000
00000000
30000000
00000000
00003000
00000000
00011000
00000000
00000000
00000000
,  // measure 57
00000100
00000000
00001000
00000000
00000010
00000100
00000001
00000000
,  // measure 58
00000010
00000000
00000001
00000000
00000100
00000010
00001000
00000000
,  // measure 59
00000100
00000000
00000000
00010000
00000000
00000000
00022000
00000000
00000000
00000000
00033000
00000000
00011000
00000000
00000000
00000000
,  // measure 60
00010000
00001000
00100000
00000000
00100000
00010000
01000000
00000000
,  // measure 61
10010000
00000000
00000000
00000000
;

//---------------dance-double - ---------------
#NOTES:
     dance-double:
     :
     Hard:
     15:
     0,0,0,0,0:
// measure 0
00000000
00000000
00000000
00000000
,  // measure 1
00000000
00000000
00000000
00000000
00000000
00000000
10000000
00100000
,  // measure 2
00010000
00000000
00000000
00100000
00000000
01000000
00000000
00001000
00000000
00000000
00000000
00000000
00100000
00000000
00001000
00000000
,  // measure 3
00010000
00000000
00000000
00000010
00000000
00001000
00000000
00000100
00000000
00000020
00000000
00000030
00000010
00000000
00000001
00000000
,  // measure 4
00000011
00000000
00000000
00001100
00000000
00000000
00002020
00000000
00000030
00000000
00000000
00000000
00003100
00000000
00000000
00000000
,  // measure 5
00001001
00000000
00000000
00010100
00000000
00000000
02002000
00000000
00000000
00000000
00003000
00000000
03100000
00000000
10000000
00000000
,  // measure 6
10100000
00000000
00000000
01000000
00000000
00100000
00000000
00010000
00000000
00000000
00000000
00000000
00100000
00000000
10000000
00000000
,  // measure 7
00010000
00000000
00000000
00100000
00000000
00001000
00000000
00010000
00000000
00002000
00000000
00000000
00003100
00000000
00001000
00000000
,  // measure 8
00011000
00000000
00000000
01010000
00000000
00000000
02200000
00000000
00300000
00000000
00000000
00000000
03010000
00000000
00100000
00000000
,  // measure 9
00101000
00000000
00000000
00010100
00000000
00000000
00001001
00000000
00001000
00000000
00000010
00000000
00000100
00000001
00000100
00000000
,  // measure 10
00000001
00000000
00000010
00000000
00000100
00000010
00000000
00000000
00000001
00000000
00001000
00000000
00000010
00000000
00000100
00000000
,  // measure 11
00001000
00000000
00000100
00000000
00000010
00000100
00000000
00000000
00000001
00000000
00001000
00000000
00000100
00000000
00010000
00000000
,  // measure 12
00001000
00000000
00100000
00000000
00010000
00100000
00000000
00000000
01000000
00000000
00100000
00000000
00010000
00000000
10000000
00000000
,  // measure 13
00100000
00000000
01000000
00000000
00010000
10000000
00000000
00000000
00100000
10000000
00100000
10000000
00100000
00000000
10100000
00000000
,  // measure 14
00100000
00000000
10000000
00000000
01000000
00100000
00000000
00000000
01000000
00000000
10000000
00000000
00100000
00000000
01000000
00000000
,  // measure 15
00010000
00000000
00100000
00000000
00001000
00010000
00000000
00000000
00000100
00000000
00000100
00000000
00001000
00000000
00001000
00000000
,  // measure 16
00000001
00000000
00000010
00000000
00000100
00000010
00000000
00000000
00000001
00000000
00000100
00000000
00000010
00000000
00001000
00000000
,  // measure 17
00000100
00000000
00010000
00000000
00001000
00100000
00000000
00000000
00010000
00100000
01000000
00100000
00010000
00000000
00110000
00000000
,  // measure 18
20000000
00000000
00000000
30100000
00000000
00100000
00000000
01000000
00000000
01000000
00000000
00020000
00000000
00000000
10030000
00000000
,  // measure 19
00100000
00000000
00000000
00010000
00000000
00010000
00000000
01000000
00000000
01000000
00000000
00002000
00000000
00023000
00000000
00030000
,  // measure 20
00000200
00000000
00000000
00000320
00000000
00000000
00000032
00000000
00000000
00000000
00000000
00000000
00001003
00000000
00000000
00000000
,  // measure 21
00002000
00000000
00000000
00003200
00000000
00000000
00020300
00000000
00000000
00000000
00000000
00000000
00031000
00000000
01000000
00000000
,  // measure 22
00020000
00000000
00000000
00130000
00000000
00100000
00000000
00010000
00000000
00010000
00000000
20000000
00000000
00000000
30010000
00000000
,  // measure 23
00200000
00000000
00000000
00310000
00000000
00001000
00000000
00010000
00000000
00000100
00000000
00001000
00000000
00000020
00000000
00000000
,  // measure 24
00002030
00000000
00000000
00003200
00000000
00000000
00020300
00000000
00000000
00000000
00000000
00000000
00031000
00000000
00000000
00000000
,  // measure 25
02000000
00000000
00000000
03020000
00000000
00000000
00230000
00000000
00000000
00000000
00000000
00000000
10300000
00000000
00100000
00000000
,  // measure 26
00010000
00000000
00000000
10000000
00000000
10000000
00000000
00000000
00001000
00000000
00000000
00010000
00000000
00010000
00000000
00000000
,  // measure 27
00000001
00000000
00000000
00001000
00000000
00001000
00000000
00000000
00010000
00000000
00000000
00001000
00000000
00001000
00000000
00000000
,  // measure 28
00100000
00000000
00000000
00010000
00000000
00010000
00000000
00000000
00000100
00000000
00000000
00001000
00000000
00001000
00000000
00000000
,  // measure 29
01000000
00000000
00000000
00010000
00000000
00010000
00000000
00000000
00000010
00000000
00000000
00001000
00000000
00001000
00000000
00000000
,  // measure 30
00010000
00000000
00000000
00001000
00000000
00000000
00022000
00000000
00000000
00000000
00033000
00000000
00011000
00000000
00000000
00000000
,  // measure 31
02000000
00000000
00000000
03020000
00000000
00000000
00230000
00000000
00000000
00000000
00300000
00000000
00110000
00000000
00100000
00000000
,  // measure 32
00001000
00000000
00000000
01000000
00000000
00001000
00000000
00010000
00000000
00000000
00000000
00000000
00000010
00000000
00001000
00000000
,  // measure 33
00000001
00000000
00000000
00000010
00000000
00000001
00000000
00001000
00000000
00002000
00000000
00000000
00003010
00000000
00001000
00000000
,  // measure 34
00001100
00000000
00000000
00011000
00000000
00000000
02020000
00000000
00000000
00000000
00030000
00000000
03100000
00000000
00000000
00000000
,  // measure 35
01010000
00000000
00000000
00101000
00000000
00000000
00022000
00000000
00000000
00000000
00003000
00000000
00030100
00000000
00001000
00000000
,  // measure 36
00000010
00000000
00000000
00000100
00000000
00000010
00000000
00001000
00000000
00000000
00000000
00000000
00000010
00000000
00001000
00000000
,  // measure 37
00000001
00000000
00000000
00000100
00000000
00000010
00000000
00010000
00000000
00001000
00000000
00000000
00100000
00000000
00010000
00000000
,  // measure 38
01010000
00000000
00000000
10100000
00000000
00000000
02200000
00000000
00000000
00000000
00300000
00000000
03100000
00000000
01000000
00000000
,  // measure 39
10010000
00000000
00000000
01001000
00000000
00000000
00011000
00000000
00010000
00000000
00000010
00000000
00001000
00000000
00000001
00000000
,  // measure 40
00001001
00000000
00000000
00000000
00001000
00000000
00000000
00001000
00000010
00000000
00000100
00000000
00000010
00000000
00000000
00000000
,  // measure 41
00010000
00000000
00000000
00000000
00010000
00000000
00000000
00001000
00010000
00000000
00001000
00000000
00100000
00000000
00010000
00000000
,  // measure 42
01010000
00000000
00000000
02200000
00000000
00000000
03300000
00000000
10000000
00000000
00000000
00000000
01000000
00000000
00100000
00000000
,  // measure 43
00010000
00000000
00000000
10000000
00000000
00000000
00010000
00000000
00100000
00000000
00000000
00000000
00100000
00000000
00001000
00000000
,  // measure 44
00101000
00000000
00000000
00011000
00000000
00000000
00020200
00000000
00030000
00000000
00002000
00000000
00003000
00000000
00000310
00000000
,  // measure 45
00000110
00000000
00000000
00000011
00000000
00000000
00002200
00000000
00003300
00000000
00021000
00000000
00130000
00000000
01000000
00000000
,  // measure 46
01010000
00000000
00000000
20200000
00000000
00000000
00000000
00000000
30300000
00000000
10000000
00000000
00100000
00000000
01000000
00000000
,  // measure 47
01010000
00000000
00000000
00110000
00000000
00000000
00022000
00000000
00000000
00000000
00000000
00000000
00003000
00000000
00030200
00000000
,  // measure 48
00010000
00010000
00010000
00010000
00020000
00030300
00010100
00010000
,  // measure 49
00001000
00000000
00000000
01000000
00000000
00010000
00000000
00200000
00000000
00000000
00300000
00000000
00100000
00000000
00010000
00000000
,  // measure 50
10000000
00000000
00000000
00100000
00000000
10000000
00000000
00010000
00000000
00020000
00000000
00000000
00130000
00000000
00001000
00000000
,  // measure 51
00101000
00000000
00000000
00011000
00000000
00000000
00020200
00000000
00000000
00000000
00030000
00000000
00001300
00000000
00000000
00000000
,  // measure 52
00001001
00000000
00000000
00001100
00000000
00000000
00002020
00000000
00003000
00000000
00000031
00000000
00000010
00000000
00001000
00000000
,  // measure 53
00001010
00000000
00000000
00000010
00000000
00010000
00000000
00002000
00000000
00000000
00003000
00000000
00100000
00000000
00010000
00000000
,  // measure 54
00110000
00000000
00000000
01000000
00000000
00100000
00000000
10000000
00000000
00020000
00000000
00000000
00130000
00000000
00001000
00000000
,  // measure 55
00101000
00000000
00000000
00011000
00000000
00000000
00020200
00000000
00030000
00000000
00002000
00000000
00003000
00000000
00000301
00000000
,  // measure 56
00000101
00000000
00000000
00001100
00000000
00000000
00001010
00000000
00000000
00000000
00000011
00000000
00000010
00000000
00010000
00000000
,  // measure 57
00011000
00000000
00000000
00001000
00000000
01000000
00000000
00200000
00000000
00000000
00000000
00000000
10300000
00000000
00100000
00000000
,  // measure 58
01000000
00000000
00000000
01000000
00000000
00000100
00000000
00001000
00000000
00002000
00000000
00000000
00003010
00000000
00001000
00000000
,  // measure 59
00001010
00000000
00000000
00011000
00000000
00000000
02020000
00000000
03000000
00000000
01030000
00000000
00010000
00000000
00100000
00000000
,  // measure 60
00101000
00000000
00000000
00011000
00000000
00000000
00010100
00000000
00001000
00000000
00000010
00000000
00000100
00000001
00000100
00000001
,  // measure 61
00000101
00000000
00000000
00000000
;

//---------------dance-double - ---------------
#NOTES:
     dance-double:
     :
     Challenge:
     18:
     0,0,0,0,0:
// measure 0
00000000
00000000
00000000
00000000
,  // measure 1
00000000
00000000
00000000
00000000
00000000
00000000
00001000
00010000
,  // measure 2
00011000
00000000
00010000
00000100
00000000
00000010
00000000
00002000
00000000
00000000
00000000
00000000
00003010
00000000
00000001
00000000
,  // measure 3
00001001
00000000
00000100
00000010
00000000
00010000
00000000
00001000
00000000
02000000
00000000
00000000
03100000
00000000
10000000
00000000
,  // measure 4
10100000
00000000
00000000
01010000
00000000
00000000
00022000
00000000
00000000
00000000
00003000
00000000
00030100
00000000
00000000
00000000
,  // measure 5
00010100
00000000
00001000
00000100
00000000
00000010
00000100
00000000
00001000
00000001
00001000
00000000
00000010
00001000
00000100
00010000
,  // measure 6
00011000
00000000
00001000
01000000
00000000
00100000
00000000
20000000
00000000
00000000
00000000
00000000
30100000
00000000
10000000
00000000
,  // measure 7
10100000
00000000
01000000
00010000
00000000
00100000
00000000
00001000
00000000
00020000
00000000
00000000
00030010
00000000
00001000
00000000
,  // measure 8
00001010
00000000
00000000
00011000
00000000
00000000
02020000
00000000
00000000
00000000
00030000
00000000
03100000
00000000
10000000
00000000
,  // measure 9
10100000
00000000
00000000
01010000
00000000
00000000
01100000
00100000
01000000
00000000
00100000
00000000
10000000
00010000
10000000
00010000
,  // measure 10
10010000
00000000
10000000
00000000
00010000
00100000
01000000
00000000
00100000
00001000
00010000
00000000
00011000
00000000
00001100
00000000
,  // measure 11
00001001
00000000
00000101
00000000
00000001
00000100
00000010
00000000
00000010
00010000
00001000
00000000
00001000
01000000
00010000
00000000
,  // measure 12
01010000
00000000
00110000
00000000
00100000
00001000
00010000
00000000
00010000
00000010
00000100
00000000
00000101
00000000
00001001
00000000
,  // measure 13
00001100
00000000
00011000
00000000
00010000
00001000
00100000
00000000
00010000
00100000
01000000
00100000
00010000
00000000
00110000
00000000
,  // measure 14
10010000
00000000
10000000
00000000
00100000
10000000
01000000
00000000
01000000
00100000
00001000
00000000
00101000
00000000
00011000
00000000
,  // measure 15
00010100
00000000
00001100
00000000
00001000
00000100
00000010
00000000
00000100
00010000
00001000
00000000
00001000
00100000
00010000
00000000
,  // measure 16
00110000
00000000
11000000
00000000
10000000
00010000
01000000
00000000
01000000
00001000
00010000
00000000
00011000
00000000
00010100
00000000
,  // measure 17
00001010
00000000
00000101
00000000
00000001
00001000
00000010
00000000
00000010
00010000
00001000
01000000
00010000
00000000
00100000
00010000
,  // measure 18
00110000
00100000
00000000
00010000
00000000
10000000
00000000
00001000
00000000
02000000
00000000
00020000
00030000
03010000
10000000
01000000
,  // measure 19
00100000
00010000
00000000
01000000
00000000
00001000
00000000
00010000
00000000
00000100
00000000
00002000
00000000
00000020
00000000
00003030
,  // measure 20
00001010
00000000
00000001
00000010
00000000
00000001
00000200
00000000
00001000
00000000
00000010
00000000
00000001
00000000
00000310
00000000
,  // measure 21
00000110
00000000
00000010
00001000
00000000
00001000
00000100
00000000
00010000
00001000
00010000
00000000
00010000
00001000
00100000
00010000
,  // measure 22
01000000
00000000
01000000
00100000
00000000
10000000
00000000
00010000
00000000
01000000
00000000
00002000
00000000
00013000
00001000
00010000
,  // measure 23
00000100
00000000
00000100
00001000
00000000
00000010
00000000
00010000
00000000
00001000
00000000
01000000
00000000
00020000
00000000
00000000
,  // measure 24
00130000
00000000
00100000
00010000
00000000
00010000
10000000
00000000
10000000
00100000
01000000
00000000
00010000
01000000
00001000
00010000
,  // measure 25
00000100
00000000
00001000
00000010
00000000
00000100
00000001
00000000
00000010
00000100
00001000
00000000
00000100
00010000
00001000
00100000
,  // measure 26
00220000
00330000
00000000
00100000
00000000
00100000
00010000
00000000
20020000
30030000
00000000
00010000
00000000
00010000
01000000
00000000
,  // measure 27
02002000
03003000
00000000
01000000
00000000
01000000
00001000
00000000
00022000
00033000
00000000
00010000
00000000
00010000
00000100
00000000
,  // measure 28
00002200
00003300
00000000
00001000
00000000
00001000
00000001
00000000
00002002
00003003
00000000
00000001
00000000
00000001
00000100
00000000
,  // measure 29
00000202
00000303
00000000
00000100
00000000
00000100
00000010
00000000
00002020
00003030
00000000
00000010
00000000
00000010
00010000
00001000
,  // measure 30
00011000
00000000
00001000
01000000
00000000
01000000
00010000
00000000
00010000
10000000
00010000
00000000
01000000
00100000
10000000
00010000
,  // measure 31
01010000
00000000
01000000
00001000
00000000
00001000
00010000
00000000
00010000
00000010
00001000
00000000
00002010
00000000
00003001
00000000
,  // measure 32
00000101
00000000
00001000
00000100
00000000
00000010
00000000
00002000
00000000
00000000
00000000
00000000
00003010
00000000
00000001
00000000
,  // measure 33
00000101
00000000
00000100
00010000
00000000
00001000
00000000
00200000
00000000
20000000
30000000
00000000
10300000
00000000
00100000
00000000
,  // measure 34
20200000
30300000
00000000
02020000
03030000
00000000
00022000
00033000
00010000
00001000
00010000
00000000
00010000
00000100
00001000
00000010
,  // measure 35
00002020
00003030
00000000
00022000
00033000
00000000
02020000
03030000
01000000
00100000
01000000
00000000
00010000
10000000
00100000
01000000
,  // measure 36
01100000
00000000
00100000
10000000
00000000
00010000
00000000
02000000
00000000
00000000
00000000
00000000
03001000
00000000
00010000
00000000
,  // measure 37
00011000
00000000
00010000
00000100
00000000
00001000
00000000
00000010
00000000
00000200
00000000
00000000
00000301
00000000
00000010
00000000
,  // measure 38
00000022
00000033
00000000
00002200
00003300
00000000
00022000
00033000
00010000
00001000
00010000
00000000
00010000
00001000
01000000
00100000
,  // measure 39
10100000
00000000
00100000
10000000
00000000
10000000
00010000
00000000
00010000
01000000
00100000
00000000
01000000
00001000
00100000
00010000
,  // measure 40
00110000
00000000
00000000
00000000
00100010
00000000
00000000
00000010
00010000
00000000
00000010
00000000
00001000
00000100
01000000
00000000
,  // measure 41
01000100
00000000
00000000
00000000
01010000
00000000
00000000
00010000
10000000
00000000
00100000
00000000
01000000
00001000
00010000
00000000
,  // measure 42
00022000
00033000
00000000
00002020
00003030
00000000
00001010
00000000
00001000
00000010
00010000
00000000
00010000
00001000
01000000
00010000
,  // measure 43
00110000
00000000
00100000
00010000
00000000
00010000
10000000
00000000
10000000
00100000
01000000
00000000
01000000
00001000
00010000
00000010
,  // measure 44
00001010
00000000
00000010
00001000
00000000
00001000
00000001
00000000
00000001
00000100
00000000
00000100
00000010
00000000
00001010
00000000
,  // measure 45
00001100
00000000
00000100
00010100
00000000
00000100
01000100
00000000
01000000
00000100
01000000
00000000
01000100
00000000
01001000
00000000
,  // measure 46
02020000
03030000
00000000
02200000
03300000
00000000
20200000
30300000
10000000
00010000
00100000
00000000
00100000
00010000
01000000
00100000
,  // measure 47
10100000
00000000
01000000
01010000
00000000
00010000
00110000
00000000
00100000
00001000
00010000
00000000
00010000
00000100
00001000
00000010
,  // measure 48
00000100
00000001
00000100
00000001
00000100
00000001
00000100
00000002
00000200
00000000
00000000
00000303
00000101
00000000
00000001
00000000
,  // measure 49
00001001
00000000
00001000
00000010
00000000
00010000
00000000
00002000
00000000
00000000
00000000
00000000
00103000
00000000
00010000
00000000
,  // measure 50
00110000
00000000
00100000
01000000
00000000
10000000
00000000
00010000
00000000
02000000
00000000
00000000
03001000
00000000
00010000
00000000
,  // measure 51
00011000
00000000
00000000
00001100
00000000
00000000
00000220
00000000
00000000
00000000
00000330
00000000
00000110
00000000
00000010
00000000
,  // measure 52
00000011
00000000
00000001
00000100
00000000
00000100
00000010
00000000
00000010
00010000
00001000
00000000
00001000
01000000
00010000
00100000
,  // measure 53
00110000
00000000
00100000
00010000
00000000
01000000
00000000
00002000
00000000
00000000
00000000
00000000
00013000
00000000
00000100
00000000
,  // measure 54
00001100
00000000
00001000
00000010
00000000
00010000
00000000
00001000
00000000
02000000
00000000
00000000
03100000
00000000
10000000
00000000
,  // measure 55
10100000
00000000
01000000
01010000
00000000
00010000
00110000
00000000
00100000
00010000
01000000
00000000
01000000
00100000
10000000
00010000
,  // measure 56
00110000
00000000
00100000
00101000
00000000
00100000
00100100
00000000
00000100
00010000
00001000
00000000
00001000
00010000
00000010
00001000
,  // measure 57
00001010
00000000
00000010
00001000
00000000
00000100
00000000
00020000
00000000
00001000
00000000
00001000
00031000
00000000
01000000
00000000
,  // measure 58
01010000
00000000
01000000
00000100
00000000
00100000
00000000
00000020
00000000
00010000
00000000
00001000
00001030
00000000
00000001
00000000
,  // measure 59
00000011
00000000
00000010
00000110
00000000
00000100
00001100
00000000
00001000
00000100
00010000
00000000
00010000
00001000
00100000
00010000
,  // measure 60
01010000
00000000
01000000
01100000
00000000
00100000
10100000
00000000
10000000
00010000
10000000
00010000
10000000
00001000
00010000
00000100
,  // measure 61
00010100
00000000
00000000
00000000
;

//---------------dance-double - ---------------
#NOTES:
     dance-double:
     :
     Edit:
     10:
     0,0,0,0,0:
// measure 0
00000000
00000000
00000000
00000000
,  // measure 1
00000000
00000000
00000000
00000000
,  // measure 2
00010000
10000000
00010000
10000000
,  // measure 3
00010000
10000000
00020000
10000000
,  // measure 4
00200000
00000000
00000000
00330000
,  // measure 5
10000000
10000000
00001000
00010000
,  // measure 6
00000001
00001000
00000001
00001000
,  // measure 7
00000001
00001000
00000002
00001000
,  // measure 8
00000020
00000000
00000000
00000033
,  // measure 9
00000001
00000001
00010000
00001000
,  // measure 10
10000000
00010000
01000000
01100000
,  // measure 11
00100000
10000000
00010000
00110000
,  // measure 12
00100000
00001000
00010000
00011000
,  // measure 13
00010000
00000100
00001000
00001100
,  // measure 14
00001000
00000010
00010000
00010010
,  // measure 15
00000010
00010000
00001000
00011000
,  // measure 16
00001000
01000000
00010000
01010000
,  // measure 17
00010000
10000000
00100000
10100000
,  // measure 18
10000000
00001000
00010000
00000001
,  // measure 19
00001000
00000001
00010000
00001000
,  // measure 20
10000000
00000000
00000000
00010000
00000000
00000000
00200000
00000000
00000000
00000000
00000000
00000000
01300000
00000000
00000000
00000000
,  // measure 21
00010000
00000000
00000000
10000000
00000000
00000000
00200000
00000000
00000000
00000000
00000000
00000000
01300000
00000000
00000000
00000000
,  // measure 22
10000000
00001000
00010000
00000001
,  // measure 23
00001000
00000001
00010000
00001000
,  // measure 24
10000000
00000000
00000000
00010000
00000000
00000000
02000000
00000000
00000000
00000000
00000000
00000000
03001000
00000000
00000000
00000000
,  // measure 25
00001000
00000000
00000000
00010000
00000000
00000000
00000200
00000000
00000000
00000000
00000000
00000000
00001300
00000000
00000000
00000000
,  // measure 26
00001000
00000100
00010000
00001000
,  // measure 27
01000000
00010000
00100000
01000000
,  // measure 28
00100000
00010000
10000000
00100000
,  // measure 29
01000000
00010000
10000000
00100000
,  // measure 30
01000000
00000000
00000000
00001000
00000000
00000000
00020000
00000000
00000000
00000000
00000000
00000000
00031000
00000000
00000000
00000000
,  // measure 31
00001000
00000000
00000000
00010000
00000000
00000000
00000200
00000000
00000000
00000000
00000000
00000000
00001300
00000000
00000000
00000000
,  // measure 32
00000001
00001000
00000001
00001000
,  // measure 33
00000001
00001000
00000002
00001000
,  // measure 34
00000020
00000000
00000000
00000033
,  // measure 35
00000001
00010000
00001000
10000000
,  // measure 36
00010000
10000000
00010000
10000000
,  // measure 37
00010000
10000000
00020000
10000000
,  // measure 38
00200000
00000000
00000000
00330000
,  // measure 39
10000000
00001000
00010000
00000010
,  // measure 40
00000110
00000100
00000001
00001000
,  // measure 41
00001010
00000101
00000011
00001100
,  // measure 42
00011000
00000000
00000000
00022000
00000000
00000000
00033000
00000000
00010000
00000000
00000000
00000000
00001000
00000000
00000000
00000000
,  // measure 43
01001000
01100000
11000000
01100000
,  // measure 44
10000000
00010000
01000000
00100000
,  // measure 45
10100000
01010000
00110000
11000000
,  // measure 46
00110000
00000000
00000000
00220000
00000000
00330000
00000000
00000000
00100000
00000000
00000000
00000000
00001000
00000000
00000000
00000000
,  // measure 47
00010000
00000100
00001000
00000001
,  // measure 48
00002002
00000000
00003003
00001000
,  // measure 49
00000001
00001000
00000001
00001000
,  // measure 50
00000001
00001000
00000002
00001000
,  // measure 51
00000020
00000000
00000000
00000033
,  // measure 52
00001000
00000100
00100000
00010000
,  // measure 53
10000000
00010000
10000000
00010000
,  // measure 54
10000000
00010000
20000000
00010000
,  // measure 55
00200000
00000000
00000000
30300000
,  // measure 56
01000000
00001000
00010000
00000100
,  // measure 57
00000010
00000100
00000010
00000100
,  // measure 58
00000010
00000100
00000020
00000100
,  // measure 59
00000002
00000000
00000000
00000033
,  // measure 60
00000001
00010000
00001000
10000000
,  // measure 61
10010000
00000000
00000000
00000000
;
