#TITLE:ME AGAINST THE MUSIC;
#SUBTITLE:(D.U.S Special);
#ARTIST:HELEN;
#MUSIC:ME AGAINST THE MUSIC (D.U.S Special).ogg;
#BANNER:ME AGAINST THE MUSIC (D.U.S Special).png;
#BACKGROUND:ME AGAINST THE MUSIC (D.U.S Special)-bg.png;
#LYRICSPATH:;
#CDTITLE:;
#SAMPLESTART:42.46;
#SAMPLELENGTH:14.771;
#BPMS:0.000000=130.000000;
#STOPS:;
#TIMESIGNATURES:0.000000=4=4;
#BGCHANGES:;
#FGCHANGES:;
#ATTACKS:;
#SPEEDS:0.000000=1.000000=0.000000=0;
#SCROLLS:0.000000=1.000000;
#KEYSOUNDS:;

//---------------dance-single - ---------------
#NOTES:
     dance-single:
     :
     Challenge:
     18:
     0,0,0,0,0:
// measure 0
0000
0000
0000
0000
,  // measure 1
0000
0000
0000
0000
,  // measure 2
1000
0000
0001
0000
0100
0000
0010
0000
1000
0100
0010
0000
0110
0000
1001
0000
,  // measure 3
1100
0000
1000
0001
0100
0000
0101
0000
0110
0010
1000
0001
0100
0000
0101
0000
,  // measure 4
1100
0000
1000
0010
0100
0000
0101
0000
1100
1000
0001
0100
0010
0000
1010
0000
,  // measure 5
1001
0000
1000
0001
0100
0000
0101
0000
0011
0010
0100
1000
0001
0000
0100
0000
,  // measure 6
1100
0000
0100
0001
0010
0000
1100
0000
1010
0010
0100
0001
0010
0000
0011
0000
,  // measure 7
0110
0100
1000
0100
0010
0001
1000
0100
,  // measure 8
0011
0000
1100
0000
0110
0000
1100
0000
1000
0002
0013
0000
0011
0000
1001
0000
,  // measure 9
1100
1000
0010
0100
0001
1000
0100
0010
,  // measure 10
0011
0000
1010
0000
0011
0000
0101
0000
0001
0200
0310
0000
1010
0000
0011
0000
,  // measure 11
0110
0100
0001
1000
0100
0010
1000
0010
,  // measure 12
0110
0000
1100
0000
1001
0000
0101
0000
0001
0200
0310
0000
1010
0000
1001
0000
,  // measure 13
0101
0001
0010
0100
1000
0010
0100
0001
,  // measure 14
0101
0000
0110
0000
1100
0000
0110
0000
0010
2000
3001
0000
1001
0000
0011
0000
,  // measure 15
0110
0100
1000
1000
0001
0001
0100
0100
1000
1000
0100
0100
0001
0001
1000
1000
,  // measure 16
0100
0100
0010
0010
0001
0001
0100
0100
0010
0010
1000
0001
0010
0100
1000
0001
,  // measure 17
0200
0000
1000
0000
0001
0000
0010
0000
0301
0000
0001
0010
0100
0010
0001
1000
,  // measure 18
0200
0000
1000
0000
0001
0000
0010
0000
1000
0000
1000
0000
0301
0000
1000
0010
,  // measure 19
0100
0100
0001
0001
0010
0010
0100
0100
1000
1000
0010
0010
0100
0100
1000
1000
,  // measure 20
0100
0100
0001
0001
0010
0010
0100
0100
1000
1000
0010
0100
0001
1000
0100
0010
,  // measure 21
0200
0000
1000
0000
0001
0000
0010
0000
1300
0000
1000
0010
0100
0001
0010
0001
,  // measure 22
0200
0001
0010
0301
,  // measure 23
1001
0000
1100
0000
1001
0000
0101
0000
1001
0000
1010
0000
0220
0330
0000
0000
,  // measure 24
1000
0000
0001
0000
1000
0000
0100
0000
0110
0000
0100
0010
0001
0000
1001
0000
,  // measure 25
1010
0000
0110
0000
0101
0000
1001
0000
1100
0000
0110
0000
0022
0033
0000
0000
,  // measure 26
0001
0000
1000
0000
0100
0000
1000
0000
1010
0000
1000
0010
0100
0000
0101
0000
,  // measure 27
0011
0000
1100
0000
1010
0000
0101
0000
1001
0000
0110
0000
2002
3003
0000
0000
,  // measure 28
1000
0000
0001
0000
0010
0000
0100
0000
1100
0000
1000
0010
0100
0000
1100
0000
,  // measure 29
0101
0000
0011
0000
1010
0000
0011
0000
0101
0000
0110
0000
2020
3030
0000
0000
,  // measure 30
1000
0000
0001
0000
0010
0000
0100
0000
0110
0000
0100
0010
0001
0000
1001
0000
,  // measure 31
1000
0100
0001
0100
1000
0010
0001
0010
,  // measure 32
1000
1010
0001
0011
1000
1100
0001
0101
,  // measure 33
1001
1000
1100
0000
1001
0001
0101
0000
,  // measure 34
1001
1010
1001
0011
1001
1100
1001
0000
,  // measure 35
2000
3010
0002
0013
2000
3100
0002
0103
,  // measure 36
1000
1001
0001
0101
0100
0110
1010
0011
,  // measure 37
2000
3001
0002
1003
2000
3010
0020
0130
,  // measure 38
0100
0000
0010
0100
0001
0000
0010
0100
1000
0000
0001
1000
1001
0000
1010
0000
,  // measure 39
0110
0000
0100
0010
1000
0000
1010
0000
1100
0000
0101
0000
1100
0000
1000
0000
,  // measure 40
1001
0000
0001
0010
0100
0000
0101
0000
1100
0000
1010
0000
0110
0000
0101
0000
,  // measure 41
1001
0000
0001
1000
0100
0000
1100
0000
0110
0000
0011
0000
0110
0000
1100
0000
,  // measure 42
1001
0000
0001
0010
0100
0000
1100
0000
0101
0000
1100
0000
2002
3003
0000
0000
,  // measure 43
0110
0000
0100
0010
1000
0000
1000
0001
0010
0000
0100
0000
0011
0000
0100
0000
,  // measure 44
1010
0000
1000
0010
0100
0000
0100
0001
0010
0000
0100
0000
1100
0000
0100
0000
,  // measure 45
0101
0000
0001
0010
0100
0000
1000
0010
0200
0000
0301
0000
2000
0000
3100
0000
,  // measure 46
1002
0003
0000
0000
0210
0300
0000
0000
1020
0030
0000
0000
0210
0000
0000
0000
,  // measure 47
0001
0001
1000
1000
0001
0310
1000
0001
,  // measure 48
0011
1100
1010
0110
0101
0001
1001
0000
,  // measure 49
1020
0030
0000
0000
2001
3000
0000
0000
0012
0003
0000
0000
0210
0300
0000
0000
2100
3000
0000
0000
1002
0003
0000
0000
0201
0000
0300
0000
0000
0000
0000
0000
,  // measure 50
0001
1000
0010
0100
0001
1000
1001
0000
,  // measure 51
1000
0010
1000
0100
0001
0100
1000
0000
,  // measure 52
1000
0001
0100
0010
2000
3000
1001
0000
,  // measure 53
1000
0100
0010
0100
;

//---------------dance-double - ---------------
#NOTES:
     dance-double:
     :
     Challenge:
     18:
     0,0,0,0,0:
// measure 0
00000000
00000000
00000000
00000000
,  // measure 1
00000000
00000000
00000000
00000000
,  // measure 2
10010000
00000000
00100000
00000000
00011000
00000000
00000010
00000000
00001000
00000001
00000010
00000000
00000011
00000000
00001100
00000000
,  // measure 3
00011000
00000000
00010000
01000000
10000000
00000000
11000000
00000000
01010000
00010000
00100000
01000000
10000000
00000000
11000000
00000000
,  // measure 4
01100000
00000000
01000000
00100000
00010000
00000000
00110000
00000000
00011000
00010000
00000010
00000100
00000001
00000000
00000101
00000000
,  // measure 5
00001010
00000000
00001000
00000100
00000010
00000000
00000011
00000000
00001100
00000100
00010000
00001000
00100000
00000000
00110000
00000000
,  // measure 6
01010000
00000000
01000000
00001000
00010000
00000000
00010100
00000000
00001001
00001000
00000010
00000100
00000001
00000000
00000101
00000000
,  // measure 7
00001001
00001000
00000010
00000100
00001000
00010000
01000000
10000000
,  // measure 8
10000000
00100000
01000000
00000000
01010000
00000000
11000000
00000000
10000000
00010000
00100000
00000000
00110000
00000000
11000000
00000000
,  // measure 9
10010000
10000000
01000000
00010000
00001000
00000100
00000001
00000010
,  // measure 10
00000011
00000000
00000001
00000010
00000110
00000000
00000010
00000100
00001000
00000010
00000100
00000000
00000101
00000000
00001001
00000000
,  // measure 11
00001100
00001000
00000010
00000100
00001000
00010000
01000000
10000000
,  // measure 12
00100000
01000000
00010000
00000000
10010000
00000000
00011000
00000000
00010000
00000010
00001000
00000000
00001010
00000000
00000101
00000000
,  // measure 13
00001001
00001000
00000100
00010000
00001000
00100000
01000000
10000000
,  // measure 14
10010000
00000000
00010000
10000000
11000000
00000000
10000000
00010000
01010000
00000000
00010000
10000000
10100000
00000000
01010000
00000000
,  // measure 15
10010000
10000000
01000000
01000000
00010000
00010000
00001000
00001000
00000100
00000100
00000001
00000001
00000010
00000010
00001000
00001000
,  // measure 16
00010000
00010000
00100000
00100000
10000000
10000000
01000000
01000000
00010000
00010000
01000000
10000000
00100000
01000000
00010000
10000000
,  // measure 17
02000000
00000000
10000000
00000000
00010000
00000000
00100000
00000000
13000000
00000000
10000000
00100000
01000000
00010000
00100000
00001000
,  // measure 18
00020000
00000000
00001000
00000000
00000100
00000000
00031000
00000000
00000100
00000000
00001000
00000000
00000001
00000000
00001000
00000010
,  // measure 19
00000100
00000100
00000001
00000001
00000010
00000010
00001000
00001000
00010000
00010000
00100000
00100000
10000000
10000000
01000000
01000000
,  // measure 20
00010000
00010000
00001000
00001000
00000100
00000100
00000001
00000001
00000010
00000010
00000100
00000010
00000001
00001000
00000010
00000100
,  // measure 21
00000002
00000000
00001000
00000000
00000010
00000000
00000100
00000000
00001003
00000000
00001000
00000010
00000100
00001000
00010000
01000000
,  // measure 22
20000000
00010000
00010000
30100000
,  // measure 23
10100000
01010000
10010000
11000000
10010000
00110000
00022000
00033000
,  // measure 24
00100000
00000000
00000010
00000000
00000100
00000000
00000001
00000000
00001001
00000000
00001000
00000001
00001000
00000000
00011000
00000000
,  // measure 25
00110000
01100000
11000000
10010000
01010000
11000000
02200000
03300000
,  // measure 26
01000000
00000000
00000100
00000000
00010000
00000000
00001000
00000000
00101000
00000000
00001000
00010000
00000010
00000000
00010010
00000000
,  // measure 27
00001010
00000110
00000011
00000110
00001010
00000011
00000220
00000330
,  // measure 28
00000100
00000000
01000000
00000000
00001000
00000000
00100000
00000000
00110000
00000000
00010000
00100000
01000000
00000000
11000000
00000000
,  // measure 29
10010000
00110000
01100000
11000000
10010000
00011000
20020000
30030000
,  // measure 30
01000000
00000000
00000100
00000000
00010000
00000000
00001000
00000000
00101000
00000000
00001000
00100000
01000000
00000000
11000000
00000000
,  // measure 31
20000000
30100000
00020000
00130000
20000000
30010000
00200000
01300000
,  // measure 32
10000000
10100000
00010000
01010000
10010000
00110000
00011000
00110000
,  // measure 33
10010000
00000000
10000000
00100000
01000000
00000000
00010000
00100000
01000000
00000000
11000000
00000000
10010000
00000000
01010000
00000000
,  // measure 34
10010000
00000000
10000000
00001000
00010000
00000000
00010000
00000001
00001000
00000000
00001001
00000000
00001100
00000000
00000011
00000000
,  // measure 35
00000200
00001300
00000020
00000130
00000002
00010003
00002000
10003000
,  // measure 36
10000000
10100000
01000000
01010000
00100000
11000000
01010000
11000000
,  // measure 37
10100000
00000000
00100000
01000000
00010000
00000000
00100000
00001000
00010000
00000000
00000010
00000100
00000001
00000000
00000010
00000100
,  // measure 38
00001000
00000000
00000010
00000100
00000001
00000010
00000100
00001000
00000010
00000100
00001000
00000100
00000101
00000000
00001010
00000000
,  // measure 39
00011000
00000000
00010000
00001000
00100000
00000000
01000000
00100000
00010000
00000000
10000000
00000000
00110000
00000000
01000000
00000000
,  // measure 40
11000000
00000000
10000000
00010000
00100000
00000000
01000000
10000000
00010000
00000000
01000000
00000000
00011000
00000000
00000100
00000000
,  // measure 41
00011000
00000000
00010000
00000010
00000100
00000000
00000100
00000001
00000010
00000000
00001000
00000000
00000011
00000000
00001000
00000000
,  // measure 42
00000110
00000000
00000100
00001000
00000010
00000000
00000100
00001000
00010000
00000000
00000100
00000000
00011000
00000000
01000000
00000000
,  // measure 43
01010000
00000000
01000000
00010000
00100000
00000000
01000000
10000000
00100000
00000000
01000000
00000000
01100000
00000000
10000000
00000000
,  // measure 44
10010000
00000000
10000000
00010000
00100000
00000000
01000000
00100000
00010000
00000000
10000000
00000000
00110000
00000000
01000000
00000000
,  // measure 45
00011000
00000000
00010000
00000010
00000100
00000000
00000100
00000010
00002000
00000000
00003002
00000000
00000203
00000000
00000320
00000030
,  // measure 46
00002010
00003000
00000102
00000003
00020010
00030000
02001000
00000000
,  // measure 47
00010000
00010000
10000000
10000000
00010000
00100000
03010000
10000000
,  // measure 48
10010000
00110000
10100000
00110000
01010000
01000000
01100000
00000000
,  // measure 49
20100000
30000000
00000000
00000000
10020000
00030000
00000000
00000000
02010000
03000000
00000000
00000000
00021000
00030000
00000000
00000000
00002100
00003000
00000000
00000000
00000102
00000003
00000000
00000000
00002002
00000000
00000000
00000000
00003003
00000000
00000000
00000000
,  // measure 50
00001000
00000000
00000010
00000100
00000001
00000010
00001000
00000010
00000100
00001000
00000010
00010000
00001000
00000000
00011000
00000000
,  // measure 51
00002000
00203000
02300000
23000000
30200000
02300000
03020000
10000000
,  // measure 52
00130000
01000000
10000000
00010000
00100000
01000000
01100000
00000000
,  // measure 53
10000000
00000000
01000000
00000000
00100000
00010000
01000000
00000000
;
