#TITLE:Luvin' You (C&C Mix);
#SUBTITLE:;
#ARTIST:cranky;
#MUSIC:Luvin' You (C&C Mix).ogg;
#BANNER:Luvin' You (C&C Mix).png;
#BACKGROUND:Luvin' You (C&C Mix)-bg.png;
#LYRICSPATH:;
#CDTITLE:;
#SAMPLESTART:25.53;
#SAMPLELENGTH:12;
#OFFSET:-0.03;
#BPMS:0.000000=160.000000,
64.000000=320.000000,
64.500000=160.000000,
64.750000=320.000000,
65.250000=160.000000,
65.500000=320.000000,
66.000000=160.000000,
66.250000=320.000000,
66.750000=160.000000,
67.000000=320.000000,
67.500000=160.000000,
67.750000=320.000000,
68.250000=160.000000,
68.500000=320.000000,
69.000000=160.000000,
69.250000=320.000000,
69.750000=160.000000,
100.000000=320.000000,
100.500000=160.000000,
100.750000=320.000000,
101.250000=160.000000,
101.500000=640.000000,
105.500000=160.000000,
137.500000=40.000000,
138.500000=320.000000,
140.500000=80.000000,
141.000000=320.000000,
143.000000=640.000000,
147.000000=160.000000,
179.000000=320.000000,
179.500000=160.000000,
179.750000=320.000000,
180.250000=160.000000,
180.500000=320.000000,
181.000000=160.000000,
181.250000=320.000000,
181.750000=160.000000,
182.000000=320.000000,
182.500000=160.000000,
182.750000=320.000000,
183.250000=160.000000,
183.500000=320.000000,
184.000000=160.000000,
184.250000=320.000000,
184.750000=160.000000,
185.000000=320.000000,
185.500000=160.000000,
185.750000=320.000000,
186.250000=160.000000,
186.500000=320.000000,
187.000000=160.000000,
187.250000=320.000000,
187.750000=160.000000,
188.000000=320.000000,
188.500000=160.000000,
188.750000=320.000000,
189.250000=160.000000,
189.500000=320.000000,
190.000000=160.000000,
190.250000=320.000000,
190.750000=160.000000,
191.000000=320.000000,
191.500000=160.000000,
191.750000=320.000000,
192.250000=160.000000,
192.500000=320.000000,
193.000000=160.000000,
193.250000=320.000000,
193.750000=160.000000,
194.000000=320.000000,
194.500000=160.000000,
194.750000=320.000000,
195.250000=160.000000,
195.500000=320.000000,
196.000000=160.000000,
196.250000=320.000000,
196.750000=160.000000,
197.000000=320.000000,
197.500000=160.000000,
197.750000=320.000000,
198.250000=160.000000,
198.500000=320.000000,
199.000000=160.000000,
199.250000=320.000000,
199.750000=160.000000,
200.000000=320.000000,
200.500000=160.000000,
200.750000=320.000000,
201.250000=160.000000,
201.500000=320.000000,
202.000000=160.000000,
202.250000=320.000000,
202.750000=160.000000,
203.000000=320.000000,
203.500000=160.000000,
203.750000=320.000000,
204.250000=160.000000,
204.500000=320.000000,
205.000000=160.000000,
205.250000=320.000000,
205.750000=160.000000,
206.000000=320.000000,
206.500000=160.000000,
206.750000=320.000000,
207.250000=160.000000,
207.500000=320.000000,
208.000000=160.000000,
208.250000=320.000000,
208.750000=160.000000,
209.000000=320.000000,
209.500000=160.000000,
209.750000=320.000000,
210.250000=160.000000,
210.500000=320.000000,
211.000000=160.000000,
211.250000=320.000000,
211.750000=160.000000,
212.000000=320.000000,
212.500000=160.000000,
212.750000=320.000000,
213.250000=160.000000,
213.500000=320.000000,
214.000000=160.000000,
214.250000=320.000000,
214.750000=160.000000,
215.000000=320.000000,
215.500000=160.000000,
215.750000=320.000000,
216.250000=160.000000,
216.500000=320.000000,
217.000000=160.000000,
217.250000=320.000000,
217.750000=160.000000,
218.000000=320.000000,
218.500000=160.000000,
218.750000=320.000000,
219.250000=160.000000,
219.500000=320.000000,
220.000000=160.000000,
220.250000=320.000000,
220.750000=160.000000,
221.000000=320.000000,
221.500000=160.000000,
221.750000=320.000000,
222.250000=160.000000,
222.500000=320.000000,
223.000000=160.000000,
223.250000=320.000000,
223.750000=160.000000,
224.000000=320.000000,
224.500000=160.000000,
224.750000=320.000000,
225.250000=160.000000,
225.500000=320.000000,
226.000000=160.000000,
226.250000=320.000000,
226.750000=160.000000,
231.000000=320.000000,
231.500000=160.000000,
231.750000=320.000000,
232.250000=160.000000,
233.500000=320.000000,
234.000000=160.000000,
234.250000=320.000000,
234.750000=160.000000,
240.000000=320.000000,
240.500000=160.000000,
240.750000=320.000000,
241.250000=160.000000,
241.500000=320.000000,
242.000000=160.000000,
242.250000=320.000000,
242.750000=160.000000,
248.000000=320.000000,
248.500000=160.000000,
248.750000=320.000000,
249.250000=160.000000,
250.000000=320.000000,
251.000000=160.000000,
251.250000=320.000000,
251.750000=160.000000,
252.000000=320.000000,
252.500000=160.000000,
253.000000=320.000000,
254.000000=160.000000,
258.000000=320.000000,
258.500000=160.000000,
258.750000=320.000000,
259.250000=160.000000,
259.500000=320.000000,
260.000000=160.000000,
260.250000=320.000000,
260.750000=160.000000,
261.000000=320.000000,
261.500000=160.000000,
261.750000=320.000000,
262.250000=160.000000,
262.500000=640.000000,
263.500000=80.000000,
263.625000=640.000000,
264.625000=80.000000,
264.750000=160.000000,
280.750000=80.000000,
281.750000=160.000000,
283.750000=80.000000,
284.750000=160.000000,
286.750000=80.000000,
287.750000=160.000000,
289.750000=80.000000,
290.750000=640.000000,
298.750000=160.000000,
327.500000=320.000000,
328.000000=160.000000,
329.000000=320.000000,
331.000000=80.000000,
331.500000=320.000000,
333.500000=80.000000,
334.000000=320.000000,
336.000000=80.000000,
336.500000=320.000000,
338.500000=80.000000,
339.000000=320.000000,
341.000000=80.000000,
341.333333=320.000000,
342.000000=80.000000,
342.500000=160.000000,
343.166667=80.000000,
343.333333=320.000000,
345.333333=80.000000,
345.666667=160.000000,
347.000000=320.000000,
348.333333=80.000000,
348.500000=10.000000,
349.000000=640.000000,
365.000000=160.000000
;
#STOPS:243.000000=0.375000;
#TIMESIGNATURES:0.000000=4=4;
#BGCHANGES:;
#FGCHANGES:;
#ATTACKS:;
#SPEEDS:0.000000=1.000000=0.000000=0;
#SCROLLS:0.000000=1.000000;
#KEYSOUNDS:;

//---------------dance-single - ---------------
#NOTES:
     dance-single:
     :
     Challenge:
     19:
     0,0,0,0,0:
// measure 0
0000
0000
0000
0000
,  // measure 1
1001
0000
0000
0000
,  // measure 2
0000
0000
0000
0000
,  // measure 3
1000
0000
0001
0000
0000
0010
0000
0000
,  // measure 4
0100
0100
1000
0001
,  // measure 5
1000
0000
0100
1000
0001
0000
0100
0010
1000
0000
0001
0000
0010
0100
1000
0000
,  // measure 6
0001
0000
0010
0001
0100
0000
0010
1000
0100
0000
1000
0000
0010
0100
1000
0000
,  // measure 7
0100
0000
0001
0010
0100
0000
1000
0010
0100
0000
0001
0000
1000
0001
0010
0000
,  // measure 8
0100
0000
0001
0100
1000
0000
0010
0100
0001
1000
0010
0100
0001
1000
0100
0100
,  // measure 9
0100
0100
0100
0100
1000
0000
0100
0100
0100
0100
0100
0100
0001
0000
0100
0100
,  // measure 10
0100
0100
0100
0100
0010
0000
0100
0100
0100
0100
0100
0100
1000
0000
0100
0100
,  // measure 11
0100
0100
0100
0100
0010
0000
0100
0100
0100
0100
0100
0100
0001
0000
0100
0100
,  // measure 12
0100
0100
0100
0100
1000
0000
0100
0100
0100
0100
0100
0100
0001
0000
0100
0100
,  // measure 13
0010
0000
0010
0000
0010
1000
0001
0010
0100
1000
0010
0100
1000
0100
0001
1000
,  // measure 14
0010
0000
0010
0000
0010
1000
0100
0010
0100
1000
0010
0100
0001
0010
0100
1000
,  // measure 15
0010
0000
0100
0000
0001
0000
1000
0000
0100
0000
0010
0000
0100
1000
0001
0100
0001
1000
0100
1000
0010
0100
0010
1000
,  // measure 16
0001
0000
0100
0010
0000
1000
0100
0000
0010
0001
0000
0100
0010
0000
1000
0001
,  // measure 17
0000
0010
0100
0000
1000
0010
0000
1000
1001
0000
0110
0000
1010
0000
1000
0010
,  // measure 18
0100
0001
0010
0100
1000
0000
1001
0000
1100
0000
0110
0000
1100
0000
1000
0010
,  // measure 19
0100
0001
0010
0100
1000
0000
1010
0000
0110
0000
0101
0000
1001
0000
1000
0010
,  // measure 20
0100
0001
1000
0100
0010
0000
0011
0000
0110
0100
0000
1100
1000
0000
1001
0001
,  // measure 21
1000
0010
0100
0001
2002
0000
3003
0000
1001
0000
0011
0000
1010
0000
0001
0010
,  // measure 22
0100
1000
0010
0100
1000
0000
0101
0000
1001
0000
1100
0000
0110
0000
0010
0100
,  // measure 23
1000
0001
0100
0010
1000
0000
1010
0000
0011
0000
1001
0000
1010
0000
1000
0010
,  // measure 24
0100
0001
1000
0100
0001
0000
0110
0000
1100
1000
0000
1001
0001
0000
0011
0001
,  // measure 25
1000
0000
0001
1000
0000
0001
0010
0000
0000
0000
0000
0000
0000
0000
0000
0000
,  // measure 26
0000
0000
0000
0000
0000
0000
0010
0001
0100
0001
0010
0100
1000
0010
0100
0001
,  // measure 27
1000
0001
0100
0000
0001
0000
0010
0100
1000
0010
0100
1000
0100
0001
1000
0100
,  // measure 28
0001
1000
0001
0000
0100
0000
1000
0010
0100
0001
0010
0100
1000
0010
0100
1000
,  // measure 29
0100
0001
1000
0000
0001
0000
1000
0010
0100
0010
1000
0001
0010
0100
1000
0010
,  // measure 30
0100
0001
1000
0000
0001
0000
1000
0010
0100
0001
0010
0000
0001
0000
0010
0001
,  // measure 31
0100
0010
1000
0000
0001
0000
1000
0010
0100
0001
0010
0100
1000
0010
0100
0001
,  // measure 32
0010
0100
1000
0010
0100
0010
1000
0001
0010
0100
1000
0010
0100
0001
0010
0100
,  // measure 33
1000
0010
0001
0010
1000
0100
0001
1000
0001
0100
1000
0010
0100
0001
1000
0010
,  // measure 34
0001
0000
0000
0000
0010
0000
0000
0000
1000
0000
0000
0000
0100
0000
0000
0000
0001
0000
0000
0000
0100
0000
0000
0000
1000
0000
0100
0000
0100
0000
0100
0100
0100
0000
1000
0000
0010
0000
0100
0000
2002
0000
0000
0000
0000
0000
0000
0000
3003
0000
0000
0000
0000
0000
0000
0000
0000
0000
0000
0000
0000
0000
0000
0000
,  // measure 35
0000
0000
0220
0330
2002
0000
3003
0000
0000
0000
0000
0000
0220
0000
0000
0000
,  // measure 36
0000
0000
0000
0000
0330
0000
0000
0000
0000
0000
0000
0000
1000
0000
0010
0100
,  // measure 37
0001
0000
0010
0100
1000
0000
0010
0100
1000
0000
0100
0001
0010
0000
0100
1000
,  // measure 38
0010
0000
0100
0001
0010
0000
0100
1000
0001
0000
0100
0010
1000
0000
0100
0010
,  // measure 39
0001
0000
1000
0001
0010
0000
0100
1000
0010
0000
0100
1000
0001
0000
1000
0100
,  // measure 40
0001
0000
1000
0100
0001
0000
0100
1000
0010
0000
0100
0001
0010
0000
0100
1000
,  // measure 41
0010
0000
0100
0001
1000
0000
1000
0001
0010
0000
0100
1000
0010
0000
0100
0001
,  // measure 42
0010
0000
0100
1000
0010
0000
0100
0001
0010
0000
0100
1000
1200
0000
1000
0000
,  // measure 43
0010
0001
0010
1000
0301
2001
0100
0010
,  // measure 44
0001
0000
3100
0000
1020
0000
1000
0000
0001
0000
0130
0000
1000
0000
0001
0100
,  // measure 45
0000
0010
1000
0000
0100
0001
0000
0100
1000
0000
0010
0100
0000
0001
1000
0000
,  // measure 46
0010
1000
0000
0001
0011
0000
0001
1000
0000
0100
1100
0000
1000
0001
0000
0010
,  // measure 47
0011
0000
0001
0010
0000
0100
1100
0000
1000
1001
0000
0001
0011
0000
0010
0100
,  // measure 48
0000
1000
0001
0000
0100
0010
0000
1000
0010
0000
0001
0010
0000
1000
0001
0000
,  // measure 49
0010
0100
0000
1000
1001
0000
0001
0100
0000
0010
1010
0000
0010
0100
0000
0001
,  // measure 50
1001
0000
1000
0001
0000
0010
0110
0000
0100
1000
0000
0001
1001
0000
0001
0100
,  // measure 51
0000
0010
1000
0000
0100
0001
0000
0100
1000
0000
0010
0100
0000
0001
0010
0000
,  // measure 52
0100
1000
0000
0010
0110
0000
0100
0001
0000
1000
1100
0000
1000
0001
0000
0010
,  // measure 53
0110
0000
0100
1000
0000
0001
1001
0000
1000
1100
0000
0100
0110
0000
0001
1000
,  // measure 54
0000
0010
1000
0000
0001
1000
0000
0100
0001
0000
0100
1000
0000
0001
0100
0000
,  // measure 55
0010
1000
0000
0001
0010
0000
0001
0100
0000
0010
1000
0000
0100
0001
0000
0100
,  // measure 56
1000
0000
0010
0100
0000
0001
1000
0000
0100
1000
0000
0010
0110
0000
0100
0001
,  // measure 57
0010
0000
0010
1000
0100
0000
1000
0000
0010
0000
0100
0000
0001
0000
1000
0000
,  // measure 58
0000
0000
0000
1000
0000
0000
1002
0000
0000
0000
0000
0000
0003
0000
0000
0000
0000
0000
0001
0000
0000
0000
0000
0000
0010
0000
0000
0000
0000
0000
0000
0000
0000
0010
0000
0000
0022
0000
0003
0000
0000
0000
0030
0000
0000
0000
0000
0000
,  // measure 59
0011
0000
0010
0001
0100
0000
0100
1000
0010
0000
0100
0000
0001
0000
1000
0000
,  // measure 60
0001
0000
0000
0000
0000
0000
0000
0000
0000
0000
0000
0000
0000
0000
0000
0000
0000
0000
0000
0000
0000
0000
0000
0000
0011
0000
0000
0000
0000
0000
0000
0000
0000
0000
0000
0000
0000
0000
0000
0000
0000
0000
0000
0000
0000
0000
0000
0000
0000
0000
0000
0000
0000
0000
0000
0000
0000
0000
0000
0000
0110
0000
0000
0000
0000
0000
0000
0000
0000
0000
0000
0000
0000
0000
0000
0000
0000
0000
0000
0000
0000
0000
0000
0000
0000
0000
0000
0000
0000
0000
0000
0000
0000
0000
0000
0000
1100
0000
0000
0000
0000
0000
0000
0000
0000
0000
0000
0000
0000
0000
0000
0000
0000
0000
0000
0000
0000
0000
0000
0000
0000
0000
0000
0000
0000
0000
0000
0000
0000
0000
0000
0000
0001
0000
0000
0000
0000
0000
0000
0000
0000
0000
0000
0000
1001
0110
0000
0000
0000
0000
0000
0000
0000
0000
0000
0000
0000
0000
0000
0000
0000
0000
0000
0000
0000
0000
0000
0000
0000
0000
0000
0000
0000
0000
0000
0000
0000
0000
0000
0000
0000
0000
0000
0000
0000
0000
0000
0000
0000
0000
0000
0000
,  // measure 61
1010
0000
0010
1000
0001
0000
0010
0100
1000
0000
0010
0000
0100
0000
0001
0000
,  // measure 62
1000
0000
0001
0010
0000
0001
1000
0000
1001
0000
0000
0000
0001
1000
0000
0010
,  // measure 63
1000
0000
0001
0000
1001
0000
0000
0000
1010
0000
0010
0100
0001
0000
0010
0100
,  // measure 64
1000
0000
0010
0000
0100
0000
0001
0000
0010
0000
0010
0001
0000
0001
1000
0000
,  // measure 65
1000
0000
0100
0000
0000
0000
0100
0000
1000
0000
0000
0000
1000
0000
0001
0000
0000
0000
0001
0000
1000
0000
0000
0000
0000
0000
0000
0000
1000
0010
0000
0000
,  // measure 66
0000
0000
0000
0000
0000
0010
1010
0000
0000
0000
1001
0000
0000
0000
1100
0000
0000
0000
1000
0000
0010
0000
0100
0000
0001
0000
0010
0000
0100
0000
1000
0000
,  // measure 67
0000
1100
0000
1001
0000
0011
0000
0110
0000
1000
0010
0100
0001
0010
0001
0100
,  // measure 68
0000
0110
0000
1010
0000
1100
0000
0101
0000
1000
0010
0100
1000
0100
0001
1000
,  // measure 69
0000
1100
0000
1000
0100
0010
0100
1000
0000
1001
0000
0001
0100
0010
0100
0001
,  // measure 70
0000
1001
0000
2000
0001
0100
3001
1010
0000
0010
0000
0110
0000
0010
0000
0200
,  // measure 71
0001
0010
1300
1001
0000
1000
0000
0110
0000
0010
0000
0002
1000
0010
1003
0101
,  // measure 72
0000
0010
0000
0011
0000
0010
0000
0200
1000
0010
1300
1000
0000
0000
0000
0001
,  // measure 73
0000
0000
0000
1000
0000
0000
0000
0001
0000
0000
0000
0010
0000
0000
0000
0001
,  // measure 74
0000
0000
0000
1000
0000
0000
0000
0001
0000
0000
0000
1001
0000
1000
0000
0010
,  // measure 75
0000
0100
0001
0010
0000
0100
0000
1100
0000
1000
0001
0100
0000
0001
0000
0011
,  // measure 76
0000
0010
0100
1000
0000
0001
0000
1010
0000
0010
0100
0001
0000
1000
0000
0101
,  // measure 77
0000
1000
0001
0100
0000
0001
0000
1001
0000
1000
0100
0010
0000
0100
0000
1100
,  // measure 78
0000
1000
0000
0001
0010
0100
1000
0010
0100
0001
1000
0100
0000
1000
0000
1001
,  // measure 79
0000
1000
0010
0100
0000
0001
0000
0011
0000
0001
0010
0110
0000
0100
0000
1100
,  // measure 80
0000
1000
0000
1001
0000
0001
0000
0011
0000
0101
0000
1001
0000
1000
0000
0010
,  // measure 81
0000
0100
0000
0001
0010
0100
0000
1000
0010
0100
0001
0010
0100
1000
0020
0000
,  // measure 82
0130
0001
1000
0100
1001
0000
0000
0000
0000
0000
0000
0000
0110
0000
1001
0000
,  // measure 83
0000
0000
0000
0110
1010
0000
0000
0000
,  // measure 84
0101
0011
0000
0000
0000
1100
1001
0000
,  // measure 85
0000
0000
0000
0000
0000
0000
0110
0000
1000
0000
0000
0000
1001
0000
0000
0011
0000
0000
0000
0010
0110
0000
0000
0000
,  // measure 86
0000
0000
0000
0000
1001
0010
0011
0000
0000
0110
0000
0000
,  // measure 87
0000
0000
0000
0000
0000
0000
0000
0000
0001
0000
0000
0000
1001
0000
0000
0001
0000
0000
1000
0000
0000
0100
0000
0000
0020
0000
0000
0000
0000
0000
0000
0000
0000
0000
0000
0000
0000
0000
0000
0000
0000
0000
0000
0000
0000
0000
0000
0000
0000
0000
0000
0000
0000
0000
0000
0000
0000
0000
0000
0000
0000
0000
0000
0000
0000
0000
0000
0000
0000
0000
0000
0000
0000
0000
0000
0000
0000
0000
0000
0000
0000
0000
0000
0000
0000
0000
0000
0000
0000
0000
0000
0000
0000
0000
0000
0000
,  // measure 88
0000
0000
0000
0000
,  // measure 89
0000
0000
0000
0000
,  // measure 90
0000
0000
0000
0000
,  // measure 91
0000
0000
0000
0000
0000
0000
0000
0000
0000
0000
0000
0000
0000
0000
0000
0000
0000
0000
0000
0000
0000
0000
0000
0000
0000
0000
0000
0000
0000
0000
0000
0000
0000
0000
0000
0000
0000
0000
0000
0000
0000
0000
0000
0000
0000
0000
0000
0000
0031
0000
0000
0000
0000
0000
0000
0000
0000
0000
0000
0000
0000
0000
0000
0000
0000
0000
0000
0000
0000
0000
0000
0000
0000
0000
0000
0000
0000
0000
0000
0000
0000
0000
0000
0000
0000
0000
0000
0000
0000
0000
0000
0000
0000
0000
0000
0000
0010
0000
0000
0000
0000
0000
0000
0000
0000
0000
0000
0000
0000
0000
0000
0000
0000
0000
0000
0000
0000
0000
0000
0000
0000
0000
0000
0000
0000
0000
0000
0000
0010
0000
0000
0000
0000
0000
0000
0000
0000
0000
0000
0000
0000
0000
0000
0000
0220
0000
0000
0000
0000
0000
0000
0000
0000
0000
0000
0000
0000
0000
0000
0000
0000
0000
0000
0000
0000
0000
0000
0000
0000
0000
0000
0000
0000
0000
0000
0000
0000
0000
0000
0000
0000
0000
0000
0000
0000
0330
0000
0000
0000
0000
0000
0000
;

//---------------dance-single - ---------------
#NOTES:
     dance-single:
     :
     Hard:
     17:
     0,0,0,0,0:
// measure 0
0000
0000
0000
0000
,  // measure 1
1001
0000
0000
0000
,  // measure 2
0000
0000
0000
0000
,  // measure 3
1000
0000
0001
0000
0000
0010
0000
0000
,  // measure 4
0100
0100
1000
0001
,  // measure 5
1000
0000
0010
1000
0001
0000
0010
0000
0001
1000
0010
0000
0100
0000
0010
1000
,  // measure 6
0001
0000
0100
0000
0010
1000
0001
0000
1000
0010
1000
0000
0001
0100
0001
0000
,  // measure 7
1000
0000
0010
1000
0100
0000
0010
0000
0001
0010
0100
0000
1000
0000
0010
0001
,  // measure 8
0010
0000
0001
0000
0010
1000
0001
0000
0010
0000
0100
0000
1000
0000
0001
1000
,  // measure 9
0001
1000
0001
1000
0010
0000
0100
0010
0100
0010
0100
0010
1000
0000
0001
0100
,  // measure 10
0001
0100
0001
0100
0010
0000
1000
0100
1000
0100
1000
0100
0010
0000
0001
1000
,  // measure 11
0001
1000
0001
1000
0010
0000
0100
0010
0100
0010
0100
0010
1000
0000
0001
0010
,  // measure 12
0001
0010
0001
0010
0100
0000
1000
0001
1000
0001
1000
0001
0010
0000
0100
0010
,  // measure 13
0001
0000
0001
0000
0001
1000
0010
0100
0010
1000
0001
0010
0100
1000
0001
0100
,  // measure 14
0010
0000
0010
0000
0010
1000
0001
0010
0100
0010
0001
1000
0010
0100
1000
0100
,  // measure 15
0010
1000
0001
0010
0100
1000
0010
0100
1000
0100
0001
0010
,  // measure 16
0001
0000
0010
0001
0000
0010
0100
0000
0010
0100
0000
0010
0100
0000
1000
0100
,  // measure 17
0000
1000
0001
0000
1000
0001
0000
1000
1001
0000
1000
0000
1010
0000
0010
0100
,  // measure 18
0000
0001
0000
0010
0100
0000
1100
0000
1001
0000
0001
0000
0011
0000
0010
0100
,  // measure 19
0000
1000
0000
0010
0100
0000
1100
0000
0101
0000
1000
0000
1100
0000
1000
0010
,  // measure 20
0000
0100
0000
0001
1000
0000
1010
0000
1001
0001
0000
1001
1000
0000
1001
0001
,  // measure 21
1000
0000
0001
0000
0022
0000
0033
0000
0011
0000
0110
0000
1100
0000
1000
0010
,  // measure 22
0000
0100
0000
1000
0100
0000
0101
0000
0011
0000
0110
0000
1100
0000
1000
0010
,  // measure 23
0000
0001
0000
0010
1000
0000
1001
0000
1100
0000
0101
0000
1100
0000
1000
0010
,  // measure 24
0000
0100
0000
0001
0010
0000
0011
0000
1100
1000
0000
1001
0001
0000
0101
0001
,  // measure 25
0100
0000
0001
0100
0000
0001
0010
0000
0000
0000
0000
0000
0000
0000
0000
0000
,  // measure 26
0000
0000
0000
0000
0000
0000
0001
0000
0100
0001
0010
0000
0100
1000
0010
0000
,  // measure 27
0100
0000
0101
0000
0100
0000
0010
0000
1000
0001
0010
0000
0100
0010
0001
0000
,  // measure 28
1000
0000
1010
0000
1000
0000
1000
0001
0010
0001
1000
0000
1001
0000
0001
1000
,  // measure 29
0010
1000
0001
0000
1001
0000
1000
0010
0100
0010
1000
0001
0010
0001
1000
0010
,  // measure 30
0100
0001
1000
0000
1001
0000
1000
0100
0001
0100
1000
0000
0000
0000
0001
0100
,  // measure 31
1000
0100
0001
0000
0000
0000
1000
0010
0100
1000
0100
0001
0010
0100
1000
0000
,  // measure 32
1000
0010
0000
0010
0001
1000
0010
0100
0001
0000
1000
0000
1000
0010
0100
0001
,  // measure 33
0010
0000
0100
0000
0010
0001
1000
0010
0100
0001
0010
0100
1000
0010
0100
0001
,  // measure 34
1000
0000
0000
0000
0100
0000
0000
0000
0010
0000
0000
0000
0001
0000
0000
0000
0100
0000
0000
0000
0010
0000
0000
0000
1000
0000
0100
0000
0100
0000
0100
1000
0001
0000
0100
0000
0010
0000
1000
0000
2002
0000
0000
0000
0000
0000
0000
0000
3003
0000
0000
0000
0000
0000
0000
0000
0000
0000
0000
0000
0000
0000
0000
0000
,  // measure 35
0000
0000
0220
0330
2020
0000
0000
0000
3030
0000
0000
0000
0202
0000
0000
0000
,  // measure 36
0000
0000
0000
0000
0303
0000
0000
0000
0000
0000
0000
0000
1000
0000
0010
0100
,  // measure 37
1000
0000
0100
0001
0010
0000
0100
0000
1000
0000
0001
0000
0100
0000
0010
0100
,  // measure 38
0001
0000
1000
0100
0010
0000
0100
0000
1000
0000
0010
0000
0100
0000
1000
0100
,  // measure 39
0001
0000
1000
0100
0001
0000
0100
0000
1000
0000
0010
0000
0100
0000
0010
0100
,  // measure 40
0001
0000
0010
0100
1000
0000
0010
0000
0100
0000
1000
0000
0100
0000
0001
1000
,  // measure 41
0100
0000
1000
0001
0100
0000
0010
0000
0100
0000
0001
0000
1001
0000
1000
0010
,  // measure 42
0100
0000
0101
0000
0100
0001
0010
0000
1100
0000
0011
0000
2001
0000
0001
0000
,  // measure 43
0100
0010
0100
0001
3010
1002
0010
0100
,  // measure 44
1000
0000
0103
0000
0120
0000
1000
0000
0001
0000
0130
0000
1000
0000
0100
0010
,  // measure 45
0000
0001
1000
0000
0100
0010
0000
0001
1000
0000
0010
0100
0000
0001
1000
0000
,  // measure 46
0010
0100
0000
0001
0010
0000
0100
1000
0000
0001
0010
0000
0100
1000
0000
0001
,  // measure 47
0100
0000
0010
1000
0000
0001
0100
0000
0010
1000
0000
0001
0010
0000
0001
1000
,  // measure 48
0000
0100
0010
0000
0001
1000
0000
0100
0010
0000
0100
1000
0000
0001
0010
0000
,  // measure 49
0100
1000
0000
0001
1000
0000
0010
0100
0000
0010
1000
0000
0010
0100
0000
0010
,  // measure 50
1000
0000
0100
0010
0000
0100
1000
0000
0100
0010
0000
0100
1000
0000
0001
0100
,  // measure 51
0000
0001
1000
0000
0001
0100
0000
0001
0010
0000
0100
0010
0000
0001
0010
0000
,  // measure 52
0100
0010
0000
0001
0100
0000
0010
0100
0000
0001
0100
0000
0010
0100
0000
0001
,  // measure 53
1000
0000
0010
0100
0000
0010
1000
0000
0010
0100
0000
0010
1000
0000
0001
0010
,  // measure 54
0000
0100
0010
0000
0001
1000
0000
0100
1000
0000
0001
0010
0000
0100
1000
0000
,  // measure 55
0010
0100
0000
0001
1000
0000
0001
1000
0000
0001
0010
0000
0001
1000
0000
0001
,  // measure 56
0100
0000
0001
1000
0000
0001
1000
0000
0010
0100
0000
0010
0110
0000
0100
0000
,  // measure 57
0001
1000
0010
0100
0010
1000
0001
0010
,  // measure 58
0000
0010
0200
0000
0300
0000
1000
0000
0010
0000
0000
0010
0200
0000
0300
0000
,  // measure 59
0101
0100
0010
1000
0001
0010
0100
0010
,  // measure 60
0001
0000
0000
0000
0000
0000
0000
0000
0000
0000
0000
0000
0000
0000
0000
0000
0000
0000
0000
0000
0000
0000
0000
0000
1000
0000
0000
0000
0000
0000
0000
0000
0000
0000
0000
0000
0000
0000
0000
0000
0000
0000
0000
0000
0000
0000
0000
0000
0000
0000
0000
0000
0000
0000
0000
0000
0000
0000
0000
0000
0010
0000
0000
0000
0000
0000
0000
0000
0000
0000
0000
0000
0000
0000
0000
0000
0000
0000
0000
0000
0000
0000
0000
0000
0000
0000
0000
0000
0000
0000
0000
0000
0000
0000
0000
0000
0100
0000
0000
0000
0000
0000
0000
0000
0000
0000
0000
0000
0000
0000
0000
0000
0000
0000
0000
0000
0000
0000
0000
0000
0000
0000
0000
0000
0000
0000
0000
0000
0000
0000
0000
0000
0001
0000
0000
0000
0000
0000
0000
0000
0000
0000
0000
0000
1001
0110
0000
0000
0000
0000
0000
0000
0000
0000
0000
0000
0000
0000
0000
0000
0000
0000
0000
0000
0000
0000
0000
0000
0000
0000
0000
0000
0000
0000
0000
0000
0000
0000
0000
0000
0000
0000
0000
0000
0000
0000
0000
0000
0000
0000
0000
0000
,  // measure 61
1010
1000
0001
0100
0010
0100
0001
1000
,  // measure 62
0100
0000
1000
0010
0000
1000
0100
0000
1000
0000
0000
0000
0001
0100
0000
0010
,  // measure 63
0100
0001
1000
0000
1100
1000
0010
0100
,  // measure 64
1000
0000
0100
0000
0001
0000
1000
0000
0001
0000
0010
0100
0000
0010
0001
0000
,  // measure 65
1000
0000
0010
0000
0000
0000
1000
0000
0100
0000
0000
0000
1000
0000
0010
0000
0000
0000
0100
0000
0001
0000
0000
0000
0000
0000
0000
0000
1000
0001
0000
0000
,  // measure 66
0000
0000
0000
0000
0000
1000
1001
0000
0000
0000
1000
0000
0000
0000
1010
0000
0000
0000
1000
0000
0010
0000
0000
0000
0100
0000
0000
0000
0001
0000
1000
0000
,  // measure 67
0000
1100
0000
1001
0000
0001
0000
1001
0000
1000
0010
0000
0100
0000
1000
0100
,  // measure 68
0000
0101
0000
1001
0000
1000
0000
1010
0000
1000
0010
0000
0100
0000
0001
1000
,  // measure 69
0000
1100
0000
1001
0001
0000
1001
1000
0000
1001
0001
1000
0000
0010
0000
0110
,  // measure 70
0000
0010
0000
1000
0001
0010
0100
0110
0000
0001
0000
1001
0000
1000
0000
0001
,  // measure 71
0100
0010
0100
0101
0000
0001
0000
1001
0000
1000
0000
0100
1000
0010
0100
1100
,  // measure 72
0000
0100
0000
0101
0000
0001
0000
1000
0100
0001
0100
1000
0000
0000
0000
0001
,  // measure 73
0000
0000
0000
1000
0000
0000
0000
0001
0000
0000
0000
2000
0000
0000
0000
0002
,  // measure 74
3000
0000
0000
0003
0000
0000
0000
0000
0000
0000
0000
1001
0000
1000
0000
1010
,  // measure 75
0000
1000
0000
1100
0000
1000
0000
1001
0000
1000
0000
1010
0000
0010
0000
0110
,  // measure 76
0000
0010
0000
0011
0000
0010
0000
1010
0000
0010
0000
0110
0000
0100
0000
0101
,  // measure 77
0000
0100
0000
1100
0000
0100
0000
0110
0000
0100
0000
0101
0000
0001
0000
1001
,  // measure 78
0000
0001
0000
0011
0000
0001
0000
0101
0000
0001
0000
1001
0000
1000
0000
1010
,  // measure 79
0000
0010
0000
0110
0000
0100
0000
0101
0000
0001
0000
2001
0000
3000
0000
1002
,  // measure 80
0000
0003
0000
0201
0000
0300
0000
0101
0000
1001
0000
1100
0000
0000
0000
0100
,  // measure 81
0000
0000
0000
1100
0000
0000
0000
0100
0000
0000
0000
1000
0001
0100
0002
0000
,  // measure 82
1003
0001
0100
0001
1000
0000
0000
0000
0000
0000
0000
0000
0110
0000
0001
0000
,  // measure 83
0000
0000
0000
0110
1000
0000
0000
0000
,  // measure 84
1010
0001
0000
0000
0000
0011
1000
0000
,  // measure 85
0000
0000
0000
0000
0000
0000
0001
0000
1000
0000
0000
0000
0100
0000
0000
1000
0000
0000
0000
0001
0100
0000
0000
0000
,  // measure 86
0000
0000
0000
0000
0001
0010
1000
0000
0000
0010
0000
0000
,  // measure 87
0000
0000
0000
0000
0000
0000
0000
0000
0001
0000
0000
0000
1001
0000
0000
0001
0000
0000
0100
0000
0000
0010
0000
0000
0220
0000
0000
0000
0000
0000
0000
0000
0000
0000
0000
0000
0000
0000
0000
0000
0000
0000
0000
0000
0000
0000
0000
0000
0000
0000
0000
0000
0000
0000
0000
0000
0000
0000
0000
0000
0000
0000
0000
0000
0000
0000
0000
0000
0000
0000
0000
0000
0000
0000
0000
0000
0000
0000
0000
0000
0000
0000
0000
0000
0000
0000
0000
0000
0000
0000
0000
0000
0000
0000
0000
0000
,  // measure 88
0000
0000
0000
0000
,  // measure 89
0000
0000
0000
0000
,  // measure 90
0000
0000
0330
0000
,  // measure 91
0000
0000
0000
0000
0000
0000
1001
0000
0000
0000
0000
0000
1000
0000
0000
0000
1000
0000
0002
0000
0000
0000
0000
0003
;

//---------------dance-single - ---------------
#NOTES:
     dance-single:
     :
     Medium:
     15:
     0,0,0,0,0:
// measure 0
0000
0000
0000
0000
,  // measure 1
1001
0000
0000
0000
,  // measure 2
0000
0000
0000
0000
,  // measure 3
1000
0000
0001
0000
0000
0010
0000
0000
,  // measure 4
0100
0100
1000
0001
,  // measure 5
1000
0010
0100
0000
0001
0010
0100
0000
,  // measure 6
1000
0001
0010
0100
0010
0001
1000
0000
,  // measure 7
0010
0100
0001
0000
1000
0001
0010
0000
,  // measure 8
0100
0010
0001
1000
0010
0100
1000
0100
,  // measure 9
0001
0001
0010
0000
0100
0100
0010
0000
,  // measure 10
0001
0001
1000
0000
0010
0010
0100
0000
,  // measure 11
1000
1000
0100
0000
0001
0001
1000
0000
,  // measure 12
0100
0100
0010
0000
0001
0001
0010
0000
,  // measure 13
0001
0001
1000
0010
0100
0001
1000
0100
,  // measure 14
0010
0010
0001
1000
0010
0100
1000
0100
,  // measure 15
0001
1000
0100
1000
2002
0000
3003
0000
,  // measure 16
1000
0000
0000
0010
0000
0000
0100
0000
0000
0001
0000
0000
1000
0000
0000
0010
,  // measure 17
0000
0000
0100
0000
0000
0001
0000
0000
1001
0000
1000
0000
1010
0000
0000
0000
,  // measure 18
1001
0001
0101
0000
0101
0100
0110
0000
,  // measure 19
1010
0010
0110
0000
0110
0100
1100
0000
,  // measure 20
0110
0000
0100
0000
0101
0000
0000
0000
0001
0000
0000
1000
0000
0000
0010
0000
,  // measure 21
0100
0100
0110
0000
1010
1000
1001
0000
,  // measure 22
1001
0001
0101
0000
0101
0100
0110
0000
,  // measure 23
1010
0010
0110
0000
1100
0100
0101
0000
,  // measure 24
0101
0000
0100
0000
1100
0000
0000
0000
1000
0000
0000
0001
0000
0000
1000
0000
,  // measure 25
0010
0000
0000
0010
0000
0000
0020
0000
0000
0000
0000
0000
0000
0000
0030
0000
,  // measure 26
0000
0000
0000
0010
1000
0100
0010
0001
,  // measure 27
1000
0010
0000
0100
0010
1000
0001
0010
,  // measure 28
0100
1000
0000
1000
0010
0100
0010
1000
,  // measure 29
0001
0010
0000
0001
0010
0100
0010
0001
,  // measure 30
1000
0010
0000
1000
0001
0010
0000
0001
,  // measure 31
1000
0010
0000
1000
0010
0100
0010
1000
,  // measure 32
0001
0010
0100
1000
0001
0100
0000
0001
,  // measure 33
1000
0100
0000
1000
0010
0100
1000
0100
,  // measure 34
0001
0000
0000
0000
1000
0000
0000
0000
0100
0000
0000
0000
1000
0100
0100
0100
0100
1000
0001
0100
2002
0000
0000
0000
3003
0000
0000
0000
0000
0000
0000
0000
,  // measure 35
0000
0000
0220
0330
2002
0000
0000
0000
3003
0000
0000
0000
0220
0000
0000
0000
,  // measure 36
0000
0000
0330
0000
0000
0000
1001
1000
,  // measure 37
0010
0100
1000
0100
0001
1000
0100
0010
,  // measure 38
0001
1000
0010
0100
1000
0100
0001
1000
,  // measure 39
0100
0010
0100
1000
0001
0100
0010
1000
,  // measure 40
0001
0100
0010
1000
0100
0010
1000
0010
,  // measure 41
0100
1000
0001
0100
1000
0100
0101
0001
,  // measure 42
1000
0100
0010
0100
1000
0001
0210
0000
,  // measure 43
0001
0000
1000
0000
0301
0002
1000
0000
,  // measure 44
0103
0000
0000
0000
0020
0000
0000
0000
0001
0000
0030
0000
1000
0000
0000
0001
,  // measure 45
0000
0000
0010
0000
0000
0100
0000
0000
1000
0000
0000
0010
0000
0000
0100
0000
,  // measure 46
0000
1000
0000
0000
0101
0000
0000
0001
0000
0000
1001
0000
0000
1000
0000
0000
,  // measure 47
1100
0000
0000
1000
0000
0000
1010
0000
0000
0110
0000
0000
0101
0000
0000
0001
,  // measure 48
0000
0000
1000
0000
0000
0100
0000
0000
1000
0000
0000
0010
0000
0000
0100
0000
,  // measure 49
0000
0001
0000
0000
1001
0000
0000
1000
0000
0000
1010
0000
0000
0010
0000
0000
,  // measure 50
0110
0000
0000
0100
0000
0000
0101
0000
0000
1001
0000
0000
1100
0000
0000
1000
,  // measure 51
0000
0000
0010
0000
0000
0100
0000
0000
1000
0000
0000
0100
0000
0000
0001
0000
,  // measure 52
0000
1000
0000
0000
1100
0000
0000
1000
0000
0000
1010
0000
0000
0010
0000
0000
,  // measure 53
0110
0000
0000
0100
0000
0000
0101
0000
0000
0001
0000
0000
0011
0000
0000
0010
,  // measure 54
0000
0000
0100
0000
0000
1000
0000
0000
0010
0000
0000
0001
0000
0000
0010
0000
,  // measure 55
0000
1000
0000
0000
0001
0000
0000
0010
0000
0000
0100
0000
0000
1000
0000
0000
,  // measure 56
0010
0000
0000
0100
0000
0000
0001
0000
0000
1000
0000
0000
1010
0000
0010
0000
,  // measure 57
0100
0010
1000
0010
0001
0010
1000
0000
,  // measure 58
0000
1000
0002
0000
0003
0000
0001
0000
0000
0000
0000
0001
2000
0000
3000
0000
,  // measure 59
1001
0001
0010
0100
1000
0010
0001
0010
,  // measure 60
0200
0000
0000
0000
0000
0000
0000
0000
0000
0000
0000
0000
0000
0000
0000
0000
0000
0000
0000
0000
0000
0000
0000
0000
0300
0000
0000
0000
0000
0000
0000
0000
0000
0000
0000
0000
0000
0000
0000
0000
0000
0000
0000
0000
0000
0000
0000
0000
0000
0000
0000
0000
0000
0000
0000
0000
0000
0000
0000
0000
0001
0000
0000
0000
0000
0000
0000
0000
0000
0000
0000
0000
0000
0000
0000
0000
0000
0000
0000
0000
0000
0000
0000
0000
0000
0000
0000
0000
0000
0000
0000
0000
0000
0000
0000
0000
1000
0000
0000
0000
0000
0000
0000
0000
0000
0000
0000
0000
0000
0000
0000
0000
0000
0000
0000
0000
0000
0000
0000
0000
0000
0000
0000
0000
0000
0000
0000
0000
0000
0000
0000
0000
0001
0000
0000
0000
0000
0000
0000
0000
0000
0000
0000
0000
0010
0110
0000
0000
0000
0000
0000
0000
0000
0000
0000
0000
0000
0000
0000
0000
0000
0000
0000
0000
0000
0000
0000
0000
0000
0000
0000
0000
0000
0000
0000
0000
0000
0000
0000
0000
0000
0000
0000
0000
0000
0000
0000
0000
0000
0000
0000
0000
,  // measure 61
1100
1000
0010
0100
0001
0010
1000
0010
,  // measure 62
0001
0000
0000
0100
0000
0000
0110
0000
0100
0000
0000
0000
0001
0000
0000
0010
,  // measure 63
0000
0110
0100
0000
1100
1000
0001
0100
,  // measure 64
0010
0000
1000
0000
0010
0000
0001
0000
0010
0000
0000
0010
0000
0000
1000
0000
,  // measure 65
0000
0000
1000
0000
0000
0000
0000
0000
0001
0000
0000
0000
0000
0000
0001
0000
0000
0000
0000
0000
1000
0000
0000
0000
0000
0000
0000
0000
0000
0010
0000
0000
,  // measure 66
0000
0000
0000
1010
0000
0010
0000
0011
0000
0010
0000
1000
0000
0001
0000
0010
,  // measure 67
0000
0100
0000
1100
0000
0100
0000
0101
0000
0100
0000
1000
0000
0010
0000
0100
,  // measure 68
0000
1000
0000
1100
0000
0100
0000
0101
0000
0001
0000
0010
0000
0100
0000
1000
,  // measure 69
0000
0010
0000
0100
0000
0001
0000
1001
0000
0001
0000
0100
0000
0010
0000
1010
,  // measure 70
0000
0010
0000
0100
0001
1000
0100
0110
0000
0001
0000
0110
0000
1000
0000
0010
,  // measure 71
0100
0001
1000
1100
0000
0001
0000
0101
0000
1000
0000
0010
0100
0001
0010
0110
,  // measure 72
0000
1000
0000
0110
0000
0001
0000
0010
0100
1000
0001
1000
0000
0000
0000
0001
,  // measure 73
0000
0000
0000
1000
0000
0000
0000
0001
0000
0000
0000
0020
0000
0000
0000
0000
,  // measure 74
0000
0030
0000
0000
0000
0000
0000
0000
0000
0000
0000
2001
0000
3000
0000
2000
,  // measure 75
0000
3000
0000
0020
0000
0030
0000
0200
0000
0300
0000
0002
0000
0003
0000
2000
,  // measure 76
0000
3000
0000
0200
0300
2000
3000
0020
0030
0000
0000
0200
0000
0300
0000
0002
,  // measure 77
0000
0003
0000
2000
0000
3000
0000
0200
0000
0300
0000
0020
0000
0030
0000
0200
,  // measure 78
0000
0300
0000
2000
3000
0020
0030
0200
0300
0000
0000
0002
0000
0003
0000
0020
,  // measure 79
0000
0030
0000
0200
0000
0300
0000
0020
0000
0030
0000
0002
0000
0003
0000
2000
,  // measure 80
0000
3000
0000
0200
0000
0300
0000
2000
3000
0002
0003
0200
0000
0300
0000
0200
,  // measure 81
0000
0300
0000
0200
0000
0300
0000
0200
0000
0300
0000
0002
0000
0003
0000
0000
,  // measure 82
1000
0000
1001
0000
0000
0000
0000
0110
,  // measure 83
0000
0000
1100
0000
,  // measure 84
0000
0011
0000
0000
0000
0000
0010
0000
,  // measure 85
0000
0000
0000
0000
0000
0000
0001
0000
0000
0000
1000
0000
,  // measure 86
0000
0000
0100
0000
,  // measure 87
0000
0000
1000
0001
0020
0000
0000
0000
0000
0000
0000
0000
0000
0000
0000
0000
,  // measure 88
0000
0000
0000
0000
,  // measure 89
0000
0000
0000
0000
,  // measure 90
0000
0030
0000
0000
,  // measure 91
0000
0220
0000
0330
;

//---------------dance-single - ---------------
#NOTES:
     dance-single:
     :
     Easy:
     9:
     0,0,0,0,0:
// measure 0
0000
0000
0000
0000
,  // measure 1
1001
0000
0000
0000
,  // measure 2
0000
0000
0000
0000
,  // measure 3
0000
1000
0000
0001
,  // measure 4
0100
0100
0010
0010
,  // measure 5
1000
0010
0100
1000
,  // measure 6
0100
0001
1000
0100
,  // measure 7
0010
0100
1000
0010
,  // measure 8
0100
0001
1000
0100
,  // measure 9
0010
0010
0001
0001
,  // measure 10
1000
1000
0010
0010
,  // measure 11
0100
0100
0010
0010
,  // measure 12
1000
1000
0001
0001
,  // measure 13
0010
0001
0100
0010
,  // measure 14
1000
0001
0010
0100
,  // measure 15
0010
0001
1000
0010
,  // measure 16
0100
0000
0000
0001
0000
0000
1000
0000
,  // measure 17
0000
0100
0000
0000
1001
0000
1000
0000
,  // measure 18
0010
0100
0101
0001
,  // measure 19
0010
0100
1100
1000
,  // measure 20
0010
0100
1000
0100
,  // measure 21
0001
1001
1010
0010
,  // measure 22
0100
0001
1001
0001
,  // measure 23
0010
0100
1100
1000
,  // measure 24
0001
0100
0001
0001
,  // measure 25
1000
0000
0000
0010
0000
0000
0000
0000
,  // measure 26
0000
0000
0000
1000
0000
0001
0000
0010
,  // measure 27
0000
0100
0000
0010
0000
0001
0000
1000
,  // measure 28
0000
0010
0000
0100
0000
1000
0000
0100
,  // measure 29
0000
0001
0000
1000
0000
0100
0000
0010
,  // measure 30
0000
0100
0000
1000
0000
0010
0000
0001
,  // measure 31
0000
0010
0000
1000
0000
0001
0000
0010
,  // measure 32
0000
0100
0000
0010
0000
0001
0000
1000
,  // measure 33
0000
0010
0000
0100
0000
1000
0000
0100
,  // measure 34
0000
0001
0000
1000
0001
1001
0000
0000
,  // measure 35
0000
0110
1001
0000
0000
0000
0110
0000
,  // measure 36
0000
0000
0000
1001
,  // measure 37
0001
1000
0010
0100
,  // measure 38
1000
0100
0001
1000
,  // measure 39
0100
0010
0100
1000
,  // measure 40
0010
0100
0010
1000
,  // measure 41
0001
0010
0100
0110
,  // measure 42
0010
0001
1000
0020
,  // measure 43
1000
0001
0130
0002
,  // measure 44
1003
0020
0130
0001
,  // measure 45
0000
1000
0000
0000
0010
0000
0000
0100
,  // measure 46
0000
0000
0101
0000
0000
1100
0000
0000
,  // measure 47
0101
0000
0000
1100
0000
0000
1001
0000
,  // measure 48
0000
0001
0000
0000
0010
0000
0000
0100
,  // measure 49
0000
0000
1100
0000
0000
1010
0000
0000
,  // measure 50
0110
0000
0000
0101
0000
0000
1001
0000
,  // measure 51
0000
0001
0000
0000
0010
0000
0000
0100
,  // measure 52
0000
0000
1100
0000
0000
1010
0000
0000
,  // measure 53
0011
0000
0000
1010
0000
0000
1100
0000
,  // measure 54
0000
1000
0000
0000
0010
0000
0000
0100
,  // measure 55
0000
0000
0001
0000
0000
0010
0000
0000
,  // measure 56
0100
0000
0000
0010
0000
0000
0011
0000
,  // measure 57
0001
1000
0100
1000
,  // measure 58
0000
0020
0030
0100
0000
0000
0020
0030
,  // measure 59
1010
1000
0001
0100
,  // measure 60
0002
0000
0000
1003
,  // measure 61
1001
1000
0010
0100
,  // measure 62
0001
0000
0000
0010
0000
0000
0100
0000
,  // measure 63
0000
0010
0000
0000
0011
0000
0001
0000
,  // measure 64
1000
0000
0010
0000
0100
0000
0000
0001
,  // measure 65
0000
0000
1000
0000
0000
0010
0000
0000
,  // measure 66
0000
0000
0000
0110
0000
0000
0000
0100
0000
0000
0000
0001
0000
0000
0000
1000
,  // measure 67
0000
0000
0000
0100
0000
0000
0000
0010
0000
0000
0000
1000
0000
0000
0000
0010
,  // measure 68
0000
0000
0000
0001
0000
0000
0000
0100
0000
0000
0000
1000
0000
0000
0000
0100
,  // measure 69
0000
0000
0000
0001
0000
0000
0000
1001
0000
0000
0000
1000
0000
0000
0000
1001
,  // measure 70
0000
0000
0000
0002
0000
0000
0000
1003
0000
0000
0000
1000
0000
0000
0000
2000
,  // measure 71
0000
0000
0000
3010
0000
0000
0000
0010
0000
0000
0000
0200
0000
0000
0000
0310
,  // measure 72
0000
0000
0000
0010
0000
0000
0000
2000
0000
0000
0000
3001
0000
0000
0000
0000
,  // measure 73
0000
0000
0000
0000
0000
0000
0000
0000
0000
0000
0000
0001
0000
0000
0000
0000
,  // measure 74
0000
0000
0000
0000
0000
0000
0000
0000
0000
0000
0000
2001
0000
3000
0000
0002
,  // measure 75
0000
0003
0000
2000
0000
3000
0000
0020
0000
0030
0000
0200
0000
0300
0000
0002
,  // measure 76
0000
0003
0000
0020
0000
0030
0000
0200
0000
0300
0000
2000
0000
3000
0000
0020
,  // measure 77
0000
0030
0000
0200
0000
0300
0000
0002
0000
0003
0000
0020
0000
0030
0000
0200
,  // measure 78
0000
0300
0000
2000
0000
3000
0000
0020
0000
0030
0000
0200
0000
0300
0000
0002
,  // measure 79
0000
0003
0000
0020
0000
0030
0000
0200
0000
0300
0000
2000
0000
3000
0000
0020
,  // measure 80
0000
0030
0000
0200
0000
0300
0000
0020
0000
0030
0000
0200
0000
0300
0000
0200
,  // measure 81
0000
0300
0000
0200
0000
0300
0000
0200
0000
0300
0000
0002
0000
0003
0000
0000
,  // measure 82
2000
3000
1001
0000
0000
0000
0000
0110
,  // measure 83
0000
0000
1001
0000
,  // measure 84
0000
0110
0000
0000
0000
0000
1000
0000
,  // measure 85
0000
0000
0000
0000
0000
0000
1001
0000
0000
0000
0001
0000
,  // measure 86
0000
0000
0011
0000
,  // measure 87
0000
0000
0110
0001
2000
0000
0000
0000
0000
0000
0000
0000
0000
0000
0000
0000
,  // measure 88
0000
0000
0000
0000
,  // measure 89
0000
0000
0000
0000
,  // measure 90
0000
3000
0000
0000
,  // measure 91
0000
0002
0000
0003
;

//---------------dance-single - ---------------
#NOTES:
     dance-single:
     :
     Beginner:
     6:
     0,0,0,0,0:
// measure 0
0000
0000
0000
0000
,  // measure 1
1001
0000
0000
0000
,  // measure 2
0000
0000
0000
0000
,  // measure 3
1000
0000
0000
0000
,  // measure 4
0001
0000
0000
0000
,  // measure 5
1000
1000
1000
0000
,  // measure 6
0001
0001
0001
0000
,  // measure 7
0010
0010
0010
0000
,  // measure 8
0001
0001
0001
0000
,  // measure 9
1000
1000
1000
0000
,  // measure 10
0001
0001
0001
0000
,  // measure 11
1000
1000
1000
0000
,  // measure 12
0001
0001
0001
0000
,  // measure 13
0010
0010
0010
0000
,  // measure 14
0001
0001
0001
0000
,  // measure 15
1000
1000
1000
0000
,  // measure 16
0002
0000
0000
0000
,  // measure 17
0000
0003
0000
0000
0001
0000
0001
0000
,  // measure 18
0001
0000
1000
1000
,  // measure 19
1000
0000
0010
0010
,  // measure 20
0010
0000
0100
0100
,  // measure 21
0100
0000
0010
0010
,  // measure 22
0010
0000
1000
1000
,  // measure 23
1000
0000
0001
0001
,  // measure 24
0001
0000
0010
0010
,  // measure 25
0010
0000
0000
0000
,  // measure 26
0000
0000
0000
0010
0000
0000
0000
0001
,  // measure 27
0000
0000
0000
1000
0000
0000
0000
0100
,  // measure 28
0000
0000
0000
1000
0000
0000
0000
0010
,  // measure 29
0000
0000
0000
0100
0000
0100
0000
0100
,  // measure 30
0000
0000
0000
0001
0000
0000
0000
0010
,  // measure 31
0000
0000
0000
0001
0000
0000
0000
1000
,  // measure 32
0000
0000
0000
0010
0000
0000
0000
0100
,  // measure 33
0000
0000
0000
0001
0000
0000
0000
1000
,  // measure 34
0000
0000
0000
0100
0000
1000
0000
0000
,  // measure 35
0000
1000
1000
0000
0000
0000
1000
0000
,  // measure 36
0000
0000
0000
1000
,  // measure 37
0000
0001
0000
0010
,  // measure 38
0000
0100
0000
0010
,  // measure 39
0000
0001
0000
1000
,  // measure 40
0000
0010
0000
0100
,  // measure 41
0000
0001
0000
1001
,  // measure 42
0000
0001
0000
2000
,  // measure 43
0000
3000
0000
0002
,  // measure 44
0000
0003
0000
1000
,  // measure 45
0000
0000
0100
0000
,  // measure 46
0000
0000
0010
0000
0000
0010
0000
0000
,  // measure 47
0010
0000
0000
0010
0000
0000
0010
0000
,  // measure 48
0000
0000
0001
0000
,  // measure 49
0000
0000
1000
0000
0000
1000
0000
0000
,  // measure 50
1000
0000
0000
1000
0000
0000
1000
0000
,  // measure 51
0000
0000
0010
0000
,  // measure 52
0000
0000
0100
0000
0000
0100
0000
0000
,  // measure 53
0100
0000
0000
0100
0000
0000
0100
0000
,  // measure 54
0000
0000
0001
0000
,  // measure 55
0000
0000
0010
0000
0000
0010
0000
0000
,  // measure 56
0010
0000
0000
0010
0000
0000
0010
0000
,  // measure 57
0000
0001
0000
1000
,  // measure 58
0000
1000
0000
1000
0000
0000
1000
0000
,  // measure 59
1000
0000
0010
0000
,  // measure 60
0200
0000
0000
0300
,  // measure 61
0001
0000
0010
0000
,  // measure 62
0100
0000
0000
0100
0000
0000
0100
0000
,  // measure 63
0000
0100
0000
0000
0100
0000
0000
0000
,  // measure 64
1000
0000
0020
0000
,  // measure 65
0000
0000
0000
0000
0000
0030
0000
0000
,  // measure 66
0000
0000
0000
0010
0000
0000
0000
0010
0000
0000
0000
0010
0000
0000
0000
0000
,  // measure 67
0000
0000
0000
0100
0000
0000
0000
0100
0000
0000
0000
0100
0000
0000
0000
0000
,  // measure 68
0000
0000
0000
0001
0000
0000
0000
0001
0000
0000
0000
0001
0000
0000
0000
0000
,  // measure 69
0000
0000
0000
1000
0000
0000
0000
1000
0000
0000
0000
1000
0000
0000
0000
0000
,  // measure 70
0000
0000
0000
0100
0000
0000
0000
0100
0000
0000
0000
0000
0000
0000
0000
1000
,  // measure 71
0000
0000
0000
1000
0000
0000
0000
0000
0000
0000
0000
0001
0000
0000
0000
0001
,  // measure 72
0000
0000
0000
0000
0000
0000
0000
0010
0000
0000
0000
0010
0000
0000
0000
0000
,  // measure 73
0000
0000
0000
0000
,  // measure 74
0000
0000
0000
0000
0000
0000
0000
0000
0000
0000
0000
0010
0000
0000
0000
0000
,  // measure 75
0000
0000
0000
0001
0000
0000
0000
0000
0000
0000
0000
1000
0000
0000
0000
0000
,  // measure 76
0000
0000
0000
0010
0000
0000
0000
0000
0000
0000
0000
0100
0000
0000
0000
0000
,  // measure 77
0000
0000
0000
0001
0000
0000
0000
0000
0000
0000
0000
1000
0000
0000
0000
0000
,  // measure 78
0000
0000
0000
0100
0000
0000
0000
0000
0000
0000
0000
1000
0000
0000
0000
0000
,  // measure 79
0000
0000
0000
0010
0000
0000
0000
0000
0000
0000
0000
0100
0000
0000
0000
0000
,  // measure 80
0000
0000
0000
0001
0000
0000
0000
0000
0000
0000
0000
0100
0000
0000
0000
0000
,  // measure 81
0000
0000
0000
0100
0000
0000
0000
0000
0000
0000
0000
0001
0000
0000
0000
0000
,  // measure 82
0000
0000
1001
0000
0000
0000
0000
0110
,  // measure 83
0000
0000
1001
0000
,  // measure 84
0000
0110
0000
0000
0000
0000
1001
0000
,  // measure 85
0000
0000
0000
0000
0000
0000
1010
0000
0000
0000
1001
0000
,  // measure 86
0000
0000
0011
0000
,  // measure 87
0000
0000
0110
1001
0220
0000
0000
0000
0000
0000
0000
0000
0000
0000
0000
0000
,  // measure 88
0000
0000
0000
0000
,  // measure 89
0000
0000
0000
0000
,  // measure 90
0000
0330
0000
0000
,  // measure 91
0000
0110
0000
0000
;
