#TITLE:Love Will Lead Our Way;
#SUBTITLE:;
#ARTIST:Martija Stanojković;
#MUSIC:Love Will Lead Our Way.ogg;
#BANNER:Love Will Lead Our Way.png;
#BACKGROUND:Love Will Lead Our Way-bg.png;
#LYRICSPATH:;
#CDTITLE:;
#SAMPLESTART:56.369;
#SAMPLELENGTH:18.461;
#OFFSET:-0.215;
#BPMS:0.000000=104.000000;
#STOPS:;
#TIMESIGNATURES:0.000000=4=4;
#BGCHANGES:;
#FGCHANGES:;
#ATTACKS:;
#SPEEDS:0.000000=1.000000=0.000000=0;
#SCROLLS:0.000000=1.000000;
#KEYSOUNDS:;

//---------------dance-single - ---------------
#NOTES:
     dance-single:
     :
     Beginner:
     4:
     0,0,0,0,0:
// measure 0
0000
0000
0000
0000
,  // measure 1
1001
0000
1000
0000
,  // measure 2
0010
0000
0100
0000
,  // measure 3
0001
0000
1000
0000
,  // measure 4
0100
0000
1000
0000
,  // measure 5
0001
0000
0010
0000
,  // measure 6
0001
0000
1000
0000
,  // measure 7
0010
0000
0100
0000
,  // measure 8
0001
0000
1000
0000
,  // measure 9
0100
0100
0100
0000
,  // measure 10
1000
1000
1000
0000
,  // measure 11
0001
0001
0001
0000
,  // measure 12
0010
0010
0010
0000
,  // measure 13
0001
0001
0001
0000
,  // measure 14
1000
1000
1000
0000
,  // measure 15
0100
0100
0100
0000
,  // measure 16
1000
0000
0001
0001
,  // measure 17
0001
0000
1000
0000
,  // measure 18
0100
0000
0010
0010
,  // measure 19
0010
0000
0001
0000
,  // measure 20
0100
0000
0010
0010
,  // measure 21
0010
0000
1000
0000
,  // measure 22
0001
0000
0100
0100
,  // measure 23
0100
0000
0001
0000
,  // measure 24
1000
0000
0010
0010
,  // measure 25
0110
0000
0100
0000
,  // measure 26
0001
0000
1000
1000
,  // measure 27
1000
0000
0100
0000
,  // measure 28
1000
0000
0010
0010
,  // measure 29
0010
0000
0100
0000
,  // measure 30
0001
0000
1000
1000
,  // measure 31
1000
0000
0100
0000
,  // measure 32
0010
0000
0100
0000
,  // measure 33
2000
0000
3000
0000
,  // measure 34
0002
0000
0003
0000
,  // measure 35
0020
0000
0030
0000
,  // measure 36
0010
0010
0010
0000
,  // measure 37
0020
0000
0030
0000
,  // measure 38
0002
0000
0003
0000
,  // measure 39
2000
0000
3000
0000
,  // measure 40
0100
0100
0100
0000
,  // measure 41
0110
0000
0010
0000
,  // measure 42
0001
0000
1000
0000
,  // measure 43
0100
0000
0100
0000
,  // measure 44
0010
0000
0001
0001
,  // measure 45
0001
0000
1000
0000
,  // measure 46
0010
0000
0100
0100
,  // measure 47
0100
0000
0001
0000
,  // measure 48
1000
0000
0010
0010
,  // measure 49
0010
0000
1000
0000
,  // measure 50
0001
0000
0010
0010
,  // measure 51
0010
0000
0100
0000
,  // measure 52
1000
1000
1000
2000
,  // measure 53
0000
0000
0000
3000
;

//---------------dance-single - ---------------
#NOTES:
     dance-single:
     :
     Easy:
     6:
     0,0,0,0,0:
// measure 0
0000
0000
0000
0000
,  // measure 1
2000
3000
0001
0100
,  // measure 2
0010
1000
0010
0100
,  // measure 3
0002
0003
1000
0100
,  // measure 4
0020
0030
0002
0003
,  // measure 5
2000
3000
0010
0100
,  // measure 6
0001
1000
0100
0010
,  // measure 7
0001
0100
0010
1000
,  // measure 8
0001
0010
0100
0010
,  // measure 9
0001
0100
1000
0100
,  // measure 10
0001
0010
1000
0010
,  // measure 11
0001
1000
0100
1000
,  // measure 12
0001
0100
0010
1000
,  // measure 13
0001
0010
1000
0010
,  // measure 14
0001
0100
1000
0100
,  // measure 15
0001
1000
0100
0010
,  // measure 16
0100
1000
0001
0010
,  // measure 17
0110
0010
0001
1000
,  // measure 18
0100
0010
0001
1000
,  // measure 19
1010
0010
0100
0001
,  // measure 20
1000
0100
0010
0001
,  // measure 21
0011
0010
0100
1000
,  // measure 22
0001
0100
0010
1000
,  // measure 23
2000
0001
0100
0010
,  // measure 24
3100
1000
0010
0100
,  // measure 25
0101
0001
0010
0100
,  // measure 26
1100
1000
0001
0010
,  // measure 27
0110
0010
0001
0100
,  // measure 28
0110
0100
0001
0010
,  // measure 29
0110
0100
1000
0001
,  // measure 30
0101
0100
0010
1000
,  // measure 31
1010
1000
0001
0010
,  // measure 32
0011
0010
0001
0100
,  // measure 33
2000
0100
0000
3100
,  // measure 34
0002
0100
0000
0103
,  // measure 35
0020
0100
0000
0130
,  // measure 36
1000
0001
0100
0010
,  // measure 37
2000
0001
0000
3001
,  // measure 38
0002
0010
0000
0013
,  // measure 39
0020
0100
0000
0130
,  // measure 40
0100
0010
0001
1000
,  // measure 41
1001
0110
1001
0110
,  // measure 42
0011
1100
1010
0101
,  // measure 43
2000
0100
3002
0100
,  // measure 44
2003
3010
1000
0010
,  // measure 45
0110
0100
0001
1000
,  // measure 46
1100
0100
0010
0100
,  // measure 47
1000
0001
0100
0001
,  // measure 48
0010
0100
1000
0001
,  // measure 49
1001
0001
0010
0100
,  // measure 50
0110
0100
1000
0010
,  // measure 51
0110
0100
0001
1000
,  // measure 52
0100
0010
0100
2000
,  // measure 53
0000
0000
0000
3000
;

//---------------dance-single - ---------------
#NOTES:
     dance-single:
     :
     Medium:
     11:
     0,0,0,0,0:
// measure 0
0000
0000
0000
0000
,  // measure 1
2002
0000
3003
0000
1000
1000
0001
0000
,  // measure 2
0020
0200
0000
0330
,  // measure 3
2200
0000
3300
0000
1000
1000
0001
0000
,  // measure 4
2002
0000
0000
3003
,  // measure 5
0202
0000
0303
0000
0001
0001
1000
0000
,  // measure 6
0200
0020
0000
0330
,  // measure 7
2200
0000
3300
0000
0100
0100
1000
0000
,  // measure 8
0002
0000
0020
0000
0033
0000
0001
0010
,  // measure 9
0001
0000
0100
0010
0100
0000
0001
0010
,  // measure 10
1000
0000
1000
0010
0001
0000
0001
0100
,  // measure 11
0010
0000
1000
0100
0010
0000
0001
1000
,  // measure 12
0020
0000
2030
0000
3002
0000
0103
0010
,  // measure 13
1000
0000
0100
0010
0001
0000
1000
0100
,  // measure 14
0001
0000
0100
1000
0001
0000
0100
0010
,  // measure 15
2000
0001
0010
3001
,  // measure 16
0002
0000
0103
0100
0010
1000
0010
0100
,  // measure 17
0110
0100
0001
1000
,  // measure 18
0100
0000
0010
0000
0100
0100
1000
0001
,  // measure 19
2000
0001
3002
0100
,  // measure 20
0203
0000
0010
0000
0310
0010
0100
0001
,  // measure 21
2000
3100
0002
0103
,  // measure 22
2000
0000
3010
0000
0100
0100
0010
0010
,  // measure 23
2000
3001
0002
1003
,  // measure 24
2000
0000
3010
0010
0100
0100
0001
1000
,  // measure 25
1001
0000
0110
0000
1100
1000
1001
0001
,  // measure 26
0101
0000
0110
0000
0101
0001
0011
0010
,  // measure 27
0110
0000
1100
0000
1001
1000
1010
0000
,  // measure 28
0110
0000
0101
0000
1001
1000
1100
0000
,  // measure 29
0110
0000
0011
0000
0101
0100
0110
0000
,  // measure 30
1010
0000
0101
0000
1001
1000
1100
0100
,  // measure 31
0110
1100
1001
0101
,  // measure 32
0110
1010
1001
0011
,  // measure 33
2001
0000
0001
0000
0001
0000
3001
0001
,  // measure 34
1002
0000
1000
0000
1000
0000
1003
1000
,  // measure 35
1200
0000
1000
0000
1000
0000
1300
1000
,  // measure 36
0001
0001
0010
0010
0100
0100
0010
0010
,  // measure 37
0012
0000
0010
0000
0010
0000
0013
0010
,  // measure 38
0210
0000
0010
0000
0010
0000
0310
0001
,  // measure 39
2001
0001
0001
3001
,  // measure 40
0001
0001
1000
1000
0100
0100
0010
0010
,  // measure 41
0021
0100
1000
0100
,  // measure 42
0001
0000
1000
0000
0031
0000
0001
0200
,  // measure 43
1000
0001
0010
1000
,  // measure 44
0001
0000
0310
0000
0100
0100
0010
0010
,  // measure 45
2000
0000
0001
0000
0100
0000
3010
0010
,  // measure 46
0110
0100
0101
0000
0001
0001
1000
1000
,  // measure 47
0200
0001
1000
0010
,  // measure 48
0001
0000
1300
0000
1000
1000
0010
0010
,  // measure 49
0110
0000
0101
0000
1001
1000
1100
0000
,  // measure 50
0110
0000
0011
0000
1001
1000
1010
0010
,  // measure 51
0011
0000
1010
0000
1100
0100
0110
0000
,  // measure 52
0100
1000
0010
0100
0002
0000
2000
0000
,  // measure 53
0000
0000
0000
3003
;

//---------------dance-single - ---------------
#NOTES:
     dance-single:
     :
     Hard:
     15:
     0,0,0,0,0:
// measure 0
0000
0000
0000
0000
,  // measure 1
2002
0000
0000
0000
3003
0000
1000
0100
0010
0000
0001
0010
0000
0100
0000
1000
,  // measure 2
0000
0020
0000
0230
0000
0320
0000
0000
2000
0000
0000
0000
3030
0000
0000
0000
,  // measure 3
2200
0000
0000
0000
3300
0000
0100
1000
0010
0000
0100
0001
0000
0000
0010
0000
,  // measure 4
0220
0000
0000
0000
0330
0000
0100
2000
0000
0000
3002
0000
0023
0000
0130
0000
,  // measure 5
0220
0000
0000
0000
0000
0000
0000
0000
0000
0000
0000
0000
0330
0000
0000
0000
0000
0000
0010
0000
0000
0100
0000
0000
0000
0000
0000
0000
1000
0000
0000
0000
0010
0000
0000
0000
0100
0000
0000
0000
0001
0000
0000
0000
2000
0000
0000
0000
,  // measure 6
0000
0002
0000
0000
0000
0000
3003
0000
,  // measure 7
0220
0000
0330
0000
0100
0000
0100
0010
2000
0000
3100
0000
0200
0000
0310
0000
,  // measure 8
0110
0000
0010
0001
0100
0000
0010
1000
0001
0000
0001
0010
0100
0010
0100
1000
,  // measure 9
0010
0000
0100
0010
1000
0000
0100
0010
0001
0000
0100
0010
0001
0000
0001
0010
,  // measure 10
0100
0000
0001
0010
0100
0000
1000
0010
0100
0000
1000
0100
0010
0000
1000
0100
,  // measure 11
0010
0000
0100
1000
0001
0000
0100
0010
1000
0000
0100
0010
0001
0000
0100
0010
,  // measure 12
2000
3001
0002
0013
0020
0130
0200
1300
,  // measure 13
1001
0000
1000
0001
0010
0000
0001
0100
0010
0000
1000
0001
0010
0000
0100
1000
,  // measure 14
0010
0000
0100
0001
1000
0000
0001
1000
0100
0000
1000
0010
0100
0000
0100
0001
,  // measure 15
2000
3010
0020
0130
0200
0301
0002
1003
,  // measure 16
2000
0000
0000
0000
3100
0000
0100
1000
0020
0000
0230
0000
0302
0000
0013
0000
,  // measure 17
0022
0033
0001
0010
0100
1000
0010
0100
1000
0100
0001
0000
1000
0100
0001
0000
,  // measure 18
0101
0000
0001
0100
1000
0010
0100
1000
0002
0000
0023
0000
0230
0000
0301
0000
,  // measure 19
2002
3003
1000
0010
0100
1000
0100
0001
0010
0100
1000
0000
0001
0100
1000
0000
,  // measure 20
1000
0100
0010
1000
0100
0010
0100
1000
0002
0000
0203
0000
0320
0000
1030
0000
,  // measure 21
1010
0000
1000
0010
0100
0001
0010
0100
1000
0010
0100
0001
0010
0100
1000
0001
,  // measure 22
0100
0000
0100
0010
1000
0000
1000
0001
0020
0000
0230
0000
1300
0000
1000
0002
,  // measure 23
0000
0023
0000
0230
0000
0302
0000
0203
0000
2300
0000
3002
0000
0203
0000
0320
,  // measure 24
2030
0000
0000
0000
3100
0000
0100
1000
0010
0100
1000
0100
0001
0010
0100
1000
,  // measure 25
2002
3003
1000
0010
0100
0001
0010
0100
1000
0001
0100
0010
0100
0001
1000
0100
,  // measure 26
0010
0100
1000
0001
0100
1000
0100
0001
2000
0000
3200
0000
0302
0000
0203
0300
,  // measure 27
1100
0000
0100
1000
0001
0100
1000
0100
0010
1000
0001
0010
0100
1000
0001
0100
,  // measure 28
0020
0000
1030
0010
0200
0000
0301
0100
2000
0000
3200
0000
0302
0000
2003
0000
,  // measure 29
3100
0000
0100
1000
0010
0100
0001
0010
0100
1000
0010
0100
0001
0010
0100
1000
,  // measure 30
0001
0000
0001
0010
0000
0010
1000
0000
0200
0000
2300
0000
3020
0000
0130
0020
,  // measure 31
0000
2030
0000
3002
0000
0023
0000
0230
0000
0302
0000
0203
0000
2300
0000
3020
,  // measure 32
0000
0230
0000
2300
0000
3200
0000
0302
2003
0000
3100
0000
0020
0000
0130
0000
,  // measure 33
2000
0100
0000
0100
,  // measure 34
3002
0100
0000
0100
,  // measure 35
2003
0010
0000
0010
,  // measure 36
3002
0023
0230
2300
3002
0203
2300
3200
,  // measure 37
0302
1000
0000
1000
,  // measure 38
2003
0100
0000
0100
,  // measure 39
3002
0100
0000
0100
,  // measure 40
0203
0320
2030
3020
0230
0302
2003
3100
,  // measure 41
0110
0100
1000
0001
0100
1000
0100
0010
1000
0001
0010
1000
0010
0100
1000
0001
,  // measure 42
0100
1000
0100
0001
0010
0100
1000
0001
0100
1000
0100
0001
0010
0100
2000
0000
,  // measure 43
0001
0010
0100
0001
0010
0100
0100
3100
,  // measure 44
1100
0000
0100
1000
0010
0100
1000
0100
0002
0000
0023
0000
2030
0000
3020
0030
,  // measure 45
0220
0330
0100
1000
0001
0100
1000
0100
0010
1000
0001
0010
0100
1000
0010
0100
,  // measure 46
0001
0100
0010
1000
0100
0010
0001
0010
0200
0000
2300
0000
3002
0000
0103
0020
,  // measure 47
0000
2030
0000
3002
0000
0023
0000
2030
0000
3020
0000
0230
0000
2300
0000
3002
,  // measure 48
0103
0000
0100
0010
1000
0000
1000
0001
0010
0100
1000
0010
0100
1000
0100
0001
,  // measure 49
1001
0000
1000
0100
0001
0100
1000
0001
0100
0010
1000
0001
0010
1000
0010
0100
,  // measure 50
1000
0001
0100
1000
0100
0001
0010
0100
2000
0000
3020
0000
0230
0000
0310
0000
,  // measure 51
1010
0000
1000
0010
0000
0010
0100
0001
1000
0100
0020
0000
0130
0000
1000
0000
,  // measure 52
0002
0203
0320
2030
3200
0000
0002
0000
,  // measure 53
00M0
M000
00M0
M000
00M0
M000
00M0
M000
00M0
M000
00M0
M000
03M3
M000
00M0
M000
;
