#VERSION:0.83;
#TITLE:Like It;
#SUBTITLE:(Live from Tel Aviv, Israel, 2019);
#ARTIST:ZENA;
#TITLETRANSLIT:;
#SUBTITLETRANSLIT:;
#ARTISTTRANSLIT:;
#GENRE:;
#CREDIT:;
#MUSIC:Like It (Live from Tel Aviv, Israel, 2019).ogg;
#BANNER:Like It (Live from Tel Aviv, Israel, 2019).png;
#BACKGROUND:Like It (Live from Tel Aviv, Israel, 2019)-bg.png;
#JACKET:Like It (Live from Tel Aviv, Israel, 2019)-jacket.png;
#DISCIMAGE:;
#CDIMAGE:;
#SELECTABLE:YES;
#LYRICSPATH:;
#CDTITLE:;
#SAMPLESTART:39.730000;
#SAMPLELENGTH:18.290001;
#OFFSET:-0.897;
#BPMS:0.000000=105.000000,
116.000000=52.500000,
132.000000=105.000000
;
#STOPS:;
#WARPS:;
#DELAYS:;
#SPEEDS:;
#SCROLLS:;
#TICKCOUNTS:;
#TIMESIGNATURES:;
#LABELS:;
#COMBOS:;
#FAKES:;
#BGCHANGES:;
#FGCHANGES:;
#ATTACKS:;
#KEYSOUNDS:;

//---------------dance-single - ---------------
#NOTEDATA:;
#CHARTNAME:;
#CHARTSTYLE:;
#CREDIT:;
#STEPSTYPE:dance-single;
#DESCRIPTION:;
#DIFFICULTY:Beginner;
#METER:3;
#METERF:3;
#RADARVALUES:0.000000,0.000000,0.000000,0.000000,0.000000,0.000000,0.000000,0.000000,0.000000,0.000000,0.000000,0.000000,0.000000,0.000000,0.000000,0.000000,0.000000,0.000000,0.000000,0.000000,0.000000,0.000000;
#NOTES:
// measure 0
0000
0000
0000
0000
,  // measure 1
0000
1000
0000
1000
,  // measure 2
0000
0010
0000
0010
,  // measure 3
0000
0100
0000
0100
,  // measure 4
0000
0001
0000
0001
,  // measure 5
0000
1000
0000
1000
,  // measure 6
0000
0001
0000
0001
,  // measure 7
0000
0100
0000
0100
,  // measure 8
0000
0010
0000
0010
,  // measure 9
0020
0000
0030
0000
,  // measure 10
2000
0000
3000
0000
,  // measure 11
0200
0000
0300
0000
,  // measure 12
0002
0000
0003
0000
,  // measure 13
1000
0000
0001
0000
,  // measure 14
0010
0000
0001
0000
,  // measure 15
1000
1000
1000
0000
,  // measure 16
2002
0000
3003
0000
,  // measure 17
1000
1000
0000
0001
,  // measure 18
0001
0000
0100
0100
,  // measure 19
0100
0100
0000
0010
,  // measure 20
0010
0000
1000
1000
,  // measure 21
1000
1000
0000
0001
,  // measure 22
0001
0000
1000
1000
,  // measure 23
1000
1000
0000
0001
,  // measure 24
0001
0000
0100
0100
,  // measure 25
0100
0000
1000
0000
,  // measure 26
0010
0010
0010
0000
,  // measure 27
1000
0000
0001
0000
,  // measure 28
0100
0100
0100
0000
,  // measure 29
0010
1000
0001
1000
,  // measure 30
0001
0010
0100
1000
,  // measure 31
0001
1000
0100
1000
,  // measure 32
0001
0010
0100
1000
,  // measure 33
0020
0000
0030
0000
,  // measure 34
0010
0010
0010
0010
,  // measure 35
0010
0000
1000
1000
,  // measure 36
1000
0000
0001
0000
,  // measure 37
0100
0000
0001
0001
,  // measure 38
0001
0000
1000
0000
,  // measure 39
0010
0000
0100
0000
,  // measure 40
0001
0000
0010
0000
,  // measure 41
0100
0000
0010
0010
,  // measure 42
0010
0010
0010
0010
,  // measure 43
0010
0000
0001
0000
,  // measure 44
1000
1000
0000
0001
,  // measure 45
0001
0000
0100
0000
,  // measure 46
0010
0010
0000
1000
,  // measure 47
1000
0000
0001
0000
,  // measure 48
1000
1000
0000
0001
,  // measure 49
0001
0000
1000
1000
,  // measure 50
1000
0000
0000
0000
;

//---------------dance-single - ---------------
#NOTEDATA:;
#CHARTNAME:;
#CHARTSTYLE:;
#CREDIT:;
#STEPSTYPE:dance-single;
#DESCRIPTION:;
#DIFFICULTY:Easy;
#METER:7;
#METERF:7;
#RADARVALUES:0.000000,0.000000,0.000000,0.000000,0.000000,0.000000,0.000000,0.000000,0.000000,0.000000,0.000000,0.000000,0.000000,0.000000,0.000000,0.000000,0.000000,0.000000,0.000000,0.000000,0.000000,0.000000;
#NOTES:
// measure 0
0000
0000
0000
0000
,  // measure 1
0000
1000
0010
0100
,  // measure 2
0001
0010
0001
1000
,  // measure 3
0100
0010
0001
1000
,  // measure 4
0010
0010
0010
1000
,  // measure 5
0100
0001
0100
1000
,  // measure 6
0001
0100
0001
1000
,  // measure 7
0010
1000
0001
0100
,  // measure 8
0010
0010
1000
0001
,  // measure 9
0200
0300
0100
0010
,  // measure 10
0100
0001
0100
0010
,  // measure 11
0200
0300
0001
1000
,  // measure 12
0100
1000
0010
0010
,  // measure 13
1000
0100
0010
0100
,  // measure 14
0010
0001
0010
0100
,  // measure 15
1000
0010
0100
0010
,  // measure 16
0200
0000
0000
0310
,  // measure 17
1000
0010
0100
0001
,  // measure 18
0010
0100
1000
0010
,  // measure 19
1000
0010
0100
0001
,  // measure 20
0010
0100
1000
0001
,  // measure 21
0100
0010
1000
0100
,  // measure 22
0010
0001
1000
0010
,  // measure 23
0100
0010
1000
0100
,  // measure 24
0010
0001
1000
0010
,  // measure 25
0100
0001
1000
0100
,  // measure 26
0010
0010
0010
0100
,  // measure 27
2000
3100
1000
0001
,  // measure 28
0100
0100
0100
0010
,  // measure 29
1000
0001
0100
0001
,  // measure 30
1000
0010
0100
0001
,  // measure 31
1000
0100
0010
0001
,  // measure 32
1000
0010
0100
0001
,  // measure 33
2000
0000
0000
3001
,  // measure 34
1000
1000
1000
1000
,  // measure 35
1000
0001
0010
0010
,  // measure 36
0010
0010
0010
0001
,  // measure 37
0100
0001
1000
0001
,  // measure 38
1000
1000
1000
0010
,  // measure 39
0100
0001
1000
0100
,  // measure 40
0010
0001
0010
0100
,  // measure 41
0100
0100
1000
0001
,  // measure 42
0100
0010
0010
0010
,  // measure 43
0010
0100
0001
1000
,  // measure 44
0100
0010
0001
0100
,  // measure 45
0010
1000
0001
0100
,  // measure 46
0001
0010
0100
1000
,  // measure 47
0010
0100
0010
1000
,  // measure 48
0001
0010
0100
1000
,  // measure 49
0010
0100
0001
1000
,  // measure 50
1001
0000
0000
0000
;

//---------------dance-single - ---------------
#NOTEDATA:;
#CHARTNAME:;
#CHARTSTYLE:;
#CREDIT:;
#STEPSTYPE:dance-single;
#DESCRIPTION:;
#DIFFICULTY:Medium;
#METER:11;
#METERF:11;
#RADARVALUES:0.316557,0.299446,0.029945,0.194640,0.000000,296.000000,292.000000,4.000000,26.000000,0.000000,0.000000,0.316557,0.299446,0.029945,0.194640,0.000000,296.000000,292.000000,4.000000,26.000000,0.000000,0.000000;
#NOTES:
// measure 0
0000
0000
0000
0000
,  // measure 1
0000
0010
1000
0000
1000
0010
0100
0000
,  // measure 2
0100
0001
0010
0000
0010
0001
0100
0010
,  // measure 3
1000
0000
0010
0000
0100
0010
1000
0000
,  // measure 4
0001
0001
0010
0000
0010
0100
0010
0000
,  // measure 5
0001
0100
1000
0000
1000
0100
0001
0000
,  // measure 6
1000
0100
0010
0000
0100
1000
0010
0100
,  // measure 7
0001
0000
0010
0000
0100
0010
0001
0000
,  // measure 8
1000
1000
0010
0000
0100
0010
1000
0000
,  // measure 9
0200
0000
0300
0010
0100
0000
1000
0000
,  // measure 10
0001
0000
0100
0001
0010
0000
0100
0010
,  // measure 11
0200
0000
0300
0000
1000
0000
0001
0200
,  // measure 12
0300
0000
0100
0010
0100
0000
0010
1000
,  // measure 13
0001
0010
0100
0010
,  // measure 14
0001
1000
0010
0100
,  // measure 15
0010
0010
1000
1000
0001
0001
0010
0010
,  // measure 16
0200
0000
0300
1001
,  // measure 17
1000
0010
0100
0010
1000
0000
0001
0010
,  // measure 18
0100
0010
0001
0000
1000
0001
0010
0001
,  // measure 19
1000
0010
0100
0010
1000
0000
0001
0010
,  // measure 20
0100
0010
0001
0000
2000
0000
3002
0000
,  // measure 21
0103
0010
1000
0010
0100
0000
0001
0010
,  // measure 22
0100
0010
0001
0000
1000
0001
0010
0001
,  // measure 23
1000
0010
0001
0010
1000
0000
0001
0010
,  // measure 24
1000
0010
0001
0000
1000
0010
0100
0010
,  // measure 25
1000
1000
0001
0001
0010
0001
0010
0000
,  // measure 26
0001
0010
1000
0010
0001
0010
1000
0010
,  // measure 27
0002
0000
0203
0000
0310
1000
0001
0000
,  // measure 28
1000
0100
0001
0100
1000
0100
0001
0100
,  // measure 29
2000
3020
0230
0302
,  // measure 30
2003
3020
0230
2300
,  // measure 31
3200
0302
2003
3200
,  // measure 32
0320
0000
0230
0000
1300
1000
0001
0001
,  // measure 33
2002
0000
3003
0110
,  // measure 34
0010
0001
0010
1000
0010
0010
0010
0010
,  // measure 35
0001
0000
1000
0000
0010
0100
0001
0010
,  // measure 36
0100
0010
0001
1000
0010
0100
0001
1000
,  // measure 37
0100
1000
0001
0000
0001
1000
0010
1000
,  // measure 38
0001
0010
0100
0000
0100
0010
0001
0000
,  // measure 39
0001
1000
0010
0100
1000
0100
0001
0000
,  // measure 40
1000
1000
0001
0000
0001
0001
1000
0000
,  // measure 41
0200
0000
1300
0000
1000
0010
0100
0010
,  // measure 42
1000
0010
0001
0010
1000
0010
0001
0010
,  // measure 43
2000
0000
3001
0000
0001
0010
0100
0010
,  // measure 44
0001
1000
0010
0000
0100
0010
1000
0000
,  // measure 45
1000
0010
0100
0000
0100
0001
0010
0000
,  // measure 46
0100
0010
0001
0000
1000
0010
0100
0000
,  // measure 47
1000
0100
0001
0000
0010
0100
1000
0000
,  // measure 48
1000
0010
0100
0000
0001
0010
1000
0000
,  // measure 49
0010
0001
0100
0000
0010
0010
1000
1000
,  // measure 50
1001
0000
0000
0000
;

//---------------dance-single - ---------------
#NOTEDATA:;
#CHARTNAME:;
#CHARTSTYLE:;
#CREDIT:;
#STEPSTYPE:dance-single;
#DESCRIPTION:;
#DIFFICULTY:Hard;
#METER:15;
#METERF:15;
#RADARVALUES:0,0,0,0,0;
#NOTES:
// measure 0
0000
0000
0000
0000
,  // measure 1
0000
0000
0010
0000
1000
0000
0010
0100
0010
1000
0001
0000
0010
0000
0010
0000
,  // measure 2
0100
0000
0010
0000
0011
0000
0000
0010
0000
0010
0100
0010
0001
1000
0010
0100
,  // measure 3
0100
0000
0001
0000
0010
0000
0100
0010
0000
0001
1000
0000
0100
0000
1000
0000
,  // measure 4
0010
0000
0010
0010
0010
0000
0100
0020
0000
1030
0010
0100
0020
0000
2030
0000
,  // measure 5
3200
0000
0310
0000
0011
0000
0010
0100
1000
0010
0100
0001
1000
0000
0001
0000
,  // measure 6
0010
0000
1000
0000
0011
0000
0001
0010
0100
0010
0001
0100
1000
0000
0001
0000
,  // measure 7
0010
0000
1000
0000
1001
0000
1000
0001
0000
0001
1000
0000
0100
0000
0110
0000
,  // measure 8
0011
0000
0110
0010
1010
0000
0001
0010
0100
0010
0001
1000
0020
0000
2030
3000
,  // measure 9
2200
0000
0000
0000
0300
0000
0010
0000
0100
0000
0000
0010
0000
0000
0200
0000
,  // measure 10
3000
0001
0010
2300
3200
0300
1100
1010
,  // measure 11
0202
0000
0000
0000
0300
0000
0010
0000
2000
0000
3000
0200
0300
0000
0200
0000
,  // measure 12
0303
0001
1000
0010
0220
0330
1010
0011
,  // measure 13
1001
0000
1000
0010
0000
0001
0010
0000
2010
0000
3001
0000
1002
0000
0103
0000
,  // measure 14
1020
0000
1030
0010
0000
0100
0001
0000
0011
0000
0010
0000
0100
0000
1000
0000
,  // measure 15
1010
0000
1010
0000
0011
0000
0011
0000
1000
0010
0001
0010
1000
0100
0001
0100
,  // measure 16
2000
0000
0000
3002
0000
0000
0203
0000
0000
0320
0000
0030
0220
0000
0330
0000
,  // measure 17
1001
1000
0001
0100
0010
0000
1010
0000
0101
0000
0011
0000
1001
1000
0001
0100
,  // measure 18
0010
0000
1010
0000
0101
0000
2000
0000
3002
0000
0203
0000
0320
0000
0230
0300
,  // measure 19
0101
0001
1000
0100
0010
0000
0011
0000
1100
0000
1010
0000
0101
0001
1000
0100
,  // measure 20
0010
0000
0011
0000
1100
0000
0002
0000
2003
0000
0000
3001
0200
0000
0300
0000
,  // measure 21
1001
1000
0001
0100
0010
0000
1010
0000
0101
0000
0011
0000
1001
1000
0001
0100
,  // measure 22
0010
1010
0101
0011
1010
0011
0101
0110
,  // measure 23
0101
0001
1000
0100
0010
0000
0011
0000
1100
0000
1010
0000
0101
0001
1000
0100
,  // measure 24
0010
0000
0011
0000
1100
0000
1010
0000
0101
0001
1001
0000
1010
0000
1001
0000
,  // measure 25
0101
0000
0001
0100
0010
0000
1000
0100
0010
0000
0001
0100
0010
0000
1010
0000
,  // measure 26
0101
0100
0110
0000
1100
0100
0110
0000
0101
0100
0110
0000
1010
0000
0101
0000
,  // measure 27
2001
3010
1200
0310
0021
1030
0210
1300
,  // measure 28
1000
1000
0100
0100
0001
0001
0100
0100
1000
1000
0100
0100
2000
0000
0000
3020
,  // measure 29
0000
0030
0000
0010
2000
0000
3000
0010
0200
0000
0300
0001
2000
0000
3000
1000
,  // measure 30
0002
0000
0003
0010
0200
0000
0300
1000
0200
0000
0300
1000
0002
0000
0003
0100
,  // measure 31
0002
0000
0000
0000
0003
0000
0010
0000
2000
0000
0000
0000
3000
0000
0001
0000
0200
0000
0000
0000
0300
0000
1000
0000
0002
0000
0000
2000
0003
0000
3002
0000
,  // measure 32
0000
0000
0000
0023
0000
0000
0030
0010
0200
0300
0200
0300
2000
3000
0002
0003
,  // measure 33
0020
0000
0000
0000
0000
0030
0110
0000
,  // measure 34
0021
1030
0021
1030
0011
1010
0110
0011
,  // measure 35
1001
0000
1000
0010
0100
0000
1010
0000
2002
0000
3003
0000
0101
0000
0120
0000
,  // measure 36
1000
0100
0001
0100
1000
0031
0100
0002
,  // measure 37
1000
0000
0010
0000
0100
0000
1003
0000
0001
0000
1000
0100
0000
0100
0010
0000
,  // measure 38
0021
1000
0031
0001
0100
0010
0210
0001
,  // measure 39
1000
0001
0310
0010
1000
0100
0010
0010
,  // measure 40
0002
0000
0103
0010
0000
1000
0010
0000
0110
0000
0100
0010
1000
0000
1200
0000
,  // measure 41
0001
0000
1000
0000
0010
0000
0301
0000
1000
1000
0010
0000
0001
0000
0010
0000
,  // measure 42
0210
0000
0000
0301
2000
0000
0000
3001
2000
0000
0000
3001
2000
0000
0000
3001
,  // measure 43
2000
0000
3100
1000
0001
0010
0110
1100
,  // measure 44
0101
0001
1000
0100
0010
0000
0011
0000
1100
0000
1010
0000
0101
0001
1000
0100
,  // measure 45
0010
0000
0011
0000
1100
0000
1001
0000
1020
0000
0000
0031
0020
0000
0030
0000
,  // measure 46
1001
1000
0001
0100
0010
0000
1010
0000
0101
0000
0011
0000
1001
1000
0001
0100
,  // measure 47
0010
1010
0101
0011
1010
0011
0101
0110
,  // measure 48
1001
0001
1000
0010
0100
0000
0101
0000
1010
0000
1100
0000
1001
1000
0001
0100
,  // measure 49
0010
0000
0000
0000
0000
0000
0000
0000
1010
0000
0000
0000
0000
0000
0000
0000
0101
0000
0000
0000
0000
0000
0000
0000
0011
0000
0000
0000
0000
0000
0000
0000
1001
0000
0000
0000
1000
0000
0000
0000
0010
0000
0000
0000
0010
0000
0000
0000
0100
0000
0000
0000
0100
0000
0000
0000
0020
0000
0000
0000
0000
0000
0000
0030
,  // measure 50
0110
0000
0000
0000
;
