#TITLE:Like A Star (Live from Copenhagen, 2003) (LONG);
#SUBTITLE:;
#ARTIST:Sarah Harrison;
#MUSIC:Like A Star (Live From Copenhagen, 2003) (LONG).ogg;
#BANNER:Like A Star (Live From Copenhagen, 2003) (LONG).png;
#BACKGROUND:Like A Star (Live From Copenhagen, 2003) (LONG)-bg.png;
#LYRICSPATH:;
#CDTITLE:;
#SAMPLESTART:143.344;
#SAMPLELENGTH:15.111000000000018;
#OFFSET:-0.238;
#BPMS:0.000000=135.000000,
4.000000=33.750000,
12.000000=135.000000,
232.000000=540.000000,
236.000000=135.000000,
264.000000=33.750000,
268.000000=67.500000,
272.000000=135.000000,
340.000000=67.500000,
344.000000=135.000000,
348.000000=270.000000,
352.000000=135.000000
;
#STOPS:12.000000=1.776000,
232.000000=1.332000,
264.000000=1.776000,
348.000000=0.667000
;
#TIMESIGNATURES:0.000000=4=4;
#BGCHANGES:;
#FGCHANGES:;
#ATTACKS:;
#SPEEDS:0.000000=1.000000=0.000000=0;
#SCROLLS:0.000000=1.000000;
#KEYSOUNDS:;

//---------------dance-single - ---------------
#NOTES:
     dance-single:
     :
     Challenge:
     18:
     0,0,0,0,0:
// measure 0
0000
0000
0000
0000
0000
1000
0001
0020
,  // measure 1
0000
0000
0030
0001
1000
0010
0100
0020
0000
0000
0030
0100
0001
0010
0001
0200
0000
0000
0300
0001
1000
0100
1000
0020
0000
0000
0000
0000
0030
0010
0100
0020
,  // measure 2
0000
0000
0030
0100
0001
1000
0100
0020
0000
0230
0000
1300
0001
0100
1000
0200
0000
0302
0000
0013
0100
1000
0001
0020
0000
0000
0000
0000
0000
0000
0030
0000
,  // measure 3
0110
1000
0000
0000
0000
0000
0000
0000
0000
0000
0000
0000
0000
0000
0000
0000
0000
0000
0000
0000
0000
0000
0000
0000
0100
0000
0000
0000
0000
0000
0000
0000
0000
0000
0000
0000
1000
0000
0000
0000
0000
0000
0000
0000
0000
0000
0000
0000
0000
0000
0000
0000
0000
0000
0000
0000
0000
0000
0000
0000
0001
0000
0000
0000
0000
0000
0000
0000
0000
0000
0000
0000
0100
0000
0000
0000
0000
0000
0000
0000
0000
0000
0000
0000
0001
0000
0000
0000
0000
0000
0000
0000
0000
0000
0000
0000
0010
0000
0000
0000
0000
0000
0000
0000
0000
0000
0000
0000
0000
0000
0000
0000
0000
0000
0000
0000
0000
0000
0000
0000
0010
0000
0000
0000
0000
0000
0000
0000
0000
0000
0000
0000
0100
0000
0000
0000
0000
0000
0000
0000
0000
0000
0000
0000
0000
0000
0000
0000
0000
0000
0000
0000
0000
0000
0000
0000
0100
0000
0000
0000
0000
0000
0000
0000
0000
0000
0000
0000
1000
0000
0000
0000
0000
0000
0000
0000
0000
0000
0000
0000
0001
0000
0000
0000
0000
0000
0000
0000
0000
0000
0000
0000
,  // measure 4
0100
0000
0100
1000
0000
1000
0100
0001
0010
0000
0010
0100
0000
0100
1000
0001
,  // measure 5
0100
0000
0100
0001
0000
0001
0010
0100
1000
0000
1000
0010
0000
0010
0100
0001
,  // measure 6
0010
0000
0010
0100
0000
0100
1000
0001
0100
0000
0100
1000
0000
1000
0100
0001
,  // measure 7
1000
0000
1000
0100
0000
0100
0010
0001
0100
0000
0100
0010
0000
0010
1000
0010
,  // measure 8
0000
0010
0000
1000
0000
0001
0000
0010
0100
1000
0001
0100
0010
1000
0001
0010
,  // measure 9
0100
1000
0001
0100
0010
1000
0001
0010
0100
1000
0001
0100
0010
1000
0001
0100
,  // measure 10
0001
0100
1000
0001
0010
1000
0010
0100
0001
0010
0100
1000
0001
0010
0100
0010
,  // measure 11
0210
0300
1100
0100
0110
0010
0011
0001
,  // measure 12
0101
0100
0110
0010
0011
0010
1010
1000
,  // measure 13
1100
0100
0101
0100
1100
1000
1010
0010
,  // measure 14
0110
0100
0101
0100
1100
0100
0101
0001
,  // measure 15
0021
0030
0110
0010
0011
0010
0110
0100
,  // measure 16
1100
0100
0101
0100
1100
1000
1010
0010
,  // measure 17
0110
0100
0101
0001
0011
0010
0110
0100
,  // measure 18
1100
0000
1000
0000
1001
0000
1000
0000
0001
0100
0010
1000
0001
0010
0100
1000
,  // measure 19
2020
3030
1010
0010
0110
0010
1010
1000
,  // measure 20
0001
0100
1000
0100
0001
0010
0100
1000
,  // measure 21
0001
0000
0101
0000
0001
1000
1001
0000
,  // measure 22
1000
0001
1000
0000
1010
0000
0000
0000
1000
0001
0100
0010
1000
0001
0010
0100
,  // measure 23
2100
3100
2001
3001
2010
3010
2001
3001
,  // measure 24
1002
1003
0102
0103
0012
0013
1002
1003
,  // measure 25
1000
0100
0001
0100
1000
0010
0001
0010
,  // measure 26
1000
0001
1000
0001
0010
0001
0010
0001
1000
0010
0100
0001
1000
0010
0100
0001
,  // measure 27
0010
0000
0100
0010
0002
0000
0000
0000
0103
0000
0010
0000
1010
0000
1000
0000
,  // measure 28
0001
0000
0001
0010
0100
0000
1000
0000
0001
0000
0100
0000
0010
0000
1000
0000
,  // measure 29
0002
0103
2000
3100
0002
0013
2000
3010
,  // measure 30
0001
0000
0100
0001
1000
0000
0100
1000
0001
0000
1000
0000
1001
0000
0001
0000
,  // measure 31
0011
0000
0010
0100
1000
0000
0001
0000
0101
0000
0100
0000
0110
0000
0010
0000
,  // measure 32
1010
0000
1000
0001
0010
0000
0100
0000
1100
0000
1000
0000
1001
0000
0001
0000
,  // measure 33
0101
0001
1001
1000
1100
0100
0110
0010
,  // measure 34
0001
0010
0001
0010
0100
1000
0100
1000
0001
0010
0100
1000
0001
0100
0010
1000
,  // measure 35
2010
3000
1010
0010
0110
0100
0101
0001
,  // measure 36
0011
0010
0110
0100
1100
1000
1001
0001
,  // measure 37
0101
0100
0110
0010
1010
1000
1100
0100
,  // measure 38
0110
0010
1010
0010
0110
0100
1100
1000
,  // measure 39
1020
0030
1010
0010
0110
0100
0101
0001
,  // measure 40
0011
0010
0110
0100
1100
1000
1010
0010
,  // measure 41
0110
0100
0101
0100
1100
0100
0101
0001
,  // measure 42
0001
0100
0010
1000
0100
0010
0001
0100
0010
0001
0010
0100
0001
0010
0100
1000
,  // measure 43
1002
0003
1001
1000
1001
0001
0011
0010
,  // measure 44
0100
1000
0001
0100
1000
0100
0001
0010
,  // measure 45
0200
0300
1100
0000
2000
3000
1001
0000
,  // measure 46
0001
1000
0001
0000
1001
0000
0000
0000
0001
0010
0100
1000
0002
0000
0003
0000
,  // measure 47
0021
0031
0210
0310
1200
1300
2001
3001
,  // measure 48
0001
0010
0100
1000
0010
0100
0001
0020
,  // measure 49
0100
0100
0001
0001
0100
0100
1030
0000
,  // measure 50
0001
0100
0001
0100
0010
1000
0010
1000
0001
0100
0010
1000
0001
0100
0010
1000
,  // measure 51
2010
3000
1000
0100
0010
0100
1000
1001
,  // measure 52
0001
0010
0100
1000
0001
0100
0010
0110
,  // measure 53
1000
0010
0100
0001
0010
0100
1000
1001
,  // measure 54
0001
0000
0001
0010
0100
0000
0110
0000
0100
1000
0001
0100
0010
0000
0110
0000
,  // measure 55
1010
1000
0001
0010
0100
1000
0010
0110
,  // measure 56
0100
0001
1000
0100
0010
0001
0100
1100
,  // measure 57
0100
0001
0010
0100
1000
0010
0100
0010
1000
0001
0010
0100
0010
0001
0100
0010
,  // measure 58
1010
0200
0000
0000
0000
0000
0000
0000
0000
0000
0000
0000
0000
0000
0000
0000
0000
0000
0000
0000
0000
0000
0000
0000
0000
0000
0000
0000
0000
0000
0000
0000
0000
0000
0000
0000
0000
0000
0000
0000
0000
0000
0000
0000
0000
0000
0000
0000
0000
0000
0000
0000
0000
0000
0000
0000
0000
0000
0000
0000
0000
0000
0000
0000
0000
0000
0000
0000
0000
0000
0000
0000
0000
0000
0000
0000
0000
0000
0000
0000
0000
0000
0000
0000
0000
0000
0000
0000
0000
0000
0000
0000
0000
0000
0000
0000
0000
0000
0000
0000
0000
0000
0000
0000
0000
0000
0000
0000
0000
0000
0000
0000
0000
0000
0000
0000
0000
0000
0000
0000
0000
0000
0000
0000
0000
0000
0000
0000
0000
0000
0000
0000
0000
0000
0000
0000
0000
0000
0000
0000
0000
0000
0000
0000
0300
0000
0000
0000
0000
0000
0000
0000
0000
0000
0000
0000
0000
0000
0000
0000
0000
0000
0000
0000
0000
0000
0000
0000
0000
0000
0000
0000
0000
0000
0000
0000
0000
0000
0000
0000
0000
0000
0000
0000
0000
0000
0000
0000
0000
0000
0000
0000
,  // measure 59
0102
0000
0000
0000
0003
0000
0011
0000
0000
0010
0000
0000
0110
0000
0000
0100
0000
0000
1100
0000
0000
1000
0000
0000
,  // measure 60
1010
0010
0110
0100
1100
0100
0101
0001
,  // measure 61
0011
0010
1010
0010
0011
0001
0101
0100
,  // measure 62
1100
0100
0110
0010
1010
1000
1001
0001
,  // measure 63
0021
0030
0011
0010
1010
0010
0110
0100
,  // measure 64
1100
1000
1001
0001
0101
0100
0110
0010
,  // measure 65
1000
0010
0100
0001
0010
0100
1000
0010
0100
0001
1000
0001
0100
0010
1000
0010
,  // measure 66
1010
0002
0000
0000
0000
0000
0000
0000
0000
0000
0000
0000
0000
0000
0000
0000
0000
0000
0000
0000
0000
0000
0000
0000
1003
0000
0000
0000
0000
0000
0010
0000
0000
0000
0000
0000
0100
0000
0000
0000
0000
0000
0010
0000
0000
0000
0000
0000
2000
0000
0000
0000
0000
0000
0000
0000
0000
0000
0000
0000
3002
0000
0000
0000
0000
0000
0000
0000
0000
0000
0000
0000
0203
0000
0000
0000
0000
0000
0000
0000
0000
0000
0000
0000
0320
0000
0000
0000
0000
0000
0000
0000
0000
0000
0000
0000
2030
0000
0000
0000
0000
0000
0000
0000
0000
0000
0000
0000
0000
0000
0000
0000
0000
0000
0000
0000
0000
0000
0000
0000
3100
0000
0000
0000
0000
0000
0010
0000
0000
0000
0000
0000
0001
0000
0000
0000
0000
0000
0010
0000
0000
0000
0000
0000
0200
0000
0000
0000
0000
0000
0000
0000
0000
0000
0000
0000
2300
0000
0000
0000
0000
0000
0000
0000
0000
0000
0000
0000
3002
0000
0000
0000
0000
0000
0000
0000
0000
0000
0000
0000
0023
0000
0000
0000
0000
0000
0000
0000
0000
0000
0000
0000
,  // measure 67
0130
0000
0100
1000
0001
0000
0100
0001
2002
0000
0000
0000
0000
0000
3003
0000
,  // measure 68
0220
0000
0000
0330
,  // measure 69
1010
0000
0010
1000
0100
0000
0100
0010
0001
0000
0001
0100
0010
0000
1010
0000
,  // measure 70
0101
0000
0001
0100
0010
0000
0010
1000
0100
0000
0100
0010
0001
0000
0011
0000
,  // measure 71
0101
0000
0001
0010
0100
0000
1000
0010
0100
0000
0100
0001
1000
0000
1001
0000
,  // measure 72
0110
0000
0010
0100
1000
0000
1000
0001
0100
0000
0100
0010
1000
0000
1010
0000
,  // measure 73
1100
0000
1000
0100
0001
0000
0100
1000
0010
0000
0010
0100
0001
0000
0101
0000
,  // measure 74
1001
0000
1000
0001
0010
0000
0100
1000
0001
0000
0100
0010
1000
0000
1010
0000
,  // measure 75
1001
0000
0001
0010
0100
0000
0100
0010
1000
0000
1000
0010
0100
0000
1000
0000
,  // measure 76
0001
0100
0010
1000
0100
0010
0001
0100
0010
1000
0010
0100
0001
0010
0100
1000
,  // measure 77
1001
0000
1000
0001
0100
0000
0100
0010
1000
0000
1000
0001
0010
0000
0011
0000
,  // measure 78
1001
0000
1000
0010
0100
0000
0100
0001
1000
0000
1000
0100
0010
0000
0110
0000
,  // measure 79
1010
0000
1000
0010
0100
0000
0100
1000
0001
0000
0001
0100
0010
0000
1010
0000
,  // measure 80
1001
0000
0001
0010
0100
0000
1000
0001
0100
0000
1000
0100
0001
0000
1001
0000
,  // measure 81
1100
0000
1000
0001
0010
0000
0100
1000
0010
0000
0100
0001
0010
0000
0011
0000
,  // measure 82
0110
0000
0100
1000
0001
0000
0100
0001
1000
0000
0100
1000
0010
0000
1010
0000
,  // measure 83
0110
0000
0100
0001
0010
0000
0010
0100
1000
0000
1000
0001
0100
0000
0101
0000
,  // measure 84
0110
0000
0010
0000
1000
0000
0001
0000
0001
0010
0100
1000
0001
0010
0100
1000
,  // measure 85
0001
0000
0001
0010
0000
0010
0001
0000
1000
0000
1000
0010
0000
0010
1000
0000
0100
0000
0100
0010
0000
0010
0100
0000
1000
0000
0001
0100
0000
0100
0001
0000
,  // measure 86
1000
0001
1000
0001
1000
0001
1000
0001
1000
0001
1000
0001
1000
0001
1000
0001
,  // measure 87
1001
0100
0000
0000
0000
0000
0000
0000
0000
0000
0000
0000
0000
0000
0000
0000
0000
0000
0000
0000
0000
0000
0000
0000
0000
0000
0000
0000
0000
0000
0000
0000
0000
0000
0000
0000
0000
0000
0000
0000
0000
0000
0000
0000
0000
0000
0000
0000
0010
0000
0000
0000
0000
0000
0000
0000
0000
0000
0000
0000
0000
0000
0000
0000
0000
0000
0000
0000
0000
0000
0000
0000
0000
0000
0000
0000
0000
0000
0000
0000
0000
0000
0000
0000
0000
0000
0000
0000
0000
0000
0000
0000
0000
0000
0000
0000
1000
0000
0000
0000
0000
0000
0000
0000
0000
0000
0000
0000
0000
0000
0000
0000
0000
0000
0000
0000
0000
0000
0000
0000
0000
0000
0000
0000
0000
0000
0000
0000
0000
0000
0000
0000
0000
0000
0000
0000
0000
0000
0000
0000
0000
0000
0000
0000
0100
0000
0000
0000
0000
0000
0000
0000
0000
0000
0000
0000
0000
0000
0000
0000
0000
0000
0000
0000
0000
0000
0000
0000
0000
0000
0000
0000
0000
0000
0000
0000
0000
0000
0000
0000
0000
0000
0000
0000
0000
0000
0000
0000
0000
0000
0000
0000
,  // measure 88
0110
0000
0000
0000
,  // measure 89
0000
0000
0000
0000
,  // measure 90
0000
0000
0000
0000
,  // measure 91
0000
0000
0000
0000
,  // measure 92
0000
0000
0000
0000
,  // measure 93
0000
0000
0000
0000
,  // measure 94
0010
0000
0000
0000
;
