#VERSION:0.83;
#TITLE:Let Me Try;
#SUBTITLE:(Live from Kyiv, Ukraine, 2005);
#ARTIST:Luminița Anghel & Sistem;
#TITLETRANSLIT:;
#SUBTITLETRANSLIT:;
#ARTISTTRANSLIT:;
#GENRE:;
#CREDIT:;
#ORIGIN:;
#MUSIC:Let Me Try (Live from Kyiv, Ukraine, 2005).ogg;
#BANNER:Let Me Try (Live from Kyiv, Ukraine, 2005).png;
#BACKGROUND:Let Me Try (Live from Kyiv, Ukraine, 2005)-bg.png;
#JACKET:Let Me Try (Live from Kyiv, Ukraine, 2005)-jacket.png;
#DISCIMAGE:;
#CDIMAGE:;
#SELECTABLE:YES;
#LYRICSPATH:;
#CDTITLE:;
#SAMPLESTART:101.072;
#SAMPLELENGTH:16.616;
#OFFSET:-1.38;
#BPMS:0.000000=130.000000,
184.000000=65.000000,
202.000000=130.000000
;
#STOPS:;
#WARPS:;
#DELAYS:;
#SPEEDS:0.000000=1.000000=0.000000=0;
#SCROLLS:0.000000=1.000000;
#TICKCOUNTS:;
#TIMESIGNATURES:0.000000=4=4;
#LABELS:;
#COMBOS:;
#FAKES:;
#BGCHANGES:;
#FGCHANGES:;
#ATTACKS:;
#KEYSOUNDS:;

//---------------dance-single - ---------------
#NOTEDATA:;
#CHARTNAME:;
#CHARTSTYLE:;
#CREDIT:;
#STEPSTYPE:dance-single;
#DESCRIPTION:;
#DIFFICULTY:Beginner;
#METER:3;
#METERF:3;
#RADARVALUES:0,0,0,0,0;
#NOTES:
// measure 0
0000
0000
0000
0000
,  // measure 1
0000
0000
0000
0000
,  // measure 2
0000
0000
0000
0000
,  // measure 3
0000
0000
0000
0000
,  // measure 4
0000
0000
0000
0000
,  // measure 5
2000
0000
3000
0000
,  // measure 6
0020
0000
0030
0000
,  // measure 7
2000
0000
3000
0000
,  // measure 8
0002
0000
0003
0000
,  // measure 9
0020
0000
0030
0000
,  // measure 10
0002
0000
0003
0000
,  // measure 11
2000
0000
3000
0000
,  // measure 12
0002
0000
0003
0000
,  // measure 13
0010
0010
0010
0000
,  // measure 14
0001
0001
0001
0000
,  // measure 15
0100
0100
0100
0000
,  // measure 16
0010
0010
0010
0000
,  // measure 17
1000
1000
1000
0000
,  // measure 18
0010
0010
0010
0000
,  // measure 19
0100
0100
0100
0000
,  // measure 20
0001
0001
0001
0000
,  // measure 21
2002
3003
0000
0000
,  // measure 22
1000
1000
1000
0000
,  // measure 23
0010
0010
0010
0000
,  // measure 24
0100
0100
0100
0000
,  // measure 25
0001
0001
0001
0000
,  // measure 26
1000
1000
1000
0000
,  // measure 27
0010
0010
0010
0000
,  // measure 28
0100
0100
0100
0000
,  // measure 29
0001
0001
0001
0000
,  // measure 30
1000
0000
0100
0000
,  // measure 31
1000
1000
1000
0000
,  // measure 32
0001
0000
0100
0000
,  // measure 33
0001
0001
0001
0000
,  // measure 34
0010
0000
0100
0000
,  // measure 35
1000
1000
1000
0000
,  // measure 36
0010
0000
0100
0000
,  // measure 37
1001
0000
0001
0001
,  // measure 38
0001
0000
0100
0000
,  // measure 39
0010
0010
0010
0000
,  // measure 40
1000
0000
0001
0000
,  // measure 41
0010
0010
0010
0000
,  // measure 42
0100
0000
1000
0000
,  // measure 43
0001
0001
0001
0000
,  // measure 44
0100
0000
0010
0000
,  // measure 45
1001
0000
1000
0000
,  // measure 46
0002
0003
2000
3000
,  // measure 47
0020
0030
2000
3000
,  // measure 48
0002
0003
0020
0030
,  // measure 49
0200
0300
1000
1001
,  // measure 50
2000
3002
1003
1000
,  // measure 51
1000
0000
0001
0001
,  // measure 52
1000
0000
1000
1000
,  // measure 53
1000
0000
0010
0010
,  // measure 54
0010
0000
0100
0100
,  // measure 55
0100
0000
0001
0001
,  // measure 56
0001
0000
0010
0000
,  // measure 57
0100
0000
1000
1000
,  // measure 58
1000
0000
0001
0000
,  // measure 59
0100
0000
0010
0000
,  // measure 60
1000
0000
0010
0000
,  // measure 61
1000
0000
0001
0001
,  // measure 62
0001
0000
0100
0000
,  // measure 63
0010
0000
1000
1000
,  // measure 64
1000
0000
0010
0000
,  // measure 65
0100
0000
0001
0001
,  // measure 66
1001
0000
0000
0000
;

//---------------dance-single - ---------------
#NOTEDATA:;
#CHARTNAME:;
#CHARTSTYLE:;
#CREDIT:;
#STEPSTYPE:dance-single;
#DESCRIPTION:;
#DIFFICULTY:Easy;
#METER:8;
#METERF:8;
#RADARVALUES:0,0,0,0,0;
#NOTES:
// measure 0
0000
0000
0000
0000
,  // measure 1
0000
0000
0000
0000
,  // measure 2
0000
0000
0000
0000
,  // measure 3
0000
0000
0000
0000
,  // measure 4
1000
0001
1000
0100
,  // measure 5
0120
0000
0032
0000
,  // measure 6
0023
0000
0230
0000
,  // measure 7
2300
0000
3002
0000
,  // measure 8
0203
0000
0320
0000
,  // measure 9
2030
0000
3002
0000
,  // measure 10
0023
0000
0032
0000
,  // measure 11
2003
0000
3020
0000
,  // measure 12
0230
0000
0302
0003
,  // measure 13
1001
0011
2002
3003
,  // measure 14
1001
1010
2002
3003
,  // measure 15
1001
0110
2002
3003
,  // measure 16
0110
1001
0220
0330
,  // measure 17
1010
0101
0022
0033
,  // measure 18
1100
1010
0202
0303
,  // measure 19
0110
1001
0220
0330
,  // measure 20
1100
1001
0101
1001
,  // measure 21
0220
0000
0000
0330
,  // measure 22
1001
1000
0100
0010
,  // measure 23
0011
1001
1010
0010
,  // measure 24
0100
0001
1000
0100
,  // measure 25
0110
0011
1001
1000
,  // measure 26
0010
0100
1000
0100
,  // measure 27
0001
1000
0100
0010
,  // measure 28
0001
0100
0010
1000
,  // measure 29
0001
0010
0110
0000
,  // measure 30
1000
0000
0001
0000
,  // measure 31
0010
0010
0110
0000
,  // measure 32
0001
0000
1000
0000
,  // measure 33
0010
0010
0110
0000
,  // measure 34
1010
0000
0101
0000
,  // measure 35
0011
0011
1010
1010
,  // measure 36
0011
0000
1001
1010
,  // measure 37
1001
0000
1000
1000
,  // measure 38
1001
0001
0011
0010
,  // measure 39
0110
1100
1001
0001
,  // measure 40
0101
0100
0110
0010
,  // measure 41
1010
1001
0011
0010
,  // measure 42
0110
0010
0011
0001
,  // measure 43
0101
1010
1100
0100
,  // measure 44
0110
0010
0011
1001
,  // measure 45
1010
0010
0210
0302
,  // measure 46
2003
3020
0230
0320
,  // measure 47
2030
3002
0203
0320
,  // measure 48
2030
3200
2300
3020
,  // measure 49
0230
0302
0023
0031
,  // measure 50
0002
2003
3010
0100
,  // measure 51
0001
0010
0011
1100
,  // measure 52
1010
0010
0100
0001
,  // measure 53
1000
0100
0110
1001
,  // measure 54
0110
0010
1000
0100
,  // measure 55
0010
0001
0100
1000
,  // measure 56
0100
0010
1000
0001
,  // measure 57
0010
0100
1000
0010
,  // measure 58
0110
0100
0001
0100
,  // measure 59
0010
1000
0100
0010
,  // measure 60
0001
1000
0010
0100
,  // measure 61
1000
0100
0101
0001
,  // measure 62
0011
0010
0110
0100
,  // measure 63
1000
0001
0100
0010
,  // measure 64
1000
0010
0100
0001
,  // measure 65
0010
0100
1000
0001
,  // measure 66
1001
0000
0000
0000
;

//---------------dance-single - ---------------
#NOTEDATA:;
#CHARTNAME:;
#CHARTSTYLE:;
#CREDIT:;
#STEPSTYPE:dance-single;
#DESCRIPTION:;
#DIFFICULTY:Medium;
#METER:12;
#METERF:12;
#RADARVALUES:0,0,0,0,0;
#NOTES:
// measure 0
0000
0000
0000
0000
,  // measure 1
0000
0000
0000
0000
,  // measure 2
0000
0000
0000
0000
,  // measure 3
0000
0000
0000
0000
,  // measure 4
0000
0000
0000
0000
,  // measure 5
2000
0000
3002
0023
,  // measure 6
1000
0230
0010
2300
,  // measure 7
3002
0000
0100
2003
,  // measure 8
0001
3200
0001
2300
,  // measure 9
3020
0000
0001
2030
,  // measure 10
0100
3020
0001
2030
,  // measure 11
3002
0000
0100
0023
,  // measure 12
0100
0032
1000
0103
,  // measure 13
0101
0110
1010
1000
,  // measure 14
1100
0110
0011
0001
,  // measure 15
1001
0110
1001
1000
,  // measure 16
1010
0110
1100
0100
,  // measure 17
0101
0011
0110
0100
,  // measure 18
1100
1010
0011
0010
,  // measure 19
0110
0101
1001
1000
,  // measure 20
0002
0100
1000
0100
,  // measure 21
0013
0000
0002
1003
,  // measure 22
1010
0000
0010
0000
0100
0001
1000
0000
,  // measure 23
1100
0110
0011
0010
,  // measure 24
0100
0000
1000
0000
0001
0100
0010
0000
,  // measure 25
1010
0000
0011
0000
1010
0000
0010
0100
,  // measure 26
0101
0000
0001
1000
0100
0000
0010
0000
,  // measure 27
0011
1100
1010
0101
,  // measure 28
1000
0000
0100
1000
0010
0000
0100
0001
,  // measure 29
0010
0100
1100
0000
,  // measure 30
0001
0100
0010
1000
,  // measure 31
1010
0101
0011
0010
,  // measure 32
0110
0100
1000
0001
,  // measure 33
0101
1100
0101
0001
,  // measure 34
0011
0000
0001
0010
0100
0000
0100
1000
,  // measure 35
0010
0000
0010
0100
0001
1000
0001
0000
,  // measure 36
0101
0000
0001
0100
0010
0000
1000
0010
,  // measure 37
0110
0000
0100
0001
1000
0001
1000
0001
,  // measure 38
0011
0010
0100
1000
0001
0000
1001
0001
,  // measure 39
0010
0000
0100
1000
0001
0000
1001
0000
,  // measure 40
0110
0010
0100
0010
1000
0000
0001
0010
,  // measure 41
0100
0000
1000
0001
0100
0000
0010
0000
,  // measure 42
1010
0010
0100
0001
0010
0000
0100
1000
,  // measure 43
0001
0000
0100
0001
1000
0010
1000
0000
,  // measure 44
1001
0000
0001
0010
0100
0000
1100
0000
,  // measure 45
0100
1000
0010
0100
0002
0000
2003
0000
,  // measure 46
3020
0000
1000
0001
2030
0000
0100
0000
,  // measure 47
3002
0100
0023
0100
0032
0000
2003
0010
,  // measure 48
3002
0100
0023
0100
0032
2003
3020
2030
,  // measure 49
3200
0320
0032
0203
0320
0130
0202
0303
,  // measure 50
0002
0000
2003
3000
1010
0000
0010
0000
,  // measure 51
0100
0001
0010
0000
0011
0000
0110
0000
,  // measure 52
1100
0000
0100
1000
0001
0100
0010
0000
,  // measure 53
0100
0001
0010
0000
0011
0000
1100
0000
,  // measure 54
1001
0000
0001
0100
0010
0000
1000
0010
,  // measure 55
0100
0000
0001
0100
0000
0010
0000
1000
,  // measure 56
0001
0010
0110
0000
1100
0000
0100
1000
,  // measure 57
0010
0000
0100
0001
1000
0100
1000
0010
,  // measure 58
2000
3002
0023
0001
,  // measure 59
1000
0100
0001
0001
,  // measure 60
0001
1000
0001
0000
0001
0000
0100
0000
,  // measure 61
0031
0100
0010
0000
1010
0000
0010
0100
,  // measure 62
0001
0000
1000
0000
1100
0000
1000
0010
,  // measure 63
0100
0000
1000
0100
0010
0000
1000
0001
,  // measure 64
0010
0100
1000
0000
0001
0000
0100
0010
,  // measure 65
1000
0000
0100
0010
0001
0100
0010
1000
,  // measure 66
2002
3003
0000
0000
;

//---------------dance-single - ---------------
#NOTEDATA:;
#CHARTNAME:;
#CHARTSTYLE:;
#CREDIT:;
#STEPSTYPE:dance-single;
#DESCRIPTION:;
#DIFFICULTY:Hard;
#METER:15;
#METERF:15;
#RADARVALUES:0,0,0,0,0;
#NOTES:
// measure 0
0000
0000
0000
0000
,  // measure 1
0000
0000
0000
0000
,  // measure 2
0000
0000
0000
0000
,  // measure 3
0000
0000
0000
0000
,  // measure 4
0000
0000
0000
0000
,  // measure 5
2001
0000
0000
0000
3002
0000
0103
0001
,  // measure 6
0010
0100
1000
0010
0100
1000
0100
0010
,  // measure 7
2000
0000
0000
0000
3002
0000
0013
0100
,  // measure 8
1000
0010
0100
1000
0100
0001
0010
0100
,  // measure 9
0002
0000
0000
0000
0203
0000
1300
0010
,  // measure 10
0100
1000
0100
0010
1000
0001
0010
0100
,  // measure 11
2000
0000
0000
0000
3002
0000
0013
0001
,  // measure 12
0100
0010
1000
0001
0010
0100
1000
0001
,  // measure 13
0101
0000
0000
1010
0000
0000
0011
0000
2200
0000
0000
0000
3300
0000
0000
0000
,  // measure 14
0101
0000
0000
1100
0000
0000
0011
0000
2020
0000
0000
0000
3030
0000
0000
0000
,  // measure 15
0110
0000
0000
1001
0000
0000
1001
0000
0220
0000
0000
0000
0330
0000
0000
0000
,  // measure 16
1100
0000
0000
0110
0000
0000
0011
0000
2002
0000
0000
0000
3003
0000
0000
0000
,  // measure 17
1010
0000
0000
1001
0000
0000
0101
0000
0022
0000
0000
0000
0033
0000
0000
0000
,  // measure 18
0110
0000
0000
1100
0000
0000
1010
0000
0220
0000
0000
0000
0330
0000
0000
0000
,  // measure 19
1100
0000
0000
0101
0000
0000
0011
0000
0220
0000
0000
0000
0330
0000
0000
0000
,  // measure 20
1100
0000
0000
1001
0000
0000
0011
0000
1001
0000
0000
1010
0000
0000
0110
0000
,  // measure 21
2002
0000
3003
0000
2000
0000
3002
0003
,  // measure 22
1001
0000
0001
1000
0010
0000
0100
0010
2000
0000
3200
0000
0320
0000
0032
0003
,  // measure 23
1001
0000
0001
0000
0011
0000
0001
0010
0110
0000
0100
1000
1001
0000
2000
0000
,  // measure 24
3020
0230
2300
3200
0302
0023
0230
2300
,  // measure 25
3001
0000
1001
0000
1010
0000
1000
0010
0110
0000
0100
0001
0011
0000
0110
0000
,  // measure 26
0100
1000
0001
0100
0010
0100
0001
0010
,  // measure 27
0100
0000
1000
0000
0001
0000
0101
0000
0001
0100
0010
1000
0001
0000
0011
0000
,  // measure 28
1100
0000
0100
1000
0010
0000
0100
1000
0001
0000
1000
0000
0100
0000
0010
0000
,  // measure 29
1010
0000
1001
0000
0011
0000
0001
0010
0220
0000
0000
0000
0330
0000
0000
0000
,  // measure 30
2100
0000
3001
0010
0210
0000
1300
0010
,  // measure 31
0201
0000
0300
0000
0201
0000
0300
0001
2002
0000
0000
0000
3003
0000
0000
0000
,  // measure 32
1020
0030
1000
0001
0021
0030
0001
0100
,  // measure 33
0110
0000
0000
0000
1010
0010
0000
0010
0022
0000
0000
0000
0033
0000
0000
0000
,  // measure 34
1010
0000
1000
0010
0110
0000
0100
0001
,  // measure 35
0011
0000
0000
0000
0001
0000
0110
0000
1000
0010
0100
0001
0010
0000
0110
0000
,  // measure 36
1100
0000
0100
1000
0010
0000
0100
0000
0101
0000
0001
0000
1001
0000
1000
0100
,  // measure 37
0020
0000
0032
0023
2030
3020
0032
0013
,  // measure 38
0011
0000
0110
0000
0100
0000
1000
0001
0010
0000
0110
0000
0100
1000
0010
0100
,  // measure 39
1000
0000
1100
0000
0101
0000
1001
0000
1000
0100
0010
1000
0010
0000
0001
0000
,  // measure 40
0011
0000
0110
0000
0100
1000
0010
0100
1000
0000
0101
0000
1000
0100
0001
0100
,  // measure 41
0010
0000
1000
0010
0100
0000
1100
0000
0100
0001
0010
0100
1000
0010
0100
1000
,  // measure 42
1100
0000
0101
0000
0001
0010
1000
0010
0100
0000
1100
0000
0100
1000
0010
0100
,  // measure 43
1200
0300
0100
0102
0003
0001
0021
0030
0100
0010
0001
0100
0010
1000
0001
0010
,  // measure 44
0110
0000
0000
0000
0000
0000
0000
0000
0000
0000
0000
0000
0000
0000
0000
0000
0000
0000
0000
0000
0000
0000
0000
0000
0011
0000
0000
0000
0000
0000
0000
0000
0000
0000
0000
0000
0000
0000
0000
0000
0000
0000
0000
0000
0000
0000
0000
0000
0001
0000
0000
0000
0000
0000
0000
0000
0000
0000
0000
0000
0100
0000
0000
0000
0000
0000
0000
0000
0000
0000
0000
0000
0010
0000
0000
0000
0000
0000
0000
0000
0000
0000
0000
0000
1000
0000
0000
0000
0000
0000
0000
0000
0000
0000
0000
0000
0001
0000
0000
0000
0000
0000
0000
0000
0000
0000
0000
0000
0000
0000
0000
0000
0000
0000
0000
0000
0000
0000
0000
0000
0011
0000
0000
0000
0000
0000
0000
0000
0000
0000
0000
0000
0000
0000
0000
0000
0000
0000
0000
0000
0000
0000
0000
0000
1001
0000
0000
0000
0000
0000
0000
0000
0000
0000
0000
0000
0000
0000
0000
0000
0000
0000
0000
0000
0000
0000
0000
0000
0000
0000
0000
0000
0000
0000
0000
MMMM
0000
0000
0000
0000
0000
0000
0000
0000
0000
0000
0000
0000
0000
0000
0000
0000
,  // measure 45
1010
0000
0110
0000
0001
0100
0010
1000
0002
0000
0000
0000
2003
0000
0000
0000
,  // measure 46
3020
0000
2030
0000
3200
0320
0032
0023
0230
2300
3002
0203
0302
2003
3200
0320
,  // measure 47
0032
0203
0320
2030
3002
0023
0230
2300
3002
0203
2300
3200
0302
2003
3200
0320
,  // measure 48
0032
0203
0320
2030
3002
0023
0032
2003
3020
0230
0302
2003
3200
0302
0203
0320
,  // measure 49
0032
0000
0000
0203
0000
0000
2300
0000
0000
3200
0000
0000
0320
0000
0000
2030
0000
0000
3002
0000
0000
0023
0000
0000
0100
0000
0100
0000
0100
0000
0130
0000
0000
0000
0200
0000
2000
0000
0000
0000
0000
0000
3300
0000
0000
0000
0000
0000
,  // measure 50
0002
0000
0000
0000
2003
0000
0000
3000
1010
0000
1000
0010
0100
0000
0110
0000
,  // measure 51
0101
0000
0001
0010
0100
0000
1100
0000
1001
0000
0101
0000
0110
0000
0100
0010
,  // measure 52
1010
0000
0010
0000
0110
0000
0100
0001
1000
0000
0100
0010
0001
0000
0100
0010
,  // measure 53
1000
0000
0001
0010
0100
0000
0100
1000
0010
0000
0110
0000
1100
0000
0100
0010
,  // measure 54
1000
0000
1001
0000
0011
0000
0001
0010
0100
0000
1000
0001
0100
0000
0010
0100
,  // measure 55
0001
0000
1000
0100
0010
0000
0001
0010
0100
0000
1000
0010
0100
0000
0001
0100
,  // measure 56
0010
1000
0001
0010
0100
0000
0010
0000
0011
0000
0001
0100
0010
0000
1000
0001
,  // measure 57
0020
0000
0032
0000
0203
0000
0320
0000
2030
0000
3010
0100
0001
0010
0100
1000
,  // measure 58
0002
0000
0000
0000
2003
0000
0000
0000
3010
0100
0001
0010
0100
1000
0010
0100
,  // measure 59
1000
0100
0010
1000
0001
0010
0100
0001
0100
0010
0001
0100
0010
1000
0001
0010
,  // measure 60
0100
1000
0010
0100
1000
0100
0010
1000
0100
0010
0001
0100
0010
0001
0010
0100
,  // measure 61
0001
0010
0100
0001
0100
0010
0001
1000
1010
0000
0010
0000
0110
0100
0001
0010
,  // measure 62
0100
0000
0010
0000
0001
0100
0010
1000
1010
0000
0010
0100
0001
0000
1000
0100
,  // measure 63
0010
0000
0001
0100
0010
0000
2000
0000
3002
0000
0203
0000
0320
0000
2030
0000
,  // measure 64
3010
0100
0001
0010
0200
0000
2300
0000
3001
0000
0100
0010
1000
0000
0001
0010
,  // measure 65
0100
0000
1000
0000
0001
0000
0100
0000
0010
0100
0001
0010
0100
0000
1000
0000
,  // measure 66
2002
3003
0000
0000
;
