#TITLE:La Canción del Velero;
#SUBTITLE:(The Velero's Song);
#ARTIST:La Fiesta;
#MUSIC:La canción del velero.mp3;
#BANNER:La Canción del Velero.png;
#BACKGROUND:La Canción del Velero-bg.png;
#LYRICSPATH:;
#CDTITLE:;
#SAMPLESTART:53.492;
#SAMPLELENGTH:14.845999999999997;
#OFFSET:-3.723;
#BPMS:0.000000=130.000000,
156.000000=520.000000,
160.000000=130.000000
;
#STOPS:156.000000=1.386000;
#TIMESIGNATURES:;
#BGCHANGES:;
#FGCHANGES:;
#ATTACKS:;
#SPEEDS:;
#SCROLLS:;
#KEYSOUNDS:;

//---------------dance-single - ---------------
#NOTES:
     dance-single:
     :
     Beginner:
     4:
     0,0,0,0,0:
// measure 0
0000
0000
0000
0000
,  // measure 1
0000
0000
0000
0000
,  // measure 2
1000
1000
1000
0000
,  // measure 3
0001
0001
0001
0000
,  // measure 4
0100
0100
0100
0000
,  // measure 5
0010
0010
0010
0010
,  // measure 6
0001
0001
0001
0000
,  // measure 7
1000
1000
1000
0000
,  // measure 8
0100
0100
0100
0000
,  // measure 9
0010
0010
0010
0000
,  // measure 10
0001
0000
0001
0000
,  // measure 11
1000
0000
1000
0000
,  // measure 12
0100
0000
0001
0000
,  // measure 13
0010
0000
0010
0000
,  // measure 14
0001
0000
1000
0000
,  // measure 15
0010
0000
0100
0000
,  // measure 16
0010
0000
1000
0000
,  // measure 17
0010
0000
0010
0000
,  // measure 18
1000
1000
1000
0000
,  // measure 19
0001
0001
0001
0000
,  // measure 20
0100
0100
0100
0000
,  // measure 21
0010
0000
0001
1001
,  // measure 22
1000
0000
1000
0000
,  // measure 23
0010
0000
0010
0000
,  // measure 24
0100
0000
0001
0000
,  // measure 25
1000
0000
0001
0000
,  // measure 26
0100
0000
0010
0110
,  // measure 27
0100
0100
0100
0000
,  // measure 28
0001
0001
0001
0000
,  // measure 29
1000
1000
1000
0000
,  // measure 30
0010
0010
0010
0010
,  // measure 31
0001
0001
0001
0000
,  // measure 32
0100
0100
0100
0000
,  // measure 33
1000
1000
1000
0000
,  // measure 34
0010
0010
0010
0010
,  // measure 35
0001
0001
0001
0000
,  // measure 36
1000
1000
1000
0000
,  // measure 37
0100
0100
0100
0000
,  // measure 38
0010
0010
0010
0010
,  // measure 39
0001
1001
0000
0000
0000
0000
0000
0000
0000
0000
0000
0000
0000
0000
0000
0000
0000
0000
0000
0000
0000
0000
0000
0000
0000
0000
0000
0000
0000
0000
0000
0000
0000
0000
0000
0000
0000
0000
0000
0000
0000
0000
0000
0000
0000
0000
0000
0000
0000
0000
0000
0000
0000
0000
0000
0000
0000
0000
0000
0000
0000
0000
0000
0000
0000
0000
0000
0000
0000
0000
0000
0000
0000
0000
0000
0000
0000
0000
0000
0000
0000
0000
0000
0000
0000
0000
0000
0000
0000
0000
0000
0000
0000
0000
0000
0000
0000
0000
0000
0000
0000
0000
0000
0000
0000
0000
0000
0000
0000
0000
0000
0000
0000
0000
0000
0000
0000
0000
0000
0000
0000
0000
0000
0000
0000
0000
0000
0000
0000
0000
0000
0000
0000
0000
0000
0000
0000
0000
0000
0000
0000
0000
0000
0000
0000
0000
0000
0000
0000
0000
0000
0000
0000
0000
0000
0000
0000
0000
0000
0000
0000
0000
0000
0000
0000
0000
0000
0000
0000
0000
0000
0000
0000
0000
0000
0000
0000
0000
0000
0000
0000
0000
0000
0000
0000
0000
0000
0000
0000
0000
0000
0000
,  // measure 40
1000
1000
1000
0000
,  // measure 41
0100
0100
0100
0000
,  // measure 42
0010
0010
0010
0010
,  // measure 43
0001
0000
1000
0000
,  // measure 44
0100
0100
0100
0000
,  // measure 45
1000
0000
0001
0000
,  // measure 46
0010
0010
0010
0010
,  // measure 47
0100
0000
0100
0000
,  // measure 48
1000
0000
0001
0000
,  // measure 49
0100
0000
0010
0000
,  // measure 50
1001
1001
1001
1001
;

//---------------dance-single - ---------------
#NOTES:
     dance-single:
     :
     Easy:
     8:
     0,0,0,0,0:
// measure 0
0000
0000
0000
0000
,  // measure 1
0000
0000
0000
0000
,  // measure 2
1000
0001
0100
0010
,  // measure 3
0100
0001
1000
0100
,  // measure 4
0010
0100
1000
0001
,  // measure 5
0100
1000
0100
0001
,  // measure 6
0010
0100
1000
0100
,  // measure 7
0010
0001
0100
0010
,  // measure 8
1000
0010
0100
0001
,  // measure 9
1000
0010
0100
0110
,  // measure 10
0200
0300
0200
0300
,  // measure 11
0002
0003
0002
0003
,  // measure 12
1000
1000
0010
0010
,  // measure 13
2020
3030
0101
0001
,  // measure 14
1000
0010
0001
0010
,  // measure 15
1000
0100
0001
0100
,  // measure 16
1000
0001
0100
0010
,  // measure 17
2020
3030
0101
0001
,  // measure 18
1000
0100
0001
0100
,  // measure 19
1000
0010
0001
0010
,  // measure 20
1000
0001
0100
0010
,  // measure 21
1000
0001
0010
0110
,  // measure 22
0010
0001
1000
0010
,  // measure 23
0100
1000
0100
0001
,  // measure 24
1000
0100
1001
0000
,  // measure 25
1001
1100
1001
0101
,  // measure 26
1001
0110
0011
1100
,  // measure 27
1000
1000
0001
0100
,  // measure 28
0010
0010
1000
0001
,  // measure 29
0100
0100
1000
0100
,  // measure 30
0001
0010
1000
0010
,  // measure 31
0001
0001
1000
0010
,  // measure 32
0100
0100
0001
0010
,  // measure 33
1000
1000
0010
0001
,  // measure 34
0100
1000
0100
0001
,  // measure 35
1000
1000
0100
0001
,  // measure 36
0100
0100
1000
0001
,  // measure 37
0100
0100
0010
1000
,  // measure 38
0001
0010
0100
1000
,  // measure 39
0001
1001
0000
0000
0000
0000
0000
0000
0000
0000
0000
0000
0000
0000
0000
0000
0000
0000
0000
0000
0000
0000
0000
0000
0000
0000
0000
0000
0000
0000
0000
0000
0000
0000
0000
0000
0000
0000
0000
0000
0000
0000
0000
0000
0000
0000
0000
0000
0000
0000
0000
0000
0000
0000
0000
0000
0000
0000
0000
0000
0000
0000
0000
0000
0000
0000
0000
0000
0000
0000
0000
0000
0000
0000
0000
0000
0000
0000
0000
0000
0000
0000
0000
0000
0000
0000
0000
0000
0000
0000
0000
0000
0000
0000
0000
0000
0000
0000
0000
0000
0000
0000
0000
0000
0000
0000
0000
0000
0000
0000
0000
0000
0000
0000
0000
0000
0000
0000
0000
0000
0000
0000
0000
0000
0000
0000
0000
0000
0000
0000
0000
0000
0000
0000
0000
0000
0000
0000
0000
0000
0000
0000
0000
0000
0000
0000
0000
0000
0000
0000
0000
0000
0000
0000
0000
0000
0000
0000
0000
0000
0000
0000
0000
0000
0000
0000
0000
0000
0000
0000
0000
0000
0000
0000
0000
0000
0000
0000
0000
0000
0000
0000
0000
0000
0000
0000
0000
0000
0000
0000
0000
0000
,  // measure 40
0001
0010
0100
0010
,  // measure 41
0001
1000
0100
1000
,  // measure 42
0010
1000
0100
0001
,  // measure 43
0010
0000
0010
0000
,  // measure 44
0010
0001
0100
1000
,  // measure 45
0001
0000
0001
0000
,  // measure 46
1000
0010
0100
0010
,  // measure 47
1000
0000
1000
0000
,  // measure 48
0001
1000
0100
0010
,  // measure 49
0100
0000
0100
0000
,  // measure 50
1100
0011
1000
1001
;

//---------------dance-single - ---------------
#NOTES:
     dance-single:
     :
     Medium:
     11:
     0,0,0,0,0:
// measure 0
0000
0000
0000
0000
,  // measure 1
0000
0000
0000
0000
,  // measure 2
1000
0000
0010
0000
0100
0010
1000
0000
,  // measure 3
0001
0000
1000
0000
0100
1000
0001
0000
,  // measure 4
0010
0000
0100
0000
1000
0001
0100
0000
,  // measure 5
1001
0101
1010
1100
,  // measure 6
1000
0001
0000
0001
0000
0001
1000
0001
,  // measure 7
0010
0100
0000
0100
0000
0100
1000
0100
,  // measure 8
0010
0001
0000
0001
0000
0001
1000
0010
,  // measure 9
1010
0101
2002
3003
,  // measure 10
1000
0000
1000
0000
0001
0100
0010
0000
,  // measure 11
0100
0000
0100
0000
0010
1000
0100
0000
,  // measure 12
1000
1010
0101
1010
,  // measure 13
2001
3001
1002
1003
,  // measure 14
1000
0000
0010
0000
0100
0001
0010
0000
,  // measure 15
0001
0000
0100
0000
0010
1000
0100
0000
,  // measure 16
1000
1010
0101
1010
,  // measure 17
0210
0310
0120
0130
,  // measure 18
0010
1000
0001
0000
0001
0000
0100
0000
,  // measure 19
0010
0100
0001
0000
1000
0000
0100
0000
,  // measure 20
0010
0001
0100
0000
0010
1000
0100
0000
,  // measure 21
1000
1100
0001
0101
,  // measure 22
0001
0000
0100
0000
0010
1000
0100
0000
,  // measure 23
1000
0000
0010
0000
0100
0001
0010
0000
,  // measure 24
0001
0100
1001
0000
,  // measure 25
0001
0100
1000
0000
1000
0100
0001
0000
,  // measure 26
0001
0010
0100
0010
0001
0000
1001
0000
,  // measure 27
1000
0000
0010
0000
0100
0010
1000
0000
,  // measure 28
0001
0000
0010
0000
0100
0010
0001
0000
,  // measure 29
1000
0000
0001
0000
0100
0010
1000
0000
,  // measure 30
1010
0101
0011
1100
,  // measure 31
1000
0000
0010
0000
0100
0001
0010
0000
,  // measure 32
0100
0000
1000
0000
0010
0100
0001
0000
,  // measure 33
1000
0000
0010
0000
1000
0001
0100
0000
,  // measure 34
0101
1010
1100
0011
,  // measure 35
1001
0000
1000
0000
0010
0100
0001
0000
,  // measure 36
1000
0000
0100
0000
0001
0100
1000
0000
,  // measure 37
0010
0000
0100
0000
0001
1000
0100
0000
,  // measure 38
1100
0011
0101
1010
,  // measure 39
1001
1001
0000
0000
0000
0000
0000
0000
0000
0000
0000
0000
0000
0000
0000
0000
0000
0000
0000
0000
0000
0000
0000
0000
0000
0000
0000
0000
0000
0000
0000
0000
0000
0000
0000
0000
0000
0000
0000
0000
0000
0000
0000
0000
0000
0000
0000
0000
0000
0000
0000
0000
0000
0000
0000
0000
0000
0000
0000
0000
0000
0000
0000
0000
0000
0000
0000
0000
0000
0000
0000
0000
0000
0000
0000
0000
0000
0000
0000
0000
0000
0000
0000
0000
0000
0000
0000
0000
0000
0000
0000
0000
0000
0000
0000
0000
0000
0000
0000
0000
0000
0000
0000
0000
0000
0000
0000
0000
0000
0000
0000
0000
0000
0000
0000
0000
0000
0000
0000
0000
0000
0000
0000
0000
0000
0000
0000
0000
0000
0000
0000
0000
0000
0000
0000
0000
0000
0000
0000
0000
0000
0000
0000
0000
0000
0000
0000
0000
0000
0000
0000
0000
0000
0000
0000
0000
0000
0000
0000
0000
0000
0000
0000
0000
0000
0000
0000
0000
0000
0000
0000
0000
0000
0000
0000
0000
0000
0000
0000
0000
0000
0000
0000
0000
0000
0000
0000
0000
0000
0000
0000
0000
,  // measure 40
0001
0000
0100
0000
0010
0100
1000
0000
,  // measure 41
0100
0000
0001
0000
0010
0100
1000
0000
,  // measure 42
1100
0011
0101
1010
,  // measure 43
1001
0000
0110
0000
0010
0001
0100
0000
,  // measure 44
0010
1000
0001
0000
0001
0100
1000
0000
,  // measure 45
0100
0000
0101
0000
0001
0010
0100
0000
,  // measure 46
1100
0011
1100
0011
,  // measure 47
1001
0000
0110
0000
0010
1000
0001
0000
,  // measure 48
0001
0100
0010
0000
0010
0100
0001
1000
,  // measure 49
0100
0000
0010
0000
0001
0100
0001
0000
,  // measure 50
1000
0000
0000
0001
0000
0000
1000
0001
1000
1001
0000
0000
;

//---------------dance-single - ---------------
#NOTES:
     dance-single:
     :
     Hard:
     15:
     0,0,0,0,0:
// measure 0
0000
0000
0000
0000
,  // measure 1
0000
0000
0000
0000
,  // measure 2
2001
0000
0000
3001
1000
0000
0010
0000
1010
0000
1000
0000
1001
0000
0001
0000
,  // measure 3
0201
0000
0000
0301
0100
0000
0010
0000
0110
0000
0010
0000
1010
0000
1000
0000
,  // measure 4
1002
0000
0000
1003
0001
0000
0010
0000
0011
0000
0010
0000
0110
0000
0100
0000
,  // measure 5
2200
3300
0000
0000
0022
0033
0000
0000
2200
3300
0000
0000
0220
0330
0000
0000
,  // measure 6
1001
1000
0100
0010
0011
0011
0101
0101
,  // measure 7
1001
1000
0010
0100
0101
0101
1010
1010
,  // measure 8
1001
0001
0010
0100
1100
1100
1001
1001
,  // measure 9
0022
0033
0000
0000
2200
3300
0000
0000
2002
3003
0000
0000
0110
0000
0000
0000
,  // measure 10
1001
0000
1000
0000
0001
0100
0000
0010
0000
1000
0000
0002
0000
0000
0103
0000
,  // measure 11
0101
0000
0001
0000
1000
0010
0000
0001
0000
0010
0000
2000
0000
0000
3001
0000
,  // measure 12
1001
0000
1000
0000
0001
0010
0000
0000
0100
0010
0000
0001
0000
0000
1000
0000
,  // measure 13
0000
0020
0000
0000
0130
0000
0010
0000
1000
0000
1000
0000
1001
0000
0000
0000
,  // measure 14
0011
0000
0010
0000
0100
0010
0000
0001
0000
1000
0000
2000
0000
0000
3010
0000
,  // measure 15
1010
0000
0010
0000
1000
0001
0000
0200
0000
0000
0301
0000
1000
0000
0100
0000
,  // measure 16
1100
0000
1000
0000
0100
0010
0000
0000
0100
0010
0000
0001
0000
0000
1000
0000
,  // measure 17
0000
0020
0000
0000
0130
0000
0100
0000
0001
0000
0010
0000
0110
0000
0010
0000
,  // measure 18
0001
0100
0010
1000
0001
0010
0100
1000
,  // measure 19
0001
0100
0010
1000
0100
0010
0001
0010
,  // measure 20
0100
1000
1001
0000
1100
0000
1001
0011
,  // measure 21
0000
0000
1001
0000
0000
0000
1100
0000
0000
0000
1001
0000
0220
0330
0000
0000
,  // measure 22
0010
0001
0100
1000
0100
0001
0010
0100
,  // measure 23
1000
0001
0100
0010
1000
0100
0010
0001
,  // measure 24
1000
0010
0100
0000
0110
1001
0110
0000
,  // measure 25
0100
0001
0010
1000
0010
0001
0100
1000
,  // measure 26
0100
0000
0000
0001
0000
0000
0010
0000
0000
0100
0000
0000
1000
0000
0001
0000
1000
0000
1010
0000
0000
0000
0000
0000
,  // measure 27
2001
0000
0000
3001
1000
0000
0010
0000
1000
0000
0001
0000
0100
0000
0010
0000
,  // measure 28
1020
0000
0000
1030
0010
0000
0100
0000
0001
0000
1000
0000
0100
0000
0010
0000
,  // measure 29
0021
0000
0000
0031
0010
0000
0100
0000
1000
0000
0001
0000
0100
0000
0010
0000
,  // measure 30
2020
3030
0000
0000
2020
3030
0000
0000
0202
0303
0000
0000
0202
0303
0000
0000
,  // measure 31
2010
0000
0000
3010
1000
0000
0010
0000
1000
0000
0001
0000
0010
0000
0100
0000
,  // measure 32
2100
0000
0000
3100
1000
0000
0001
0000
0100
0000
1000
0000
0100
0000
0001
0000
,  // measure 33
0201
0000
0000
0301
0100
0000
0010
0000
1000
0000
0001
0000
0010
0000
0100
0000
,  // measure 34
2200
3300
0000
0000
2200
3300
0000
0000
0022
0033
0000
0000
0022
0033
0000
0000
,  // measure 35
0210
0000
0000
0310
0100
0000
1000
0000
0001
0000
0100
0000
0010
0000
1000
0000
,  // measure 36
2010
0000
0000
3010
1000
0000
0001
0000
0100
0000
0010
0000
1000
0000
0001
0000
,  // measure 37
2001
0000
0000
3001
1000
0000
0001
0000
0100
0000
0010
0000
1000
0000
0001
0000
,  // measure 38
0022
0033
0000
0000
0022
0033
0000
0000
2200
3300
0000
0000
2002
3003
0000
0000
,  // measure 39
0101
1001
0000
0000
0000
0000
0000
0000
0000
0000
0000
0000
0000
0000
0000
0000
0000
0000
0000
0000
0000
0000
0000
0000
0000
0000
0000
0000
0000
0000
0000
0000
0000
0000
0000
0000
0000
0000
0000
0000
0000
0000
0000
0000
0000
0000
0000
0000
0000
0000
0000
0000
0000
0000
0000
0000
0000
0000
0000
0000
0000
0000
0000
0000
0000
0000
0000
0000
0000
0000
0000
0000
0000
0000
0000
0000
0000
0000
0000
0000
0000
0000
0000
0000
0000
0000
0000
0000
0000
0000
0000
0000
0000
0000
0000
0000
0000
0000
0000
0000
0000
0000
0000
0000
0000
0000
0000
0000
0000
0000
0000
0000
0000
0000
0000
0000
0000
0000
0000
0000
0000
0000
0000
0000
0000
0000
0000
0000
0000
0000
0000
0000
0000
0000
0000
0000
0000
0000
0000
0000
0000
0000
0000
0000
0000
0000
0000
0000
0000
0000
0000
0000
0000
0000
0000
0000
0000
0000
0000
0000
0000
0000
0000
0000
0000
0000
0000
0000
0000
0000
0000
0000
0000
0000
0000
0000
0000
0000
0000
0000
0000
0000
0000
0000
0000
0000
0000
0000
0000
0000
0000
0000
,  // measure 40
2100
0000
0000
3100
1000
0000
0001
0000
0100
0000
0010
0000
1000
0000
0001
0000
,  // measure 41
0021
0000
0000
0031
0010
0000
0100
0000
1000
0000
0001
0000
0100
0000
0010
0000
,  // measure 42
2020
3030
0000
0000
2020
3030
0000
0000
0202
0303
0000
0000
0202
0303
0000
0000
,  // measure 43
2001
0000
0000
3001
1000
0000
0100
0000
0010
0000
0001
0000
1000
0000
0000
1000
,  // measure 44
0001
0000
0010
0000
0100
0000
0010
0001
0000
0001
1000
0000
0100
0000
0010
0000
,  // measure 45
0110
0000
0000
0010
0001
0000
0100
0000
1000
0000
0100
0000
0001
0000
1000
0000
,  // measure 46
2002
3003
0000
0000
2200
3300
0000
0000
2002
3003
0000
0000
0202
0303
0000
0000
,  // measure 47
1002
0000
0000
1003
0001
0000
0100
0000
0010
0000
1000
0000
0001
0000
0000
0001
,  // measure 48
0100
0000
0001
0000
0100
0000
0020
0000
0000
0000
0000
0000
1030
0000
0000
1000
0000
0000
0001
0000
0000
0100
0000
0000
,  // measure 49
0020
0030
1000
0000
0100
0000
0000
0000
0020
0030
0001
0000
0100
0000
0000
0000
,  // measure 50
1001
0000
0000
1100
0000
0000
1001
0001
0100
0220
0000
0000
,  // measure 51
0330
0000
0000
0000
;
