#TITLE:LOVE IS THE POWER;
#SUBTITLE:(D.U.S Special);
#ARTIST:NM;
#MUSIC:LOVE IS THE POWER (D.U.S Special).ogg;
#BANNER:;
#BACKGROUND:;
#LYRICSPATH:;
#CDTITLE:;
#SAMPLESTART:46.028;
#SAMPLELENGTH:14.789000000000001;
#OFFSET:-1.74;
#BPMS:0.000000=130.100000;
#STOPS:;
#TIMESIGNATURES:0.000000=4=4;
#BGCHANGES:;
#FGCHANGES:;
#ATTACKS:;
#SPEEDS:0.000000=1.000000=0.000000=0;
#SCROLLS:0.000000=1.000000;
#KEYSOUNDS:;

//---------------dance-single - ---------------
#NOTES:
     dance-single:
     :
     Challenge:
     16:
     0,0,0,0,0:
// measure 0
0000
0000
0000
0000
,  // measure 1
0000
0000
0000
0000
,  // measure 2
0000
0000
0000
0000
,  // measure 3
0000
0000
0000
0000
,  // measure 4
1000
0000
0001
0000
0100
0010
0000
1000
0000
0100
0000
0010
0001
0000
0100
0000
,  // measure 5
0010
0000
1000
0000
0001
0010
0000
0100
0000
1000
0000
0001
0100
0000
0010
0000
,  // measure 6
1000
0000
0001
0000
0010
1000
0000
0010
0000
0001
0000
0100
0010
0000
1000
0000
,  // measure 7
0001
0000
0100
0000
0010
0001
0000
0010
0000
1000
0000
0001
0100
0000
0010
0000
,  // measure 8
1000
0001
1000
0001
1000
0001
0000
0010
0000
0100
0000
1000
0100
0000
0010
0000
,  // measure 9
0011
0001
0101
0100
0110
0010
1010
0000
,  // measure 10
1000
0010
1000
0010
1000
0010
0000
0100
0000
0001
0000
1000
0100
0000
1000
0100
,  // measure 11
0010
0000
0010
0000
0001
0000
0001
0000
0100
0000
0010
0000
1000
0001
0010
0000
,  // measure 12
0100
0010
0100
0010
0100
0010
0000
0001
0000
0100
0000
0010
1000
0000
0100
0000
,  // measure 13
1100
0100
0110
0010
0011
0001
1001
0000
,  // measure 14
1000
0001
1000
0001
1000
0001
0000
0100
0000
0010
0000
1000
0100
0000
1000
0001
,  // measure 15
0100
0000
0000
0000
0000
0000
0000
0000
0000
0000
0000
0000
0100
0000
0000
0001
0000
0000
1000
0000
0000
0010
0000
0000
0100
0000
0001
0000
0100
0000
0001
0000
0100
0000
0001
0000
0010
0000
0000
0000
0000
0000
0000
0000
0000
0000
0000
0000
,  // measure 16
1100
1000
0000
0001
0000
0100
0000
0010
0100
0000
0001
0000
1000
0100
0010
0000
,  // measure 17
0100
1000
0100
0000
0010
0001
0010
0000
0100
1000
0010
0000
1010
0000
0000
0000
,  // measure 18
1000
0010
0000
0100
0000
0001
0000
0010
0100
1000
0001
0000
0100
0000
0001
1000
,  // measure 19
0100
1000
0110
0000
0011
0010
0110
0100
,  // measure 20
1100
0100
0000
1000
0000
0001
0000
0100
0010
0000
1000
0000
0001
0010
0100
0000
,  // measure 21
1000
0001
1000
0000
0010
0100
0010
0000
1000
0100
1000
0000
0001
0010
0001
0000
,  // measure 22
1000
0010
0000
0100
0000
0001
0000
1000
0100
0000
0010
0000
0001
0000
0010
0000
,  // measure 23
0100
0000
0000
0000
0100
0000
0000
0000
0100
1000
0010
0100
0001
0010
0100
1000
,  // measure 24
1010
0010
0011
0010
1010
1000
1100
0100
,  // measure 25
0101
0100
1100
1000
1010
0010
0011
0010
,  // measure 26
1000
1000
0100
0100
0010
0010
0001
0001
,  // measure 27
1000
0010
0100
0001
1000
1001
1001
0000
,  // measure 28
1001
1000
0010
0100
0001
1000
0010
0100
,  // measure 29
0001
0000
0010
0001
0010
0000
0100
1000
0100
0000
1000
0010
0100
0000
0001
1000
,  // measure 30
0010
0100
0001
0010
0100
1000
0001
0100
,  // measure 31
0010
1000
0100
1000
0010
0110
0101
0000
,  // measure 32
1001
0000
1000
0000
0010
0000
0100
0001
0010
0000
0100
0000
1000
0000
0001
0000
,  // measure 33
0100
1000
0100
0001
0010
0100
1000
0001
,  // measure 34
0100
0000
0010
0100
0001
0000
0010
0100
1000
0000
0010
0100
0001
0000
1000
0100
,  // measure 35
0010
0000
0001
1000
0010
0000
1000
0001
0010
0000
0011
0000
1001
0000
0000
0000
,  // measure 36
1100
1000
0010
0100
1000
0100
0001
1000
,  // measure 37
0100
0001
0100
1000
0010
0100
0001
1000
,  // measure 38
0100
0000
1000
0001
0010
0000
0001
1000
0010
0000
1000
0001
0100
0000
0001
1000
,  // measure 39
0100
0000
1000
0010
0100
0010
1000
0001
0010
0100
1000
0000
1001
0000
1000
0000
,  // measure 40
0100
0000
0100
0000
1000
0001
0000
0100
0000
0001
0000
0010
0100
0000
1000
0000
,  // measure 41
0001
0000
0001
0000
0100
0010
0000
1000
0000
0001
0000
0100
0010
0000
0100
0000
,  // measure 42
1000
0000
1000
0000
0100
0001
0000
1000
0000
0100
0000
0010
0100
0000
1000
0000
,  // measure 43
0001
0000
0001
0000
1000
0010
0000
0010
0100
0010
1000
0000
1000
0001
0010
0100
,  // measure 44
1000
0000
1000
0000
0001
0010
0000
0010
0100
1000
0001
0000
0100
0000
0001
0000
,  // measure 45
0010
0000
0010
0000
1000
0010
0000
0010
0100
0001
1000
0000
0100
0000
1000
0000
,  // measure 46
0001
0000
0100
0000
0010
0100
0000
0100
0001
1000
0100
0000
0010
0000
0100
0000
,  // measure 47
1000
0000
1000
0000
0010
0100
0001
1000
0100
0010
0001
0100
0010
1000
0001
0100
,  // measure 48
0001
0000
0000
0000
;

//---------------dance-double - ---------------
#NOTES:
     dance-double:
     :
     Challenge:
     17:
     0,0,0,0,0:
// measure 0
00000000
00000000
00000000
00000000
,  // measure 1
00000000
00000000
00000000
00000000
,  // measure 2
00000000
00000000
00010000
00000000
00000000
00010000
00000000
00000000
00010000
00000000
00000000
00010000
00000000
00000000
00010000
00000000
,  // measure 3
00001000
00000000
00000000
00100000
00000000
00000000
00100000
00000000
00010000
00000000
10000000
00000000
10010000
00000000
00000000
00000000
,  // measure 4
10000000
00000000
00010000
00000000
01000000
00100000
00000000
01000000
00000000
00010000
00000000
10000000
01000000
00000000
00100000
00000000
,  // measure 5
00010000
00000000
00010000
00000000
01000000
00100000
00000000
10000000
00000000
00010000
00000000
00100000
01000000
00000000
10000000
00000000
,  // measure 6
00010000
00000000
00100000
00000000
00000000
00001000
00000000
00000000
00010000
00000000
00000000
00000010
00000000
00000000
00000100
00000000
,  // measure 7
00000010
00000000
00001000
00000001
00000010
00000000
00000100
00000000
00000010
00000001
00000100
00000010
00001000
00000000
00011000
00000000
,  // measure 8
00010000
00001000
00010000
00001000
00010000
00001000
00000000
00100000
00000000
01000000
00000000
10000000
00010000
00000000
01000000
00000000
,  // measure 9
01100000
00100000
10100000
10000000
10010000
00010000
00110000
00000000
,  // measure 10
00100000
00001000
00100000
00001000
00100000
00001000
00000000
00010000
00000000
00000010
00000000
00000100
00000010
00000000
00001000
00000001
,  // measure 11
00000010
00000000
00000010
00000000
00000100
00000000
00000100
00000000
00001000
00000000
00001000
00000000
00000100
00001000
00000000
00000000
,  // measure 12
00000010
00010000
00000010
00010000
00000010
00010000
00000000
00001000
00000000
00100000
00000000
01000000
10000000
00000000
00010000
00000000
,  // measure 13
01010000
00000000
01000000
00000000
11000000
00000000
01000000
00000000
01010000
00000000
00010000
00000000
00110000
00100000
00000000
00000000
,  // measure 14
00001000
00100000
00001000
00100000
00001000
00100000
00000000
01000000
00000000
10000000
00000000
00010000
01000000
00000000
00100000
01000000
,  // measure 15
00010000
00000000
00000000
00000000
00000000
00000000
00000000
00000000
00000000
00000000
00000000
00000000
00010000
00000000
00000000
10000000
00000000
00000000
01000000
00000000
00000000
00100000
00000000
00000000
00010000
00000000
10000000
00000000
00010000
00000000
10000000
00000000
00010000
00000000
10000000
00000000
00100000
00000000
00000000
00000000
00000000
00000000
00000000
00000000
00000000
00000000
00000000
00000000
,  // measure 16
01000000
00100000
00000000
10000000
00000000
00010000
00000000
00100000
01000000
00000000
10000000
00000000
00010000
01000000
00100000
00000000
,  // measure 17
10000000
01000000
00100000
00000000
00100000
00010000
01000000
00000000
01000000
00001000
00010000
00000000
00010000
00000010
00000100
00000000
,  // measure 18
00000100
00000001
00000000
00000010
00000000
00000100
00000000
00001000
00000010
00000000
00000100
00000000
00000001
00001000
00000100
00000000
,  // measure 19
00000100
00010000
00001000
00000000
00011000
00000000
00000000
00000000
00011000
00000000
00010000
00000000
00110000
00000000
00010000
00000000
,  // measure 20
00011000
00001000
00000000
00100000
00000000
00000100
00000000
00010000
00001000
00000000
00011000
00000000
00001000
00010000
00000100
00000000
,  // measure 21
00000100
00001000
00000010
00000000
00000010
00000100
00000001
00000000
00000001
00001000
00000100
00000000
00000100
00010000
00001000
00000000
,  // measure 22
00011000
00010000
00000000
00001000
00000000
00100000
00000000
00001000
01000000
00000000
00100000
00000000
10000000
00000000
00010000
00000000
,  // measure 23
00100000
00000000
00100000
00000000
01000000
00000000
00000000
00000000
01000000
10000000
00100000
01000000
00010000
00100000
00001000
00010000
,  // measure 24
00011000
00001000
00101000
00001000
01001000
00001000
00011000
00101000
,  // measure 25
00011000
00010000
00010100
00010000
00010010
00010000
00011000
00010010
,  // measure 26
00011000
00001000
01000000
01000000
00100000
00100000
10000000
10000000
,  // measure 27
00010000
00100000
01000000
10000000
00010000
10010000
10010000
00000000
,  // measure 28
10010000
10000000
10100000
10000000
11000000
10000000
10001000
00001000
,  // measure 29
00011000
00010000
00010010
00010000
00010100
00010000
00010001
00000001
,  // measure 30
00001000
00000010
00000100
00000001
00001000
00000100
00000010
00001000
,  // measure 31
00010000
01000000
10000000
00010000
01000000
10010000
10010000
00000000
,  // measure 32
01100000
00000000
00010000
00000000
01100000
00000000
01000000
10000000
00010000
00000000
01000000
00000000
00001000
00000000
00010000
00000000
,  // measure 33
00000100
00001000
00000001
00000100
00000010
00001000
00000001
00000010
,  // measure 34
00000100
00000010
00000001
00000010
00000100
00001000
00000100
00000001
00000100
00001000
00000010
00000100
00001000
00010000
00001000
00000100
,  // measure 35
00000010
00001000
00000001
00000010
00001000
00010000
00100000
10000000
00010000
00000000
10010000
00000000
01100000
00000000
00000000
00000000
,  // measure 36
10010000
10000000
10100000
10000000
10010000
10000000
10001000
00001000
,  // measure 37
00010000
00000100
00000010
00000001
00000100
00000010
00001000
00000100
,  // measure 38
00010000
00001000
01000000
00001000
00010000
00001000
00100000
00001000
00010000
00001000
10000000
00001000
00010000
00000100
00000001
00000100
,  // measure 39
00001000
00000001
00000100
00000010
00001000
00000001
00000010
00001000
00010000
00100000
10000000
00010000
10000000
00100000
01000000
00010000
,  // measure 40
10010000
00000000
10000000
00000000
00010000
00100000
00000000
00010000
00000000
01000000
00000000
00001000
00010000
00000000
00000100
00000000
,  // measure 41
00001000
00000000
00000010
00000000
00000100
00000001
00000000
00000010
00000000
00000100
00000000
00001000
00000010
00000000
00000100
00000000
,  // measure 42
00000001
00000000
00000010
00000000
00000100
00001000
00000000
00000010
00000000
00010000
00000000
00001000
00100000
00000000
01000000
00000000
,  // measure 43
10000000
00000000
00010000
00000000
01000000
00100000
00000000
10000000
00000000
01000000
00000000
00010000
00001000
00000000
01000000
00000000
,  // measure 44
01010000
00000000
10000000
00000000
01000000
10000000
00010000
00000000
01000000
00100000
10000000
00100000
01000000
00000000
00010000
00000000
,  // measure 45
00100000
00000000
00001000
00010000
00000010
00000000
00000100
00000000
00000001
00000010
00001000
00000010
00000001
00000000
00001001
00000000
,  // measure 46
00000001
00000000
00000100
00000000
00000010
00001000
00000100
00000000
00000100
00010000
00001000
01000000
00100000
00000000
10000000
00000000
,  // measure 47
00010000
00000000
00100000
01000000
10000000
00000000
10000000
00010000
01000000
00100000
10000000
00010000
00100000
00001000
00000010
00001000
,  // measure 48
00011000
00000000
00000000
00000000
;
