#TITLE:Knockin';
#SUBTITLE:;
#ARTIST:Lunae;
#MUSIC:Knockin'.ogg;
#BANNER:Knockin'.png;
#BACKGROUND:Knockin'-bg.png;
#LYRICSPATH:;
#CDTITLE:;
#SAMPLESTART:87.203;
#SAMPLELENGTH:14.545000000000002;
#OFFSET:-4.011;
#BPMS:0.000000=132.005000;
#STOPS:;
#TIMESIGNATURES:0.000000=4=4;
#BGCHANGES:;
#FGCHANGES:;
#ATTACKS:;
#SPEEDS:0.000000=1.000000=0.000000=0;
#SCROLLS:0.000000=1.000000;
#KEYSOUNDS:;

//---------------dance-single - ---------------
#NOTES:
     dance-single:
     :
     Beginner:
     3:
     0,0,0,0,0:
// measure 0
0000
0000
0000
0000
,  // measure 1
0000
0000
0000
0000
,  // measure 2
1000
0000
0001
0000
,  // measure 3
0010
0000
0100
0000
,  // measure 4
0010
0000
0001
0000
,  // measure 5
1000
0000
0010
0000
,  // measure 6
0100
0000
0001
0000
,  // measure 7
0010
0000
0001
0000
,  // measure 8
0010
0000
0100
0000
,  // measure 9
1000
0000
0001
0000
,  // measure 10
0100
0100
0100
0000
,  // measure 11
0001
0001
0001
0000
,  // measure 12
1000
1000
1000
0000
,  // measure 13
0010
0010
0010
0000
,  // measure 14
0200
0000
0300
0000
,  // measure 15
1000
1000
1000
0000
,  // measure 16
2000
0000
3000
0000
,  // measure 17
0001
0001
0001
0000
,  // measure 18
0002
0000
0003
0000
,  // measure 19
0100
0100
0100
0000
,  // measure 20
0001
0000
1000
0000
,  // measure 21
0010
0010
0010
0000
,  // measure 22
0100
0100
0100
0000
,  // measure 23
1000
0000
0001
0000
,  // measure 24
1000
1000
1000
0000
,  // measure 25
0001
0000
0100
0000
,  // measure 26
0001
0001
0001
0000
,  // measure 27
1000
0000
0100
0000
,  // measure 28
0010
0010
0010
0000
,  // measure 29
0001
0000
0100
0000
,  // measure 30
0001
0000
0010
0000
,  // measure 31
0100
0000
1000
0000
,  // measure 32
0001
0000
0100
0000
,  // measure 33
0010
0000
0100
0000
,  // measure 34
0001
0000
1000
0000
,  // measure 35
0010
0000
1000
0000
,  // measure 36
0001
0000
0010
0000
,  // measure 37
0100
0000
1000
0000
,  // measure 38
0200
0000
0300
0000
,  // measure 39
1000
1000
1000
0000
,  // measure 40
0002
0000
0003
0000
,  // measure 41
0001
0001
0001
0000
,  // measure 42
0020
0000
0030
0000
,  // measure 43
0010
0010
0010
0000
,  // measure 44
0001
0000
1000
0000
,  // measure 45
0010
0010
0010
0000
,  // measure 46
0100
0100
0100
0000
,  // measure 47
0100
0000
0001
0000
,  // measure 48
0010
0000
0001
0000
,  // measure 49
1000
1000
1000
0000
,  // measure 50
0010
0000
0100
0000
,  // measure 51
0001
0001
0001
0000
,  // measure 52
0010
0000
0100
0000
,  // measure 53
1000
1000
1000
0000
,  // measure 54
0010
0000
0010
0000
,  // measure 55
1000
0000
0001
0000
,  // measure 56
0100
0000
0100
0000
,  // measure 57
0001
0000
1000
0000
,  // measure 58
0100
0000
0010
0000
,  // measure 59
0100
0000
1000
0000
,  // measure 60
0001
0000
0001
0000
,  // measure 61
0100
0000
0010
0000
,  // measure 62
0100
0000
0000
0000
;

//---------------dance-single - ---------------
#NOTES:
     dance-single:
     :
     Easy:
     7:
     0,0,0,0,0:
// measure 0
0000
0000
0000
0000
,  // measure 1
0000
0000
0000
0000
,  // measure 2
1000
1000
0001
0000
,  // measure 3
0010
0010
0100
0000
,  // measure 4
0010
0010
0001
0000
,  // measure 5
1000
1000
0010
0010
,  // measure 6
0100
0000
0001
0000
,  // measure 7
0010
0000
0100
0100
,  // measure 8
0100
0000
1000
0000
,  // measure 9
0020
0000
1000
0001
,  // measure 10
1030
1000
0001
0000
,  // measure 11
0010
0010
0100
1000
,  // measure 12
0100
0100
1000
0000
,  // measure 13
0100
0100
0010
0001
,  // measure 14
0002
0000
0003
0000
,  // measure 15
0001
1000
0010
0100
,  // measure 16
0002
0000
0003
0000
,  // measure 17
1000
0001
0010
0100
,  // measure 18
0020
0000
0030
0000
,  // measure 19
0010
0001
0010
0100
,  // measure 20
1000
0001
0100
0010
,  // measure 21
2000
3200
0320
0230
,  // measure 22
1300
1000
1000
0010
,  // measure 23
0100
0001
0100
0010
,  // measure 24
1000
0100
0010
0100
,  // measure 25
1000
0001
0100
1000
,  // measure 26
0100
0010
1000
0100
,  // measure 27
0010
0001
0100
0010
,  // measure 28
1000
0100
0010
0100
,  // measure 29
1000
0001
0100
0010
,  // measure 30
1000
0000
0001
0000
,  // measure 31
0010
0000
0100
0100
,  // measure 32
1000
0000
0001
0000
,  // measure 33
0020
0030
0010
0001
,  // measure 34
0100
0010
1000
0000
,  // measure 35
1000
0100
0010
0100
,  // measure 36
1000
0001
0100
0000
,  // measure 37
0001
1000
0100
0010
,  // measure 38
0100
1000
0001
0100
,  // measure 39
0010
0010
1000
0001
,  // measure 40
0010
0100
1000
0001
,  // measure 41
0100
0100
0001
1000
,  // measure 42
0020
0100
0001
0130
,  // measure 43
0001
0010
0100
1000
,  // measure 44
0001
0100
0010
1000
,  // measure 45
0200
2300
3020
0230
,  // measure 46
0301
0001
0001
0010
,  // measure 47
0100
1000
0100
1000
,  // measure 48
0001
0100
0010
1000
,  // measure 49
0100
0010
0001
0100
,  // measure 50
1000
0100
0001
1000
,  // measure 51
0100
0010
0001
0100
,  // measure 52
0001
0010
1000
0010
,  // measure 53
0100
1000
0001
0100
,  // measure 54
0001
0001
0001
1000
,  // measure 55
0100
1000
0001
0000
,  // measure 56
0100
0100
0100
0010
,  // measure 57
1000
0001
0010
0000
,  // measure 58
0010
0001
0010
0100
,  // measure 59
1000
0001
0100
0000
,  // measure 60
0001
0001
0001
1000
,  // measure 61
0100
0010
0100
1000
,  // measure 62
0001
0000
0000
0000
;

//---------------dance-single - ---------------
#NOTES:
     dance-single:
     :
     Medium:
     12:
     0,0,0,0,0:
// measure 0
0000
0000
0000
0000
,  // measure 1
0000
0000
0000
0000
,  // measure 2
1000
0000
0000
1000
0000
0000
2000
0000
0000
0000
0000
0000
3000
0000
0000
0000
,  // measure 3
0001
0000
0000
0001
0000
0000
0002
0000
0000
0000
0000
0000
0003
0000
0000
0000
,  // measure 4
0010
0000
0000
0010
0000
0000
0020
0000
0000
0000
0000
0000
0030
0000
0000
0000
,  // measure 5
0100
0100
0200
0300
,  // measure 6
0110
0000
0000
0100
0010
0000
0000
0001
,  // measure 7
0010
0000
0001
0100
,  // measure 8
0010
0000
0000
1000
0010
0000
0000
0100
,  // measure 9
0220
0330
0100
0001
,  // measure 10
1000
0000
0000
0100
0000
0000
0020
0000
0000
0000
0000
0000
0031
0000
0000
0000
,  // measure 11
0001
0000
0000
0100
0000
0000
0020
0000
0000
0000
0000
0000
1030
0000
0000
0000
,  // measure 12
1000
0000
0000
0001
0000
0000
0020
0000
0000
0000
0000
0000
0031
0000
0000
0000
,  // measure 13
0001
0000
0000
0100
0000
0000
0020
0000
0000
0000
0000
0000
1030
0000
0000
0000
,  // measure 14
0220
0000
0000
0330
,  // measure 15
0100
0000
0010
0000
1000
0001
0010
0000
,  // measure 16
0220
0000
0000
0330
,  // measure 17
0001
0000
0010
0000
0100
1000
0010
0000
,  // measure 18
0220
0000
0000
0330
,  // measure 19
0100
0000
0001
1000
0010
0000
0100
0000
,  // measure 20
0001
0000
1000
0000
0100
0010
0001
0000
,  // measure 21
2000
0000
3200
0000
0320
0000
0031
0010
,  // measure 22
0110
0000
0110
0000
0110
0000
1000
1000
,  // measure 23
0001
0000
0000
0100
0000
0000
0020
0000
0000
0000
0000
0000
1030
0000
0001
0000
,  // measure 24
0010
0000
0100
0000
1100
0000
0100
1000
,  // measure 25
0100
0000
0000
1000
0000
0000
0002
0000
0000
0000
0000
0000
1003
0000
1000
0000
,  // measure 26
0001
0000
0010
0010
0001
0000
0100
0000
,  // measure 27
0010
0000
0000
1000
0000
0000
0002
0000
0000
0000
0000
0000
0103
0000
0000
0000
,  // measure 28
0110
1000
0110
0100
,  // measure 29
0001
0000
0000
1000
0000
0000
0020
0000
0000
0000
0000
0000
0130
0000
0000
0000
,  // measure 30
0001
0000
0000
1000
0010
0000
0000
0100
,  // measure 31
0010
0000
1000
0001
,  // measure 32
0010
0000
0000
0100
1000
0000
0001
0000
,  // measure 33
0020
0030
0010
0001
,  // measure 34
0100
0000
0000
0010
0000
0000
2000
0000
0000
0000
0000
0000
3001
0000
0000
0000
,  // measure 35
0010
0000
0000
0001
0000
0000
2000
0000
0000
0000
0000
0000
3010
0000
0000
0000
,  // measure 36
1000
0000
0000
0100
0000
0000
0002
0000
0000
0000
0000
0000
0103
0000
0000
0000
,  // measure 37
1000
0000
0000
0001
0000
0000
2000
0000
0000
0000
0000
0000
3010
0000
0010
0000
,  // measure 38
2000
0001
0100
3010
,  // measure 39
1000
0000
0001
0000
0010
0100
1000
0000
,  // measure 40
0120
1000
0001
1030
,  // measure 41
0010
0000
1000
0000
0100
0010
0001
0000
,  // measure 42
2001
0100
0010
3100
,  // measure 43
0001
0000
0100
0010
1000
0000
0001
0000
,  // measure 44
0100
0000
0010
0000
1000
0001
0010
0000
,  // measure 45
0200
0000
2300
0000
3020
0000
0130
0001
,  // measure 46
1001
0000
1001
0000
1001
0000
1001
1000
,  // measure 47
0001
0000
0000
0100
0000
0000
0020
0000
0000
0000
0000
0000
1030
0000
0010
0000
,  // measure 48
0110
0000
0101
0000
1100
0000
0101
0001
,  // measure 49
1000
0000
0000
0100
0000
0000
0020
0000
0000
0000
0000
0000
0130
0000
0100
0000
,  // measure 50
1000
0000
0001
0001
0100
0000
0010
0010
,  // measure 51
0200
0000
0000
0302
0000
0000
2003
0000
0000
0000
0000
0000
3100
0000
0100
0000
,  // measure 52
0010
0000
0001
0001
0010
0000
0100
1000
,  // measure 53
0001
0000
0000
0100
0000
0000
0020
0000
0000
0000
0000
0000
0130
0000
0001
0000
,  // measure 54
0010
0000
0010
0000
0010
0000
0010
0001
,  // measure 55
0100
0000
0000
0010
0000
0000
0100
0000
0000
0000
0000
0000
0100
0000
0001
0000
,  // measure 56
1000
0000
0100
1000
0010
0000
0100
0001
,  // measure 57
1000
0000
0000
0100
0000
0000
0010
0000
0000
0000
0000
0000
0001
0000
0010
0000
,  // measure 58
0100
0000
1000
0010
0100
0000
0001
1000
,  // measure 59
0010
0000
0000
0100
0000
0000
0002
0000
0000
0000
0000
0000
1003
0000
1000
0000
,  // measure 60
0010
0000
0100
0100
0010
0000
1000
0010
,  // measure 61
0100
0000
0000
0001
0000
0000
1000
0000
0000
0000
0000
0000
0100
0000
0010
0000
;

//---------------dance-single - ---------------
#NOTES:
     dance-single:
     :
     Hard:
     15:
     0,0,0,0,0:
// measure 0
0000
0000
0000
0000
,  // measure 1
0000
0000
0000
0000
,  // measure 2
1000
0000
0000
0100
0000
0000
0020
0000
0000
0000
0000
0000
0031
0000
0000
0000
,  // measure 3
0001
0000
0000
0100
0000
0000
0020
0000
0000
0000
0000
0000
2030
0000
0000
0000
,  // measure 4
3020
0000
0000
0230
0000
0302
0000
2003
,  // measure 5
3100
0000
0000
0000
0000
0000
0100
0000
0000
0000
0000
0000
0010
0000
0100
0000
1000
0000
2002
0000
0000
3003
0000
0000
,  // measure 6
0110
0000
0000
0010
1000
0000
0010
0000
0100
0000
0001
0000
0010
0000
0100
0000
,  // measure 7
0110
0000
0000
0010
0100
0000
1000
0000
0001
0000
0100
0000
1000
0000
0100
0000
,  // measure 8
0110
0000
0000
0010
0100
0000
0001
0000
0010
0000
0100
0000
1000
0000
0001
0000
,  // measure 9
2002
0000
3003
1000
0010
0100
0001
1000
,  // measure 10
0100
0000
0010
0100
0000
1000
0100
0000
1000
0001
0100
0000
0010
0000
0100
0000
,  // measure 11
0001
0000
0010
0001
0000
0100
0001
0000
1000
0010
0100
0000
0001
0000
1000
0000
,  // measure 12
0010
0000
0100
1000
0000
0100
0001
0000
0010
0100
1000
0000
0001
0000
0100
0000
,  // measure 13
0010
0000
0100
0001
0000
1000
0100
0000
0010
0100
1000
0000
0002
0000
0003
0000
,  // measure 14
2001
0001
0100
0010
0100
0001
3100
1000
,  // measure 15
1010
0010
0110
0100
0101
0001
2002
3003
,  // measure 16
2100
0100
0001
0001
0010
0010
3100
0000
,  // measure 17
0011
0010
1100
0100
1001
0001
0022
0033
,  // measure 18
0210
0000
0000
0001
0000
0000
1000
0000
0000
0000
0001
0000
0301
0000
0000
0000
,  // measure 19
0001
0100
0010
0100
0002
0003
1000
0100
,  // measure 20
0010
0000
0100
0000
1000
0000
0001
0000
0100
0010
0100
0000
0001
1000
0001
1000
,  // measure 21
0002
0000
0203
0000
0320
0000
1030
0010
,  // measure 22
0210
0300
0000
0000
0201
0300
0000
0000
1200
0300
0000
0000
0101
0000
0001
0000
,  // measure 23
2000
0000
0000
3020
0000
0000
0230
0000
0000
0000
0000
0000
0301
0000
0100
0000
,  // measure 24
0120
0030
0000
0000
1000
0000
0100
0000
0120
0030
0000
0000
0011
0000
0010
0000
,  // measure 25
0200
0000
0000
2300
0000
0000
3001
0000
0000
0001
1000
0000
1000
0010
0100
0010
,  // measure 26
2000
0000
3000
0000
0001
0010
0100
0010
0002
0000
0003
0000
1000
0001
0010
0001
,  // measure 27
2000
0000
0000
3200
0000
0000
0320
0000
0000
0031
0010
0000
0100
0000
1000
0000
,  // measure 28
1010
1000
0001
0010
0011
0010
0100
1000
,  // measure 29
0002
0000
0000
0203
0000
0000
0310
0000
0010
1000
0001
0000
0001
0010
0100
0010
,  // measure 30
0011
0000
0000
0010
0100
0000
1000
0000
0001
0000
0100
0000
0010
0000
0100
0000
,  // measure 31
0110
0000
0000
0010
0100
0000
0001
0000
1000
0000
0100
0000
0010
0000
0100
0000
,  // measure 32
1100
0000
0000
0100
1000
0000
0001
0000
0200
0000
0000
0000
0320
0000
0030
0000
,  // measure 33
0120
0000
1030
0010
0200
0000
0000
0000
0301
0000
0010
0000
0100
0000
0010
0000
,  // measure 34
0011
0000
0001
1000
0000
1000
0010
0100
0020
0000
0000
0000
1030
0000
0010
0000
,  // measure 35
0100
0000
0001
0100
0000
0100
0010
1000
0200
0000
0000
0000
0310
0000
0100
0000
,  // measure 36
1100
0000
1000
0100
0000
0100
0001
0000
0001
0100
0010
0000
1000
0000
0001
0000
,  // measure 37
0011
0000
0001
0010
0000
0010
0100
0000
1000
0001
0100
0000
0020
0000
0030
0000
,  // measure 38
1020
0100
0001
0100
1000
0100
1030
0000
,  // measure 39
1010
0010
0110
0100
0101
0001
0021
0030
,  // measure 40
0120
0000
0001
1000
0001
1000
0031
0000
,  // measure 41
0001
0100
0010
1000
0001
0010
0200
0300
,  // measure 42
2100
0001
0010
3001
,  // measure 43
0001
0010
0100
1000
0020
0030
0010
0100
,  // measure 44
0001
0000
0001
0010
0100
0000
0100
1000
0001
0100
0010
0000
0100
0001
1000
0100
,  // measure 45
2000
0000
3200
0000
0320
0000
0031
0010
,  // measure 46
0210
0300
0000
0000
1200
0300
0000
0000
0201
0300
0000
0000
1001
0000
0001
0000
,  // measure 47
0200
0000
0000
0320
0000
0000
2030
0000
0000
0000
0000
0000
3100
0000
0010
0000
,  // measure 48
0210
0300
1000
0001
0100
0000
0010
0000
0210
0300
0100
0001
1000
0000
0100
0000
,  // measure 49
2000
0000
0000
3002
0000
0000
0203
0000
0300
0010
0100
0000
0001
1000
0001
0100
,  // measure 50
0010
0000
0100
0010
1000
0001
0010
0100
1000
0000
1000
0001
0100
0010
1000
0001
,  // measure 51
0020
0000
0000
0230
0000
0000
2300
0000
0000
3001
0100
0000
0010
0100
0001
1000
,  // measure 52
1200
0300
1000
0010
0100
0001
0010
0100
0210
0300
0100
1000
0001
0100
0010
1000
,  // measure 53
0002
0000
0000
0203
0000
0000
0320
0000
0000
0000
0000
0000
1030
0000
0010
0000
,  // measure 54
0200
0300
0000
0000
0200
0300
0000
0000
0200
0300
0000
0000
0001
0000
1000
0000
,  // measure 55
0200
0000
0000
0320
0000
0000
0230
0000
0300
0000
0000
0000
1000
0000
0001
0000
,  // measure 56
0200
0300
0000
0000
0001
0000
0010
0000
0200
0300
0000
0000
1000
0000
0010
0000
,  // measure 57
0200
0000
0000
0002
0300
0000
2003
0000
3000
0000
0000
0000
0100
0000
1000
0000
,  // measure 58
0020
0030
0000
0000
0100
0000
0001
0000
0020
0030
0000
0000
0100
0000
1000
0000
,  // measure 59
0002
0000
0000
0203
0000
0000
0320
0000
0030
0000
0000
0000
1000
0000
0001
0000
,  // measure 60
0020
0030
0000
0000
0001
0000
1000
0000
0020
0030
0000
0000
0100
0000
0010
0000
,  // measure 61
2000
0000
0000
3002
0000
0000
0023
0000
0030
0000
0000
0000
0100
0000
0020
0000
,  // measure 62
0030
0000
0000
0000
;
