#TITLE:Knock Knock! ... Boom! Boom!;
#SUBTITLE:;
#ARTIST:Nicole Azzopardi;
#MUSIC:Knock Knock! ... Boom! Boom!.ogg;
#BANNER:Knock Knock! ... Boom! Boom!.png;
#BACKGROUND:Knock Knock! ... Boom! Boom!-bg.png;
#LYRICSPATH:;
#CDTITLE:;
#SAMPLESTART:54.465;
#SAMPLELENGTH:15.828999999999994;
#OFFSET:-0.0;
#BPMS:0.000000=61.475000,
24.000000=122.950000
;
#STOPS:;
#TIMESIGNATURES:0.000000=4=4;
#BGCHANGES:;
#FGCHANGES:;
#ATTACKS:;
#SPEEDS:0.000000=1.000000=0.000000=0;
#SCROLLS:0.000000=1.000000;
#KEYSOUNDS:;

//---------------dance-single - ---------------
#NOTES:
     dance-single:
     :
     Beginner:
     4:
     0,0,0,0,0:
// measure 0
0000
0000
0000
0000
,  // measure 1
0000
0000
0000
0000
,  // measure 2
1000
0000
0001
0000
,  // measure 3
1000
0000
0010
0000
,  // measure 4
0010
0000
1000
0000
,  // measure 5
0001
0000
1000
0000
,  // measure 6
0100
0100
0100
0000
,  // measure 7
0001
0001
0001
0000
,  // measure 8
1000
1000
1000
0000
,  // measure 9
0010
0010
0010
0000
,  // measure 10
1000
1000
1000
0000
,  // measure 11
0001
0001
0001
0000
,  // measure 12
0010
0010
0010
0000
,  // measure 13
0100
0100
0100
0000
,  // measure 14
0002
0003
0001
0000
,  // measure 15
2000
3000
1000
0000
,  // measure 16
0200
0300
0100
0000
,  // measure 17
0020
0030
0010
0000
,  // measure 18
2000
3000
1000
0000
,  // measure 19
0002
0003
0001
0000
,  // measure 20
0200
0300
0100
0000
,  // measure 21
0002
0003
0001
0000
,  // measure 22
1001
0000
0000
1001
,  // measure 23
1001
0000
0000
0000
,  // measure 24
2000
3000
1000
0000
,  // measure 25
0200
0300
0100
0000
,  // measure 26
0110
0000
0000
0110
,  // measure 27
0110
0000
0000
0000
,  // measure 28
0020
0030
0010
0000
,  // measure 29
0200
0300
0100
0000
,  // measure 30
1000
1000
1000
0000
,  // measure 31
0001
0001
0001
0000
,  // measure 32
1000
1000
1000
0000
,  // measure 33
0010
0010
0010
0000
,  // measure 34
0100
0100
0100
0000
,  // measure 35
0001
0001
0001
0000
,  // measure 36
2000
3000
1000
0000
,  // measure 37
0002
0003
0001
0000
,  // measure 38
0100
0100
0100
0000
,  // measure 39
0001
0001
0001
0000
,  // measure 40
0020
0030
0010
0000
,  // measure 41
0200
0300
0100
0000
,  // measure 42
0100
0100
0100
0000
,  // measure 43
1000
1000
1000
0000
,  // measure 44
0001
0001
0001
0000
,  // measure 45
0010
0010
0010
0000
,  // measure 46
0110
0000
0000
0110
,  // measure 47
0110
0000
0000
0000
,  // measure 48
0020
0030
0010
0000
,  // measure 49
0002
0003
0001
0000
,  // measure 50
2002
0000
0000
3003
;

//---------------dance-single - ---------------
#NOTES:
     dance-single:
     :
     Easy:
     7:
     0,0,0,0,0:
// measure 0
0000
0000
0000
0000
,  // measure 1
0000
0000
0000
0000
,  // measure 2
0200
0310
0002
1003
,  // measure 3
2000
3001
0020
0130
,  // measure 4
2000
3001
0020
0130
,  // measure 5
2000
0000
3001
0000
0002
0000
2000
3003
,  // measure 6
1000
0010
0100
0101
,  // measure 7
0100
0010
1000
1010
,  // measure 8
1000
0001
0010
0110
,  // measure 9
0010
0001
1000
1001
,  // measure 10
0001
0100
1000
1001
,  // measure 11
1000
0100
0001
1001
,  // measure 12
1000
0001
0010
0110
,  // measure 13
0010
0001
0100
0110
,  // measure 14
0010
0100
0010
1000
,  // measure 15
0001
0010
0100
0010
,  // measure 16
0001
0100
0010
1000
,  // measure 17
0001
0100
1001
0110
,  // measure 18
0010
0001
0100
0010
,  // measure 19
1000
0001
1000
0010
,  // measure 20
0100
0100
0001
0010
,  // measure 21
0001
1000
0100
1000
,  // measure 22
1001
1000
0100
1100
,  // measure 23
0110
0010
0001
0100
,  // measure 24
2000
3100
0002
0103
,  // measure 25
2000
3010
0002
0013
,  // measure 26
0011
0010
0100
0110
,  // measure 27
1100
1000
0001
0100
,  // measure 28
0020
1030
2000
3001
,  // measure 29
0002
0103
0200
0310
,  // measure 30
0110
0110
0110
1000
,  // measure 31
1001
1001
1001
1010
,  // measure 32
0110
0110
0110
1000
,  // measure 33
1001
1001
1001
0001
,  // measure 34
0101
0101
0110
1000
,  // measure 35
1010
1010
0110
0101
,  // measure 36
0002
1003
2000
3010
,  // measure 37
0020
0130
0200
0301
,  // measure 38
0101
1001
0101
1000
,  // measure 39
1010
1001
1010
1100
,  // measure 40
0200
1300
2000
3010
,  // measure 41
0020
0130
0200
0301
,  // measure 42
0101
0101
0011
0001
,  // measure 43
1001
1010
0110
1010
,  // measure 44
1001
1001
1001
1000
,  // measure 45
1100
0110
1100
1001
,  // measure 46
0101
0001
0100
0101
,  // measure 47
0110
0010
1000
0100
,  // measure 48
2000
3010
0002
0013
,  // measure 49
2000
3001
0002
1003
,  // measure 50
2002
0000
0000
3003
;

//---------------dance-single - ---------------
#NOTES:
     dance-single:
     :
     Medium:
     12:
     0,0,0,0,0:
// measure 0
0000
0000
0000
0000
,  // measure 1
0000
0000
0000
0000
,  // measure 2
2000
3002
0023
0032
,  // measure 3
0203
0320
2030
3200
,  // measure 4
2300
3020
0230
0302
,  // measure 5
2003
0000
3020
0000
0230
0300
2002
3003
,  // measure 6
1000
0000
0010
0000
0100
0010
1000
1000
,  // measure 7
0001
0000
0010
0000
0100
0010
0001
0001
,  // measure 8
1000
0000
0001
0000
0100
0001
1000
1000
,  // measure 9
0001
0000
1000
0000
0100
1000
0001
0001
,  // measure 10
0010
0000
0100
0000
1000
0001
0100
0100
,  // measure 11
0010
0000
0100
0000
0001
1000
0100
0100
,  // measure 12
0010
0000
0100
0000
1000
0010
0100
0100
,  // measure 13
0001
0000
0010
0000
0100
0010
0001
0001
,  // measure 14
2000
0000
3010
0200
0000
0000
0310
2000
,  // measure 15
0000
3020
0000
0230
0301
1000
0100
1000
,  // measure 16
2000
0000
3002
0203
0000
0302
0000
0023
,  // measure 17
0130
0000
0010
0000
0010
0100
0001
0100
,  // measure 18
2000
0000
3100
0020
0000
0000
0130
2000
,  // measure 19
0000
3002
0000
0103
1000
0100
0001
0001
,  // measure 20
0020
0000
0130
2000
0000
3020
0000
2030
,  // measure 21
0000
3001
0010
0000
0100
0010
0001
1000
,  // measure 22
1001
0000
1000
0000
0100
0000
1000
0001
,  // measure 23
1001
0000
0001
0000
0010
0000
0100
1000
,  // measure 24
2000
0000
0000
0010
0000
0000
3010
0000
0200
0000
0300
0000
0110
0000
0100
0000
,  // measure 25
0002
0000
0000
0100
0000
0000
0103
0000
0200
0000
0300
0000
0010
0000
0100
0000
,  // measure 26
0110
0000
0010
0000
1000
0000
1000
0001
,  // measure 27
1001
0000
0001
0000
0010
0000
0100
1000
,  // measure 28
2000
0000
0000
0001
0000
0000
3001
0000
0020
0000
0000
0000
0130
0000
0000
0000
,  // measure 29
0200
0000
0000
1000
0000
0000
1300
0000
0020
0000
0000
0000
0130
0000
0000
0000
,  // measure 30
0110
0000
0000
0110
0000
0000
0001
0000
2002
0000
0000
0000
3003
0000
1000
0000
,  // measure 31
0010
0100
0010
1000
0010
0000
1010
0000
,  // measure 32
1001
0000
0000
1001
0000
0000
1000
0000
0220
0000
0000
0000
0330
0000
0100
0000
,  // measure 33
0010
0100
1000
0001
1000
0100
1001
0000
,  // measure 34
1100
0000
0000
1100
0000
0000
0001
0000
0022
0000
0000
0000
0033
0000
0001
0000
,  // measure 35
0010
0100
0010
0100
0010
0000
0011
0000
,  // measure 36
0002
0000
0000
1000
0000
0000
1003
0000
2000
0000
0000
0000
3100
0000
0000
0000
,  // measure 37
0002
0000
0000
0100
0000
0000
0103
0000
0200
0000
0000
0000
0310
0000
0000
0000
,  // measure 38
1100
0000
0000
1100
0000
0000
1000
0000
2020
0000
0000
0000
3030
0000
1000
0000
,  // measure 39
0010
1000
0100
1000
0010
1000
1010
0000
,  // measure 40
2000
0000
0000
0001
0000
0000
3001
0000
0002
0000
0000
0000
0013
0000
0000
0000
,  // measure 41
0020
0000
0000
0100
0000
0000
0130
0000
0200
0000
0000
0000
1300
0000
0000
0000
,  // measure 42
1010
0000
0000
1010
0000
0000
0001
0000
0202
0000
0000
0000
0303
0000
0001
0000
,  // measure 43
0100
0001
0010
0100
1000
0000
1010
0000
,  // measure 44
1100
0000
0000
1100
0000
0000
0100
0000
0220
0000
0000
0000
0330
0000
0100
0000
,  // measure 45
0010
0100
1000
0001
0100
0010
0110
0000
,  // measure 46
0101
0000
0001
0000
0100
0000
0010
0100
,  // measure 47
0101
0001
1000
0100
,  // measure 48
0020
0000
0000
0001
0000
0000
0031
0000
0020
0000
0000
0000
1030
0000
0000
0000
,  // measure 49
0020
0000
0000
0001
0000
0000
0130
0000
0100
0000
1000
0000
0010
0000
0100
0000
,  // measure 50
0220
0000
0000
0330
;

//---------------dance-single - ---------------
#NOTES:
     dance-single:
     :
     Hard:
     15:
     0,0,0,0,0:
// measure 0
0000
0000
0000
0000
,  // measure 1
0000
0000
0000
0000
,  // measure 2
2000
3000
1000
0020
0030
0010
0100
0002
0003
0001
0100
0020
0030
0010
1000
0001
,  // measure 3
0020
0030
0010
0200
0000
2300
0000
3020
0000
0000
0000
0130
0001
0100
0010
1000
,  // measure 4
0200
0000
1300
0020
0030
0010
0100
2000
3000
1000
0100
0002
0003
0001
0010
0100
,  // measure 5
2000
3000
1000
0010
0000
0100
0000
0002
0000
0000
0000
1003
2002
0000
3003
0000
,  // measure 6
1000
0000
0000
0010
0100
0000
0001
0000
0100
0000
0010
0000
1000
0000
0001
0000
,  // measure 7
1001
0000
0000
1000
0100
0000
0010
0000
0001
0000
0010
0000
0100
0000
1000
0000
,  // measure 8
1001
0000
0000
0001
0010
0000
0100
0000
0010
0000
0001
0000
0100
0000
0010
0000
,  // measure 9
0110
0000
0000
0010
0100
0000
0001
0000
1000
0000
0100
0000
0010
0000
0100
0000
,  // measure 10
1100
0000
0000
0100
1000
0000
0001
0000
0100
0000
0010
0000
1000
0000
0001
0000
,  // measure 11
1001
0000
0000
0001
1000
0000
0100
0000
0001
0000
0100
0000
1000
0000
0001
0000
,  // measure 12
1001
0000
0000
0001
0010
0000
0100
0000
1000
0000
0010
0000
0100
0000
0001
0000
,  // measure 13
1001
0000
0000
1000
0001
0000
0100
0000
1000
0000
0100
0000
0010
0000
1000
0000
,  // measure 14
0002
1003
0200
0310
0002
0013
0110
0010
,  // measure 15
0002
0103
2000
3100
0002
1003
1001
1000
,  // measure 16
2000
3001
0020
0130
2000
3100
1100
1000
,  // measure 17
0002
0000
0103
0000
0020
0000
1030
0000
0220
0330
0000
0000
2002
3003
0000
0000
,  // measure 18
2000
3001
0020
0130
2000
3001
1001
0001
,  // measure 19
2000
3100
0002
0103
2000
3010
1010
0010
,  // measure 20
0200
0301
0020
0130
2000
3001
1001
0001
,  // measure 21
0020
0130
2000
3100
0002
0103
2000
3010
,  // measure 22
0110
0000
0100
0010
0000
0100
0000
0001
0100
0000
0010
0000
1010
0000
0010
0000
,  // measure 23
0110
0000
0100
0001
0000
0010
0000
0100
1000
0000
0100
0000
0101
0000
0100
0000
,  // measure 24
2000
0000
0000
0010
0000
0000
3010
0000
0200
0000
0000
0000
0301
0000
0100
0000
,  // measure 25
0020
0000
0000
1000
0000
0000
1030
0000
0200
0000
0000
0000
1300
0000
0001
0000
,  // measure 26
1001
0000
1000
0010
0000
0100
0000
0001
0010
0000
0100
0000
0101
0000
0100
0000
,  // measure 27
1100
0000
1000
0010
0000
0100
0000
0010
1000
0000
0001
0000
0010
0000
0100
0000
,  // measure 28
2000
0000
0000
0001
0000
0000
3001
0000
0020
0000
0000
0000
0130
0000
0000
0000
,  // measure 29
0200
0000
0000
0010
0000
0000
0310
0000
0020
0000
0000
0000
0031
0000
0000
0000
,  // measure 30
1100
0000
0000
0100
1000
0000
0001
0000
1001
0000
0000
0000
1000
0000
0010
0000
,  // measure 31
0100
0010
0100
0010
2000
3000
1001
0000
,  // measure 32
0101
0000
0000
0100
0001
0000
0100
0000
0101
0000
0000
0000
0001
0000
0010
0000
,  // measure 33
0100
0010
0010
0001
1000
0010
1010
0010
,  // measure 34
0110
0000
0000
0100
0010
0000
0100
0000
0101
0000
0000
0000
0001
0000
0010
0000
,  // measure 35
0100
0010
0100
0010
0200
0300
1100
1000
,  // measure 36
0002
0000
0000
0010
0000
0000
0013
0000
0020
0000
0000
0000
0130
0000
1000
0000
,  // measure 37
0200
0000
0000
1000
0000
0000
1300
0000
2000
0000
0000
0000
3010
0000
0100
0000
,  // measure 38
0101
0000
0000
0100
0001
0000
0100
0000
0101
0000
0000
0000
0001
0000
0100
0000
,  // measure 39
1000
0100
0010
1000
0001
0010
0110
0010
,  // measure 40
0002
0000
0000
1000
0000
0000
1003
0000
0020
0000
0000
0000
0130
0000
0010
0000
,  // measure 41
2000
0000
0000
0001
0000
0000
3001
0000
0020
0000
0100
0000
0031
0000
0100
0000
,  // measure 42
2100
0000
0000
3100
1000
0000
0100
0000
2001
0000
0000
0000
3001
0000
0010
0000
,  // measure 43
0100
1000
0010
0100
0001
1000
1001
1000
,  // measure 44
1002
0000
0000
1003
0001
0000
0100
0000
0110
0000
0000
0000
0100
0000
0001
0000
,  // measure 45
0010
0100
0010
0001
1000
0010
0110
0010
,  // measure 46
1010
0000
0010
1000
0000
0001
0000
0010
0100
0000
0010
0000
0011
0000
0001
0000
,  // measure 47
0011
0000
0010
0100
0000
1000
0000
0100
0010
0000
0100
0000
1100
0000
0100
0000
,  // measure 48
2000
0000
0000
0100
0000
0000
3100
0000
0020
0000
0000
0000
0130
0000
1000
0000
,  // measure 49
0002
0000
0000
0100
0000
0000
0103
0000
0010
0000
0100
0000
0001
0000
0100
0000
,  // measure 50
0220
0000
0000
0330
;
