
//----- song ID: pier -----//
#TITLE:Je N'ai Que Mon Ame (LIVE) (LONG);
#ARTIST:Natasha St-Pier;
#BANNER:Je N'ai Que Mon Ame (LIVE) (LONG).png;
#BACKGROUND:Je N'ai Que Mon Ame (LIVE) (LONG)-bg.png;
#MUSIC:Je N'ai Que Mon Ame (LIVE) (LONG).mp3;
#OFFSET:-0.22;
#SAMPLESTART:94.7;
#SAMPLELENGTH:17.0;
#DISPLAYBPM:63-66;
#BPMS:0=63,68=65,134=66;
;

//---------------dance-single - D.U.S ----------------
#NOTES:
     dance-single:
     :
     Challenge:
     16:
     :
0000
0000
0000
0000
,
2000
3100
0002
0013
,
0200
0010
1000
0301
,
2000
3001
0200
0310
,
0002
0100
1000
0103
,
2000
3001
0020
1030
,
0200
1000
0010
0301
,
0002
1003
0020
0130
,
0200
1000
0001
1300
,
1000
0100
1000
0100
1000
0100
0010
0001
0010
0001
0010
0001
,
0100
0001
0100
0001
0100
0001
1000
0010
1000
0010
1000
0010
,
0100
0010
0100
0010
0100
0010
0100
0001
0100
0001
0100
0001
,
0010
0100
0010
0100
0010
0100
1000
0100
1000
0100
1000
0100
,
1000
0100
0001
0100
1000
0100
0010
0001
0010
1000
0010
0001
,
0100
0010
1000
0100
0010
0001
1000
0010
0100
0001
0010
0100
,
1000
0001
0100
0010
0001
0010
1000
0100
0010
0001
0100
1000
,
0100
0001
0010
0100
1000
0010
0100
0001
1000
1010
0101
1010
,
0010
1000
0100
0010
0001
0000
0001
0100
0010
1000
0100
0000
0100
0010
0001
0100
0010
0000
0010
1000
0100
0010
1000
0000
,
1000
0010
0100
1000
0001
0000
0001
0100
1000
0100
0001
0000
0010
0100
1000
0010
0100
0000
0001
0100
1000
0100
0001
0000
,
0001
0010
0100
1000
0010
0000
0010
0100
1000
0100
0010
0000
0010
1000
0100
0001
0100
0000
0100
1000
0010
0100
0001
0000
,
0001
0010
0100
1000
0010
0000
0010
0100
0001
0100
0010
0000
0010
1000
0100
1000
0010
0000
0010
0100
1000
0100
0010
0000
,
0010
1000
0100
0010
0100
0000
0100
1000
0010
0100
0010
0000
0010
1000
0001
0100
0010
0000
0010
1000
0010
0100
0010
0000
,
0010
0100
0001
0010
0001
0000
0001
0100
0010
1000
0010
0000
0010
0100
1000
0100
0010
0000
0010
1000
0001
0010
0100
0000
,
0100
1000
0010
0100
1000
0000
1000
0100
0001
0010
0100
0000
0100
1000
0001
0010
0001
0000
0001
0100
0010
0100
1000
0000
,
1000
0100
0010
0100
0001
0000
0001
1000
0010
0100
0001
0000
0001
1000
0001
1000
0001
1000
0001
1000
0001
1000
0001
1000
,
0001
1000
0001
1000
0001
0000
1001
0000
0110
0000
0011
0000
0001
1000
0001
1000
0010
0000
0010
0100
0010
0100
1000
0000
,
1000
0100
1000
0100
0001
0000
0001
1000
0001
1000
0010
0000
0010
1000
0010
1000
0100
0000
0100
0010
0100
0010
0001
0000
,
0001
1000
0001
1000
0100
0000
0100
0010
0100
0010
0001
0000
0001
0100
0001
0100
0010
0000
0010
1000
0010
1000
0100
0000
,
0100
0010
0100
0010
1000
0000
1000
0010
1000
0010
0100
0000
0100
0010
0100
0010
0001
0000
0001
1000
0001
1000
0010
0000
,
0010
0100
0010
0100
0001
0000
0001
0010
0001
0010
0100
0000
0100
0010
0100
0010
0001
0000
0001
0100
0001
0100
0010
0000
,
0010
0100
0010
0100
0100
0000
0100
0001
0100
0001
0010
0000
0010
0100
0010
0100
1000
0000
1000
0010
1000
0010
0100
0000
,
0100
0001
0100
0001
0010
0000
0010
0001
0010
0001
0100
0000
0100
1000
0100
1000
0100
0000
0100
0001
0100
0001
0100
0000
,
0100
0010
0100
0010
1000
0000
1000
0100
1000
0100
0010
0000
0010
0001
0010
0001
0100
0000
0100
0010
0100
0010
1000
0000
,
1000
0010
0100
0001
0010
0000
0011
0000
1001
0000
1100
0000
0001
1000
0010
0100
0001
1000
0010
0100
0001
1000
0010
0100
,
0001
1000
0010
0100
0001
1000
0010
0100
0001
1000
0010
0100
0001
0010
0100
1000
0010
0100
0001
0010
0100
1000
0010
0100
,
0001
0010
0100
1000
0010
0100
0001
0010
0100
1000
0010
0100
0010
1000
0100
0010
0001
0100
0010
1000
0100
0010
0001
0100
,
0010
1000
0100
0010
0001
0100
0010
1000
0100
0010
0001
0100
0001
1000
0100
0010
0001
1000
0001
1000
0100
0010
0001
1000
,
0001
1000
0100
0010
0001
1000
0001
1000
0100
0010
0001
1000
0010
0100
0010
0001
0010
1000
0010
0100
0010
0001
0010
1000
,
0010
0100
0010
0001
0010
1000
0010
0100
0010
0001
0010
1000
0100
1000
0001
1000
0010
1000
0100
1000
0001
1000
0010
1000
,
0100
1000
0001
1000
0010
1000
0100
1000
0001
1000
0010
1000
0100
1000
0100
1000
0010
1000
0100
1000
0100
1000
0010
1000
,
0100
1000
0100
1000
0010
1000
0100
1000
0100
1000
0010
1000
0001
0100
0001
0100
0010
0100
0001
0100
0001
0100
0010
0100
,
0001
0100
0001
0100
0010
0100
0001
0100
0001
0100
0010
0100
0001
1000
0001
0100
0010
1000
0001
1000
0001
0100
0010
1000
,
0001
1000
0001
0100
0010
1000
0001
1000
0001
0100
0010
1000
0100
1000
0100
0010
0100
1000
0100
1000
0100
0010
0100
1000
,
0100
1000
0100
0010
0100
1000
0100
1000
0100
0010
0100
1000
1001
0000
0101
0000
1001
0000
1010
0000
1001
0000
0101
0000
,
1001
0110
1010
1001
0110
1001
0220
0000
0000
0330
0000
0000
;
