#VERSION:0.83;
#TITLE:JUSTIFY MY LOVE;
#SUBTITLE:(D.U.S Special);
#ARTIST:TESS;
#TITLETRANSLIT:;
#SUBTITLETRANSLIT:;
#ARTISTTRANSLIT:;
#GENRE:;
#CREDIT:;
#ORIGIN:;
#MUSIC:JUSTIFY MY LOVE (D.U.S Special).ogg;
#BANNER:JUSTIFY MY LOVE (D.U.S Special).png;
#BACKGROUND:JUSTIFY MY LOVE (D.U.S Special)-bg.png;
#JACKET:JUSTIFY MY LOVE (D.U.S Special)-jacket.png;
#DISCIMAGE:;
#CDIMAGE:;
#SELECTABLE:YES;
#LYRICSPATH:;
#CDTITLE:cdtitle-dancemania.png;
#SAMPLESTART:53.714;
#SAMPLELENGTH:16.572000000000003;
#BPMS:0.000000=140.000000;
#STOPS:;
#WARPS:;
#DELAYS:;
#SPEEDS:0.000000=1.000000=0.000000=0;
#SCROLLS:0.000000=1.000000;
#TICKCOUNTS:;
#TIMESIGNATURES:0.000000=4=4;
#LABELS:;
#COMBOS:;
#FAKES:;
#BGCHANGES:;
#FGCHANGES:;
#ATTACKS:;
#KEYSOUNDS:;

//---------------dance-single - ---------------
#NOTEDATA:;
#CHARTNAME:;
#CHARTSTYLE:;
#CREDIT:;
#STEPSTYPE:dance-single;
#DESCRIPTION:;
#DIFFICULTY:Challenge;
#METER:17;
#METERF:17;
#RADARVALUES:0,0,0,0,0;
#NOTES:
// measure 0
0000
0000
0000
0000
,  // measure 1
0001
0100
0000
0010
0000
1000
0000
0001
0000
0010
0000
0100
0000
1000
0001
0100
,  // measure 2
0010
0100
0000
0001
0000
0010
0000
0100
0000
1000
0000
0001
0000
0100
0010
1000
,  // measure 3
0001
0010
0000
0100
0000
1000
0000
0010
0000
0100
0000
1000
0100
0001
0010
0100
,  // measure 4
1100
1000
0000
0001
0000
0100
0010
1000
0001
0010
0100
0010
0001
1000
0010
0100
,  // measure 5
0020
0000
2030
3200
0000
1000
1000
1300
,  // measure 6
0001
0100
0000
1010
0000
1100
0000
0011
0000
1001
0000
1010
0000
1000
0010
0100
,  // measure 7
0001
0010
0000
0110
0000
1100
0000
1010
0000
0110
0000
0101
0000
0100
0001
0010
,  // measure 8
0100
1000
0000
1010
0000
0101
0000
0011
0000
1100
0000
1001
0000
1000
0100
0010
,  // measure 9
0001
1000
0000
1010
0000
0101
0000
0011
0000
1100
0000
1001
0000
0001
0100
0010
,  // measure 10
1000
0000
0010
0000
0001
0000
0010
0100
0001
0000
0010
0000
1000
0000
0010
0100
,  // measure 11
1000
0000
0010
0000
0001
0000
0010
0100
0001
0000
0020
0000
0230
0000
2300
0000
,  // measure 12
3001
0000
0100
0000
0010
0000
1000
0100
0010
0000
0001
0000
0100
0000
0010
1000
,  // measure 13
0100
0000
0010
0000
0001
0000
0100
0010
1000
0000
0002
0000
2003
0000
3020
0000
,  // measure 14
1030
0000
0010
0000
0001
0000
0010
0100
0001
0000
0010
0000
1000
0000
0010
0100
,  // measure 15
1000
0000
0010
0000
0001
0000
0010
0100
0001
0000
0020
0000
0230
0000
2300
0000
,  // measure 16
3001
0000
0100
0000
0010
0000
1000
0100
0010
0000
0001
0000
0100
0000
0010
1000
,  // measure 17
0100
0000
0010
0000
0001
0000
0100
0010
1000
0000
0002
0000
2003
0000
3020
0000
,  // measure 18
1030
1000
0010
0000
0001
0001
0010
0000
1000
1000
0100
0000
0001
0001
0100
0000
,  // measure 19
1000
1000
0001
0000
0001
0001
0100
0000
0010
0010
0001
0000
0010
0010
1000
0000
,  // measure 20
0001
0001
0010
0000
0100
0100
1000
0000
0010
0010
0100
0000
0001
0001
0010
0000
,  // measure 21
0021
0000
0000
0000
1000
0030
0010
0000
0011
0000
0010
0000
0110
0000
0100
0000
,  // measure 22
1000
0001
0000
0011
0000
0110
0000
1100
0000
1010
0000
0101
0000
1000
0001
1000
,  // measure 23
0100
0010
0000
0011
0000
1001
0000
1010
0000
0110
0000
0101
0000
0100
0001
0010
,  // measure 24
0100
1000
0000
1100
0000
0011
0000
1010
0000
0101
0000
1001
0000
0001
0010
0100
,  // measure 25
1000
0010
0000
0110
0000
0101
0000
1001
0000
1100
0000
0110
0000
0100
0010
0001
,  // measure 26
0100
0010
0000
1010
0000
1001
0000
0011
0000
1001
0000
1100
0000
0100
1000
0001
,  // measure 27
0100
0010
0000
0110
0000
1010
0000
1001
0000
0011
0000
0110
0000
0100
0010
0001
,  // measure 28
0100
0010
0000
1010
0000
1001
0000
0011
0000
0110
0000
1100
0000
0100
1000
0001
,  // measure 29
0100
1000
0000
1100
0000
0101
0000
1001
0000
1100
0000
0101
0000
0001
0100
1000
,  // measure 30
0001
0100
0001
0100
1000
0100
0001
0100
0010
0100
0001
0100
1000
0100
0001
0100
,  // measure 31
0220
0330
0110
0010
1010
1000
1001
0001
,  // measure 32
0001
0010
0000
0110
0000
1100
0000
1001
0000
0101
0000
0110
0000
0100
0010
1000
,  // measure 33
0001
0010
0000
0110
0000
1100
0000
1010
0000
0110
0000
1100
0000
1000
0100
0010
,  // measure 34
1000
0001
0000
0011
0000
1010
0000
0011
0000
0101
0000
1100
0000
1000
0100
0010
,  // measure 35
1000
0001
0000
0011
0000
0110
0000
1100
0000
1001
0000
0101
0000
0100
0001
0010
,  // measure 36
0100
1000
0000
1100
0000
1001
0000
0011
0000
1001
0000
1010
0000
1000
0010
0100
,  // measure 37
0001
0010
0000
0110
0000
1100
0000
1001
0000
0101
0000
0110
0000
0100
0010
1000
,  // measure 38
0001
0010
0000
0011
0000
0110
0000
1100
0000
1010
0000
0110
0000
0100
0010
1000
,  // measure 39
0001
0010
0000
0110
0000
1100
1000
0001
0101
0000
0100
0000
0110
0000
0010
0000
,  // measure 40
1000
0010
0100
0001
0010
0100
1000
0010
0100
1000
0100
0010
1000
0100
0010
0001
,  // measure 41
0010
0100
1000
0010
0100
1000
0100
0001
0010
0100
0001
0100
0010
0001
0100
0010
,  // measure 42
1000
0001
0010
1000
0010
0001
1000
0010
0001
0010
1000
0100
0001
0100
1000
0001
,  // measure 43
0100
0010
1000
0100
0010
0001
0100
0010
1000
0010
0100
0001
0010
1000
0010
0100
,  // measure 44
1000
0010
0100
1000
0100
0010
1000
0001
0010
0100
1000
0001
0100
1000
0100
0010
,  // measure 45
1000
0001
0010
0100
1000
0010
0100
1000
0100
0010
1000
0001
0010
0100
0001
0100
,  // measure 46
0010
0001
0100
0010
1000
0100
0010
0001
0100
0010
1000
0001
0010
1000
0010
0001
,  // measure 47
0100
0010
1000
0001
0010
0100
1000
0010
0100
1000
0100
0001
0010
0100
1000
0001
,  // measure 48
0100
0010
1000
0010
0100
0001
0010
0001
0100
0010
1000
0001
0010
0100
1000
0000
,  // measure 49
2002
0000
0000
3003
;

//---------------dance-double - ---------------
#NOTEDATA:;
#CHARTNAME:;
#CHARTSTYLE:;
#CREDIT:;
#STEPSTYPE:dance-double;
#DESCRIPTION:;
#DIFFICULTY:Challenge;
#METER:18;
#METERF:18;
#RADARVALUES:0,0,0,0,0;
#NOTES:
// measure 0
00000000
00000000
00000000
00000000
,  // measure 1
00010000
00001000
00000000
00100000
00000000
00010000
00000000
01000000
00000000
00100000
00000000
10000000
00000000
00010000
00100000
01000000
,  // measure 2
10000000
00100000
00000000
01000000
00000000
00001000
00000000
00010000
00000000
00000010
00000000
00000100
00000000
00000001
00000010
00000100
,  // measure 3
00001000
00000010
00000000
00000100
00000000
00001000
00000000
00000100
00000000
00000001
00000000
00000010
00000000
00000100
00001000
00000010
,  // measure 4
00010000
00001000
00000000
00100000
00000000
01000000
10000000
00100000
01000000
00100000
10000000
00010000
00100000
01000000
10000000
00100000
,  // measure 5
02100000
00000000
10000000
00020000
00030000
10000000
00010000
03010000
,  // measure 6
01000000
00010000
00100000
00001000
00010000
00000010
00000100
00001000
00000100
00000010
00001000
00000001
00000010
00000100
00001000
00000010
,  // measure 7
00010000
00001000
00100000
01000000
10000000
00010000
00100000
01000000
10000000
00100000
01000000
10000000
01000000
00100000
10000000
00010000
,  // measure 8
00100000
00001000
00010000
00000010
00000100
00001000
00000100
00000001
00000010
00000100
00001000
00000010
00000100
00000001
00000010
00000100
,  // measure 9
00001000
00000010
00010000
00001000
00100000
01000000
10000000
00010000
01000000
00100000
10000000
00100000
01000000
00010000
00100000
00010000
,  // measure 10
01000000
00000000
01100000
00000000
10100000
00000000
00100000
10000000
00010000
00000000
10010000
00000000
00011000
00000000
00001000
00010000
,  // measure 11
00000010
00000000
00010010
00000000
00001010
00000000
00001000
00000100
00000010
00000000
00000011
00000000
00001001
00000000
00001010
00000000
,  // measure 12
00000010
00000000
00000110
00000000
00000101
00000000
00000100
00000001
00000010
00000000
00000110
00000000
00001100
00000000
00000100
00010000
,  // measure 13
00001000
00000000
00011000
00000000
10010000
00000000
00010000
10000000
00100000
00000000
10100000
00000000
11000000
00000000
01010000
00000000
,  // measure 14
01000000
00000000
01100000
00000000
10100000
00000000
00100000
10000000
00010000
00000000
10010000
00000000
00011000
00000000
00001000
00010000
,  // measure 15
00000010
00000000
00010010
00000000
00001010
00000000
00001000
00000100
00000010
00000000
00000011
00000000
00001001
00000000
00001010
00000000
,  // measure 16
00000010
00000000
00000110
00000000
00000101
00000000
00000100
00000001
00000010
00000000
00000110
00000000
00001100
00000000
00000100
00010000
,  // measure 17
00001000
00000000
00011000
00000000
10010000
00000000
00010000
10000000
00100000
00000000
10100000
00000000
11000000
00000000
01010000
00000000
,  // measure 18
01000000
00010000
00100000
00000000
01000000
10000000
00100000
00000000
01000000
00010000
10000000
00000000
01000000
10000000
00010000
00000000
,  // measure 19
01000000
00010000
00100000
00000000
00001000
00010000
00000010
00000000
00000100
00000010
00001000
00000000
00000001
00000010
00000100
00000000
,  // measure 20
00001000
00000001
00000010
00000000
00000100
00001000
00000010
00000000
00000100
00000001
00000010
00000000
00000100
00001000
00000010
00000000
,  // measure 21
00000220
00000330
00001001
00000010
00001001
00000100
00001001
00001010
,  // measure 22
00001000
00000010
00000000
00000100
00000000
00000001
00000000
00000010
00000000
00000100
00000000
00001000
00000000
00000010
00010000
00001000
,  // measure 23
00100000
01000000
00000000
10000000
00000000
00100000
00000000
01000000
00000000
10000000
00000000
01000000
00010000
10000000
00001000
00010000
,  // measure 24
00000100
00000010
00000000
00000001
00000000
00000100
00000000
00000010
00000000
00001000
00000000
00000100
00000000
00010000
00001000
00100000
,  // measure 25
01000000
10000000
00000000
00100000
00000000
01000000
00000000
10000000
00000000
01000000
00000000
00010000
00000000
10000000
00001000
00010000
,  // measure 26
00000010
00000100
00000000
00000001
00000000
00000010
00000000
00001000
00000000
00000010
00000000
00000100
00000000
00010000
00001000
00100000
,  // measure 27
01000000
10000000
00000000
00100000
00000000
01000000
00000000
10000000
00000000
01000000
00000000
00010000
00000000
00100000
00001000
00010000
,  // measure 28
00000010
00000100
00000000
00000001
00000000
00000010
00000000
00001000
00000000
00000010
00000000
00000100
00000000
00010000
00001000
00100000
,  // measure 29
01000000
10000000
00000000
00010000
00000000
01000000
00100000
10000000
00010000
00100000
01000000
10000000
00100000
01000000
00010000
10000000
,  // measure 30
01000000
00000000
01000000
00010000
00001000
00000000
00001000
00000100
,  // measure 31
00000220
00000330
00000110
00000010
00001010
00001000
00001001
00000001
,  // measure 32
00000001
00000010
00000100
00001000
00000010
00000100
00001000
00000100
00000001
00000010
00000100
00001000
00000010
00010000
00001000
00100000
,  // measure 33
01000000
10000000
00010000
01000000
00100000
10000000
00010000
00100000
10000000
00100000
01000000
10000000
00010000
01000000
10000000
01000000
,  // measure 34
00100000
10000000
00010000
00100000
00001000
00010000
00000010
00000100
00000001
00000010
00000100
00001000
00000010
00000100
00001000
00000100
,  // measure 35
00000001
00000010
00000100
00000001
00000100
00000010
00000001
00001000
00000010
00000100
00000001
00000010
00000100
00001000
00000010
00010000
,  // measure 36
00001000
00100000
00010000
01000000
00100000
10000000
00010000
00100000
01000000
10000000
00100000
01000000
10000000
01000000
00010000
00100000
,  // measure 37
01000000
00010000
01000000
00100000
00010000
10000000
00100000
01000000
10000000
01000000
00100000
10000000
00010000
00100000
00001000
00010000
,  // measure 38
00000010
00000100
00000001
00000010
00000100
00001000
00000010
00000100
00000001
00000010
00000100
00001000
00000001
00000100
00000010
00001000
,  // measure 39
00000100
00010000
00001000
00100000
00010000
01000000
00100000
10000000
00010000
00000000
00010000
00000000
10000000
00000000
10000000
00000000
,  // measure 40
00010000
01000000
00001000
00010000
00000010
00001000
00000100
00000010
00000001
00001000
00000010
00000100
00001000
00000100
00000001
00000010
,  // measure 41
00000100
00001000
00000010
00010000
00001000
00100000
00010000
01000000
00100000
10000000
00010000
00100000
00001000
00010000
00000010
00000100
,  // measure 42
00000001
00000010
00000100
00001000
00000001
00000100
00001000
00000100
00000010
00001000
00000001
00000010
00000100
00001000
00000001
00000100
,  // measure 43
00000010
00001000
00000001
00000010
00000100
00000001
00000100
00000010
00000001
00001000
00000010
00000100
00001000
00000100
00000010
00010000
,  // measure 44
00001000
00100000
00010000
01000000
00100000
10000000
00010000
00100000
01000000
10000000
00100000
01000000
10000000
01000000
00100000
10000000
,  // measure 45
00010000
00100000
00001000
00010000
00000010
00000100
00010000
00000100
00000010
00001000
00000001
00000010
00000100
00001000
00000010
00010000
,  // measure 46
00001000
00100000
01000000
10000000
00100000
00001000
00100000
01000000
00010000
00100000
01000000
10000000
00100000
01000000
10000000
01000000
,  // measure 47
00010000
00100000
01000000
10000000
00100000
00010000
00001000
00000010
00000001
00000000
00000100
00000000
00000010
00000000
00001000
00000000
,  // measure 48
00000001
00000000
00000001
00001000
00000001
00000000
00001000
00010000
00001000
00000000
00010000
10000000
00010000
00000000
10000000
00010000
,  // measure 49
20020000
00000000
00000000
30030000
;
