#VERSION:0.83;
#TITLE:J219;
#SUBTITLE:;
#ARTIST:cranky;
#TITLETRANSLIT:;
#SUBTITLETRANSLIT:;
#ARTISTTRANSLIT:;
#GENRE:;
#ORIGIN:;
#TAGS:;
#CREDIT:;
#BANNER:J219.png;
#BACKGROUND:J219-bg.png;
#PREVIEWVID:;
#JACKET:J219-jacket.png;
#CDIMAGE:;
#DISCIMAGE:;
#LYRICSPATH:;
#CDTITLE:;
#MUSIC:J219.ogg;
#OFFSET:-0.989000;
#SAMPLESTART:20.580999;
#SAMPLELENGTH:13.061000;
#SELECTABLE:YES;
#BPMS:0.000000=147.000000
;
#STOPS:;
#DELAYS:;
#WARPS:;
#TIMESIGNATURES:0.000000=4=4
;
#TICKCOUNTS:0.000000=4
;
#COMBOS:0.000000=1
;
#SPEEDS:0.000000=1.000000=0.000000=0
;
#SCROLLS:0.000000=1.000000
;
#XSCROLLS:0.000000=0.000000 ;
#FAKES:;
#LABELS:0.000000=Song Start
;
#BGCHANGES:;
#ATTACKS:
;

//---------------dance-single - ----------------
#NOTEDATA:;
#CHARTNAME:;
#CHARTHASH:a813bf76509beb9e32b36e8fc29ea5cc;
#CHARTTYPE:dance-single;
#STEPSTYPE:dance-single;
#BANNER:;
#DESCRIPTION:;
#CHARTSTYLE:;
#DIFFICULTY:Beginner;
#METER:4;
#METERF:4.000000;
#LASTSECONDHINT:93.642059;
#RADARVALUES:0.197036,0.226877,0.039978,0.119935,0.000000,138.000000,134.000000,4.000000,12.000000,0.000000,0.000000,0.000000,0.000000,0.000000,0.197036,0.226877,0.039978,0.119935,0.000000,138.000000,134.000000,4.000000,12.000000,0.000000,0.000000,0.000000,0.000000,0.000000;
#CREDIT:;
#NOTES:
0000
0000
0000
0000
,
0000
0000
0000
0000
,
0000
0000
0000
0000
,
0000
0000
0000
0000
,
0000
0000
0000
0000
,
1000
1000
1000
1000
,
1000
0000
0000
0000
,
0001
0001
0001
0001
,
0002
0000
0000
0000
,
0000
0000
0000
0000
,
0000
0000
0003
0000
,
2002
0000
0000
3003
,
1000
1000
1000
0000
,
0001
0001
0001
0000
,
0100
0100
0100
0000
,
0001
0001
0001
0000
,
1000
1000
1000
0000
,
0010
0010
0010
0000
,
1000
1000
1000
0000
,
0100
0100
0100
0000
,
1000
0000
0001
0000
,
0010
0000
0100
0000
,
2000
3000
1000
0000
,
0002
0003
0001
0000
,
1000
0000
0001
0000
,
0010
0000
0100
0000
,
2000
3000
1000
0000
,
0002
0003
0001
0000
,
1000
1000
1000
0000
,
0001
0001
0001
0000
,
0010
0010
0010
0000
,
0100
0100
0100
0000
,
1000
1000
1000
0000
,
0001
0001
0001
0000
,
0100
0100
0100
0000
,
0010
0010
0010
0000
,
1000
1000
1000
0000
,
2002
0000
0000
3003
,
1000
1000
1000
0000
,
0001
0001
0001
0000
,
0010
0010
0010
0000
,
0001
0001
0001
0000
,
0100
0100
0100
0000
,
0010
0010
0010
0000
,
1000
1000
1000
0000
,
2002
0000
3003
1001
,
1000
1000
1000
0000
,
0010
0010
0010
0000
,
0100
0100
0100
0000
,
0001
0001
0001
0000
,
0010
0010
0010
0000
,
0100
0100
0100
0000
,
1000
1000
1000
0000
,
0001
0001
0001
0000
,
1000
1000
1000
0000
,
0001
0001
0001
0001
,
0002
0000
0000
0003
;

//---------------dance-single - ----------------
#NOTEDATA:;
#CHARTNAME:;
#CHARTHASH:6bed0975ee4623f02b941862e2e18d8e;
#CHARTTYPE:dance-single;
#STEPSTYPE:dance-single;
#BANNER:;
#DESCRIPTION:;
#CHARTSTYLE:;
#DIFFICULTY:Easy;
#METER:6;
#METERF:6.000000;
#LASTSECONDHINT:93.642059;
#RADARVALUES:0.288416,0.340316,0.149919,0.159914,0.000000,202.000000,187.000000,15.000000,16.000000,0.000000,0.000000,0.000000,0.000000,0.000000,0.288416,0.340316,0.149919,0.159914,0.000000,202.000000,187.000000,15.000000,16.000000,0.000000,0.000000,0.000000,0.000000,0.000000;
#CREDIT:;
#NOTES:
0000
0000
0000
0000
,
0000
0000
0000
0000
,
0000
0000
0000
0000
,
0000
0000
0000
0000
,
0000
0000
0000
0000
,
1000
0001
0010
0100
,
1000
0000
0000
0000
,
0001
1000
0010
0100
,
0220
0000
0000
0000
,
0000
0000
0000
0000
,
0000
0000
0000
0330
,
2002
0000
3003
0110
,
1010
1000
0001
0010
,
0100
1000
0001
0100
,
0010
1000
0001
0010
,
0100
2000
0010
0100
,
3001
0010
0100
1000
,
0001
0100
0010
1000
,
0001
0010
1000
0010
,
0001
0200
1000
0010
,
0301
1000
0100
0001
,
0100
1000
0010
0100
,
0001
1000
0010
0100
,
0001
0010
0100
1000
,
0010
0100
1000
0100
,
0001
1000
0100
0010
,
0001
0100
1000
0100
,
0001
0010
1000
0010
,
0001
0100
0010
1000
,
0001
0100
0001
1000
,
0100
0001
0100
1000
,
0010
0100
0001
1000
,
0010
0100
1000
0100
,
0001
1000
0100
0010
,
1000
0010
0100
1000
,
0010
0100
1000
0100
,
0001
1000
0100
0010
,
0022
0000
0033
1100
,
1001
0001
0010
0100
,
0110
0100
1000
0010
,
1010
0010
0100
0001
,
2000
0100
0010
3100
,
1100
1000
0010
0100
,
0110
0100
0001
0010
,
0011
0010
0100
1000
,
1002
0010
0100
1003
,
1001
1000
0010
0100
,
0001
0010
0100
1000
,
0010
0100
1000
0100
,
0002
1000
0010
0103
,
0001
0010
0100
1000
,
0010
0100
1000
0100
,
0001
0010
0100
1000
,
0002
1000
0010
1003
,
2000
0001
0010
3001
,
0002
0100
0010
0103
,
0220
0000
0000
0330
;

//---------------dance-single - ----------------
#NOTEDATA:;
#CHARTNAME:;
#CHARTHASH:ed921ca6d8af5c30a9393cfbdc610d6f;
#CHARTTYPE:dance-single;
#STEPSTYPE:dance-single;
#BANNER:;
#DESCRIPTION:;
#CHARTSTYLE:;
#DIFFICULTY:Medium;
#METER:13;
#METERF:13.000000;
#LASTSECONDHINT:93.642059;
#RADARVALUES:0.388362,0.595553,0.319827,0.429768,0.000000,272.000000,240.000000,32.000000,43.000000,0.000000,0.000000,0.000000,0.000000,0.000000,0.388362,0.595553,0.319827,0.429768,0.000000,272.000000,240.000000,32.000000,43.000000,0.000000,0.000000,0.000000,0.000000,0.000000;
#CREDIT:;
#NOTES:
0000
0000
0000
0000
,
0000
0000
0000
0000
,
0000
0000
0000
0000
,
0000
0000
0000
0000
,
0000
0000
0000
0000
,
1000
0000
0010
0000
0100
0001
1000
0010
,
1000
0000
0000
0000
,
1000
0010
0100
0000
0001
0010
0100
1000
,
2002
0000
0000
0000
,
0000
0000
0000
0000
,
0000
0000
0000
3003
,
0220
0000
0330
1010
,
0101
0001
1000
1000
0200
0000
1300
0000
,
1000
0000
0001
0000
0100
0010
1000
0000
,
1000
0001
0010
0000
0001
1000
0010
0000
,
2000
3010
0002
0013
,
1000
1000
0001
0001
0200
0000
0310
0000
,
1000
0000
0001
0000
0010
0001
0100
0000
,
0010
1000
0001
0000
0010
0001
1000
0000
,
2000
0100
0001
3100
,
1000
0000
0010
0000
0100
0001
0010
0000
,
0100
0000
1000
0000
0001
0100
0010
0000
,
2000
3100
0000
0020
0000
0032
0000
0000
,
2003
3010
0000
0200
0000
0302
0000
0000
,
1003
0000
0100
0000
0010
0100
1000
0000
,
0001
0000
0100
0000
0010
0100
0001
0000
,
2000
3010
0000
0200
0000
0302
0000
0000
,
0023
0130
0000
2000
0000
3020
0000
0130
,
0010
1000
0010
0100
0010
0000
1000
0000
,
0002
0023
0230
2300
,
3001
1000
0001
0100
0001
0000
1000
0001
,
0020
0032
2003
3200
,
1300
0001
1000
0010
1000
0000
1000
0001
,
2000
3200
0320
0032
,
1003
0010
0100
0010
,
1000
0001
0010
0001
,
1000
1000
0001
0001
0010
0010
0100
0100
,
0220
0000
0330
1001
,
0110
0000
1001
0000
0101
1100
0000
0101
,
0000
1001
1010
0110
0000
0101
0000
1001
,
1000
0000
0001
0000
0010
0100
0010
0000
,
0001
0000
0100
0000
1000
0100
0001
0000
,
0101
0000
0011
0000
0110
1100
0000
1010
,
0000
0110
0101
1001
0000
1100
0000
0110
,
0100
0000
1000
0000
0001
0100
0010
0100
,
0210
0001
1000
0310
,
0110
0010
1000
1000
0002
0000
0013
0000
,
1000
0000
0100
0000
1000
0001
0010
0000
,
0001
0001
1000
0000
1000
1000
0010
0000
,
0020
1030
2000
3001
,
0001
0001
0010
0010
0200
0000
1300
0000
,
2000
0000
3001
0000
0001
1000
0010
0000
,
0010
0100
0001
0000
0010
0100
1000
0000
,
0001
0000
0010
0000
0100
1000
0001
0000
,
0100
0000
0010
0000
1000
0001
0010
0000
,
0100
0000
0010
0000
0011
1100
1010
0000
,
2002
0000
0000
3003
;

//---------------dance-single - ----------------
#NOTEDATA:;
#CHARTNAME:;
#CHARTHASH:4c67eaa37cd4dd33e91038e7bb5ac0ad;
#CHARTTYPE:dance-single;
#STEPSTYPE:dance-single;
#BANNER:;
#DESCRIPTION:;
#CHARTSTYLE:;
#DIFFICULTY:Hard;
#METER:16;
#METERF:16.000000;
#LASTSECONDHINT:93.642059;
#RADARVALUES:0.672494,0.935870,0.639655,0.909509,0.684630,471.000000,407.000000,64.000000,91.000000,0.000000,0.000000,0.000000,0.000000,0.000000,0.672494,0.935870,0.639655,0.909509,0.684630,471.000000,407.000000,64.000000,91.000000,0.000000,0.000000,0.000000,0.000000,0.000000;
#CREDIT:;
#NOTES:
// measure 0
0000
0000
0000
0000
,  // measure 1
0000
0000
0000
0000
,  // measure 2
0000
0000
0000
0000
,  // measure 3
0000
0000
0000
0000
,  // measure 4
0000
0000
0000
0000
0000
0000
0000
0000
0000
0000
0000
0000
0000
0000
1000
0100
,  // measure 5
1000
0001
0100
0000
0010
0000
0000
0000
0000
0000
1000
0000
0000
0000
0001
0001
,  // measure 6
0000
0000
0000
0000
0000
0000
0000
0000
0000
0000
0000
0000
0000
0000
1000
0100
,  // measure 7
0000
0001
0100
0000
1000
0000
0001
0100
0000
0010
0100
0000
0001
0000
1000
1000
,  // measure 8
2002
0000
0000
0000
,  // measure 9
0000
0000
0000
0000
,  // measure 10
0000
0000
0000
3003
,  // measure 11
1000
0001
0000
0001
1000
0000
1000
0010
0000
0010
0100
0000
0110
0000
0000
0000
,  // measure 12
1000
0100
0010
0001
0100
0010
1000
0100
0020
0000
0000
0000
0031
0000
0000
0000
,  // measure 13
0002
0000
0000
0000
0103
0000
0000
0100
0000
0010
0000
1000
0100
0000
0010
0000
,  // measure 14
0001
0100
0001
0010
0100
0000
0100
1000
0000
1000
0010
0000
0100
0000
0010
0000
,  // measure 15
2000
0000
3001
0000
0002
0023
2030
3020
,  // measure 16
0031
0100
0010
1000
0000
1000
0010
0000
0002
0000
0000
0000
0013
0000
0000
0000
,  // measure 17
0020
0000
0000
0000
2030
0000
0000
3001
0000
0010
0000
0100
1000
0000
1001
0000
,  // measure 18
1000
0010
0100
0001
1000
0000
0001
0010
0000
0010
1000
0100
0001
0000
0100
0000
,  // measure 19
2000
0100
0001
3010
,  // measure 20
1000
0000
0001
0000
0100
0000
0010
0100
0000
0100
0001
0000
1000
0000
0100
0000
,  // measure 21
0010
0000
0100
0000
1000
0000
0001
0100
0000
0100
0010
0000
1000
0000
0100
0000
,  // measure 22
0120
0031
0000
0022
0033
2200
0000
3300
,  // measure 23
1200
0310
0000
0022
0033
0202
0303
0000
,  // measure 24
0110
0000
0010
0000
1000
0000
1000
0001
0000
0001
0010
0000
0100
0000
1000
0000
,  // measure 25
0010
0000
0100
0000
1000
0000
0100
0001
0000
0001
0010
0000
0100
0000
1000
0000
,  // measure 26
1200
0310
0000
2002
0000
3003
0220
0330
,  // measure 27
0021
0000
0130
0000
1000
0000
1000
0100
0010
0000
0001
0000
0100
0000
0010
1000
,  // measure 28
0100
0000
0010
0001
0100
0000
0010
1000
0002
0000
0000
0000
0013
0000
0001
0000
,  // measure 29
0101
0000
0000
0100
0110
0000
0000
0010
1010
0000
0000
0000
1100
0000
1000
0000
,  // measure 30
1010
0000
1000
0010
0100
0000
0001
0010
0200
0000
0000
0000
1300
0000
0010
0000
,  // measure 31
0200
0000
0000
0001
0001
0000
0000
1000
1000
0000
0000
0010
0010
0000
0000
0001
,  // measure 32
0301
0000
0001
1000
0010
0000
0100
0010
2000
0000
0000
0000
3001
0000
0010
0000
,  // measure 33
0110
0000
0000
0100
1000
0000
0000
1000
0020
0000
0000
0000
0130
0000
0010
0000
,  // measure 34
1000
0000
0001
0010
0100
0000
1000
0010
0100
0000
0001
1000
0100
0000
0010
0001
,  // measure 35
1000
0000
0010
0100
1000
0000
0100
0001
0010
0000
0100
1000
0001
0000
0100
0010
,  // measure 36
1000
0000
0100
1000
0001
0000
0100
0010
1000
0000
0100
0010
0001
0000
1000
0001
,  // measure 37
2002
0000
3003
0110
,  // measure 38
2020
3030
0202
0303
1001
2002
3003
0220
,  // measure 39
0330
0011
0110
2200
3300
2002
3003
0101
,  // measure 40
2002
3003
2020
3030
0110
0101
1001
1100
,  // measure 41
0110
0110
0011
0011
1001
1001
1010
1010
,  // measure 42
0220
0330
0202
0303
1001
2002
3003
2200
,  // measure 43
3300
1100
1010
0220
0330
0202
0303
1001
,  // measure 44
2200
3300
0220
0330
0011
0110
1100
0110
,  // measure 45
0001
0010
0100
1000
0100
0010
0001
0100
0010
1000
0001
0010
0100
1000
0001
0010
,  // measure 46
0001
0100
0010
1000
0100
0010
0001
0100
0020
0000
0000
0000
1030
0000
0000
0000
,  // measure 47
0002
0000
0000
0000
0103
0000
0000
0100
0000
0010
0000
1000
0100
0000
0010
0000
,  // measure 48
0001
0100
0001
0010
0100
0000
0100
1000
0000
1000
0010
0000
0100
0000
0010
0000
,  // measure 49
2000
0000
0000
0000
3001
0000
0000
0000
0001
1000
0010
0100
0010
1000
0100
0010
,  // measure 50
0001
0100
0010
1000
0000
1000
0010
0000
0002
0000
0000
0000
0013
0000
0000
0000
,  // measure 51
0020
0000
0000
0000
2030
0000
0000
3001
0000
0010
0000
0100
1000
0000
1001
0000
,  // measure 52
1000
0010
0100
0001
1000
0000
0001
0010
0000
0010
1000
0100
1000
0000
0010
0000
,  // measure 53
0001
0000
0000
0000
0000
0000
0000
0000
0000
0000
0000
0000
0100
0000
0000
0000
0000
0000
0000
0000
0000
0000
0000
0000
0020
0000
0030
0000
0000
0000
0000
0000
0000
0000
0000
0000
1000
0000
0000
0000
0000
0000
0000
0000
0000
0000
0000
0000
0001
0000
0000
0000
0000
0000
0000
0000
0000
0000
0000
0000
0010
0000
0000
0000
0000
0000
0000
0000
0000
0000
0000
0000
0200
0000
0300
0000
0000
0000
0000
0000
0000
0000
0000
0000
1000
0000
0000
0000
0000
0000
0000
0000
0000
0000
0000
0000
0010
0000
0000
0000
0000
0000
0000
0000
0000
0000
0000
0000
0100
0000
0000
0000
0000
0000
0000
0000
0000
0000
0000
0000
0002
0000
0003
0000
0000
0000
0000
0000
0000
0000
0000
0000
1000
0000
0000
0000
0000
0000
0000
0000
0000
0000
0000
0000
0200
0000
0000
0000
0000
0000
0000
0000
0000
0000
0000
0000
0000
0000
0000
0000
0000
0000
0000
0000
0000
0000
0000
0000
0320
0000
0030
0000
0000
0000
0000
0000
0000
0000
0000
0000
0000
0000
0000
0000
0000
0000
0000
0000
0000
0000
0000
0000
,  // measure 54
0010
0000
0000
0000
0000
0000
0000
0000
0000
0000
0000
0000
0001
0000
0000
0000
0000
0000
0000
0000
0000
0000
0000
0000
0200
0000
0300
0000
0000
0000
0000
0000
0000
0000
0000
0000
1000
0000
0000
0000
0000
0000
0000
0000
0000
0000
0000
0000
0100
0000
0000
0000
0000
0000
0000
0000
0000
0000
0000
0000
0010
0000
0000
0000
0000
0000
0000
0000
0000
0000
0000
0000
2000
0000
3000
0000
0000
0000
0000
0000
0000
0000
0000
0000
0100
0000
0000
0000
0000
0000
0000
0000
0000
0000
0000
0000
0010
0000
0000
0000
0000
0000
0000
0000
0000
0000
0000
0000
0001
0000
0000
0000
0000
0000
0000
0000
0000
0000
0000
0000
0200
0000
0300
0000
0000
0000
0000
0000
0000
0000
0000
0000
1000
0000
0000
0000
0000
0000
0000
0000
0000
0000
0000
0000
0200
0000
0000
0000
0000
0000
0000
0000
0000
0000
0000
0000
0000
0000
0000
0000
0000
0000
0000
0000
0000
0000
0000
0000
0320
0000
0030
0000
0000
0000
0000
0000
0000
0000
0000
0000
0000
0000
0000
0000
0000
0000
0000
0000
0000
0000
0000
0000
,  // measure 55
0010
0000
0000
0000
0000
0000
0000
0000
0000
0000
0000
0000
1000
0000
0000
0000
0000
0000
0000
0000
0000
0000
0000
0000
0002
0000
0003
0000
0000
0000
0000
0000
0000
0000
0000
0000
0010
0000
0000
0000
0000
0000
0000
0000
0000
0000
0000
0000
0100
0000
0000
0000
0000
0000
0000
0000
0000
0000
0000
0000
1000
0000
0000
0000
0000
0000
0000
0000
0000
0000
0000
0000
0020
0000
0030
0000
0000
0000
0000
0000
0000
0000
0000
0000
0100
0000
0000
0000
0000
0000
0000
0000
0000
0000
0000
0000
0002
0000
0003
0000
0000
0000
0000
0000
0000
0000
0000
0000
0100
0000
0000
0000
0000
0000
0000
0000
0000
0000
0000
0000
0020
0000
0030
0000
0000
0000
0000
0000
0000
0000
0000
0000
1000
0000
0000
0000
0000
0000
0000
0000
0000
0000
0000
0000
0200
0000
0300
0000
0000
0000
0000
0000
0000
0000
0000
0000
0010
0000
0000
0000
0000
0000
0000
0000
0000
0000
0000
0000
0001
0000
0000
0000
0000
0000
0000
0000
0000
0000
0000
0000
1000
0000
0000
0000
0000
0000
0000
0000
0000
0000
0000
0000
,  // measure 56
2002
0000
0000
3003
;
