#TITLE:Independent love Song;
#SUBTITLE:;
#ARTIST:Bombers;
#MUSIC:Independent Love Song.ogg;
#BANNER:Independent Love Song.png;
#BACKGROUND:Independent Love Song-bg.png;
#LYRICSPATH:;
#CDTITLE:;
#SAMPLESTART:27.774;
#SAMPLELENGTH:12.982;
#OFFSET:-11.547;
#BPMS:0.000000=147.900000;
#STOPS:;
#TIMESIGNATURES:0.000000=4=4;
#BGCHANGES:;
#FGCHANGES:;
#ATTACKS:;
#SPEEDS:0.000000=1.000000=0.000000=0;
#SCROLLS:0.000000=1.000000;
#KEYSOUNDS:;

//---------------dance-single - ---------------
#NOTES:
     dance-single:
     :
     Beginner:
     4:
     0,0,0,0,0:
// measure 0
0000
0000
0000
0000
,  // measure 1
0001
0000
0001
0000
,  // measure 2
1000
0000
1000
0000
,  // measure 3
0001
0000
0001
0000
,  // measure 4
0100
0000
0100
0000
,  // measure 5
0001
0000
0001
0000
,  // measure 6
0010
0000
0010
0000
,  // measure 7
0001
0000
0001
0000
,  // measure 8
1000
0000
1000
0000
,  // measure 9
0100
0100
0100
0100
,  // measure 10
1001
0000
1001
0000
,  // measure 11
0110
0000
0110
0000
,  // measure 12
0001
0000
1000
0000
,  // measure 13
0010
0000
0010
0000
,  // measure 14
0110
0000
0110
0000
,  // measure 15
1001
0000
1001
0000
,  // measure 16
1000
0000
0100
0000
,  // measure 17
0010
0000
0010
0000
,  // measure 18
0110
0000
0110
0000
,  // measure 19
1001
0000
1001
0000
,  // measure 20
1000
0000
0010
0000
,  // measure 21
0010
0000
0100
0000
,  // measure 22
1001
0000
1001
0000
,  // measure 23
1001
0000
0000
0000
,  // measure 24
0110
0000
0110
0000
,  // measure 25
0110
0000
0000
0000
,  // measure 26
1000
1000
1000
0000
,  // measure 27
0001
0001
0001
0000
,  // measure 28
1000
1000
1000
0000
,  // measure 29
0010
0010
0010
0000
,  // measure 30
1000
1000
1000
0000
,  // measure 31
0001
0001
0001
0000
,  // measure 32
0010
0010
0010
0000
,  // measure 33
0100
0100
0100
0000
,  // measure 34
1001
0000
1001
0000
,  // measure 35
0110
0000
0110
0000
,  // measure 36
1000
0000
0001
0000
,  // measure 37
0010
0000
0010
0000
,  // measure 38
0110
0000
0110
0000
,  // measure 39
1001
0000
1001
0000
,  // measure 40
0001
0000
1000
0000
,  // measure 41
0010
0000
0010
0000
,  // measure 42
0110
0000
0110
0000
,  // measure 43
1001
0000
1001
0000
,  // measure 44
1000
0000
1000
0000
,  // measure 45
0001
0000
0001
0000
,  // measure 46
0110
0000
0110
0000
,  // measure 47
0110
0000
0000
0000
,  // measure 48
1001
0000
1001
0000
,  // measure 49
1001
0000
0000
0000
,  // measure 50
2000
0000
3000
0000
,  // measure 51
0002
0000
0003
0000
,  // measure 52
0020
0000
0030
0000
,  // measure 53
0002
0000
0003
0000
,  // measure 54
2000
0000
3000
0000
,  // measure 55
0002
0000
0003
0000
,  // measure 56
2000
0000
3000
0000
,  // measure 57
0002
0000
0000
0000
,  // measure 58
0003
0000
0000
0000
;

//---------------dance-single - ---------------
#NOTES:
     dance-single:
     :
     Easy:
     7:
     0,0,0,0,0:
// measure 0
0000
0000
0000
0000
,  // measure 1
2000
0100
0000
3100
,  // measure 2
0002
0100
0000
0103
,  // measure 3
2000
0010
0000
3010
,  // measure 4
0002
0010
0000
0013
,  // measure 5
1000
0100
0001
0100
,  // measure 6
1000
0001
1001
0000
,  // measure 7
0001
0100
1000
0100
,  // measure 8
0001
1000
1001
0000
,  // measure 9
0010
0010
0010
0010
,  // measure 10
0011
0010
0100
1000
,  // measure 11
1001
0001
0100
0010
,  // measure 12
0110
0100
0001
1000
,  // measure 13
1001
0000
1001
0000
,  // measure 14
0110
0010
1000
0100
,  // measure 15
1100
0100
1000
0001
,  // measure 16
0101
0100
0001
0010
,  // measure 17
0110
0000
0110
0000
,  // measure 18
1100
1000
0001
0100
,  // measure 19
0101
0001
0010
0100
,  // measure 20
0110
0010
1000
0010
,  // measure 21
0001
0100
0010
1000
,  // measure 22
1010
0000
0101
0000
,  // measure 23
1001
1000
0001
0100
,  // measure 24
0101
0000
1010
0000
,  // measure 25
0101
0001
1000
0100
,  // measure 26
0010
0010
0010
0100
,  // measure 27
1000
1000
1000
0001
,  // measure 28
0100
0100
0100
0001
,  // measure 29
0010
0110
1100
0110
,  // measure 30
0011
0001
0001
1000
,  // measure 31
0100
0100
0100
1000
,  // measure 32
0010
0010
0010
0100
,  // measure 33
0001
0101
1010
0101
,  // measure 34
1001
1000
0001
0100
,  // measure 35
0001
0010
0100
1000
,  // measure 36
0001
0100
0010
1000
,  // measure 37
1010
0000
0101
0000
,  // measure 38
1001
1000
0001
0100
,  // measure 39
0001
1000
0010
0100
,  // measure 40
0001
1000
0100
0010
,  // measure 41
0110
0000
1001
0000
,  // measure 42
0110
0010
1000
0001
,  // measure 43
0100
1000
0100
0001
,  // measure 44
1000
0100
0010
0001
,  // measure 45
0100
0010
1000
0001
,  // measure 46
1001
0000
1001
0000
,  // measure 47
0110
0010
1000
0001
,  // measure 48
1001
0000
1001
0000
,  // measure 49
0110
0100
1000
0001
,  // measure 50
0200
0000
0000
0000
,  // measure 51
0302
0000
0000
0000
,  // measure 52
0023
0000
0000
0000
,  // measure 53
0230
0000
0000
0000
,  // measure 54
2300
0000
3002
0000
,  // measure 55
2003
0000
0000
0000
,  // measure 56
3020
0000
0230
0000
,  // measure 57
0320
0000
0000
0200
0000
0000
0000
0000
,  // measure 58
0330
0000
0000
0000
;

//---------------dance-single - ---------------
#NOTES:
     dance-single:
     :
     Medium:
     10:
     0,0,0,0,0:
// measure 0
0000
0000
0000
0000
,  // measure 1
2000
0000
0000
3001
1000
0002
0000
0000
,  // measure 2
0203
0320
2030
3020
,  // measure 3
0230
0302
0023
0230
,  // measure 4
2300
0000
0000
0002
0000
0000
3000
0000
,  // measure 5
0203
0320
2030
3002
,  // measure 6
0203
0000
0000
0020
0300
0000
0000
0000
,  // measure 7
2030
3002
0203
0320
,  // measure 8
2030
0000
0000
0002
0000
0000
3003
0000
,  // measure 9
0100
1001
1001
1001
,  // measure 10
1000
0001
0100
0000
0001
1000
0100
0000
,  // measure 11
1000
0001
0010
0000
0001
1000
0010
0000
,  // measure 12
1000
0100
0010
0000
0001
0100
0010
0000
,  // measure 13
1010
1010
0101
0101
,  // measure 14
1001
1000
0100
0000
1001
0001
0100
0000
,  // measure 15
1001
1000
0010
0000
1001
0001
0010
0000
,  // measure 16
0001
1000
0100
0000
1000
0001
0100
0000
,  // measure 17
0202
0303
2020
3030
,  // measure 18
1010
1000
0100
0000
0011
0001
0100
0000
,  // measure 19
0101
0100
0010
0000
1010
0010
0100
0000
,  // measure 20
0200
0001
0001
0301
,  // measure 21
0002
1000
1000
1003
,  // measure 22
1001
1000
0101
0100
,  // measure 23
1010
0010
1000
0001
,  // measure 24
0011
0010
1100
1000
,  // measure 25
1001
0001
0100
0010
,  // measure 26
1000
0010
0000
0010
0000
0010
0100
0000
,  // measure 27
0100
0001
0000
0001
0000
0001
0010
0000
,  // measure 28
0010
0100
0000
0100
0000
0100
2000
0000
,  // measure 29
3001
0010
0001
0010
0100
0010
0200
0000
,  // measure 30
1300
0001
0000
0001
0000
0001
0100
0000
,  // measure 31
0100
0010
0000
0010
0000
0010
1000
0000
,  // measure 32
1000
0100
0000
0100
0000
0100
0020
0030
,  // measure 33
0010
0001
0100
0001
0010
0001
1000
0010
,  // measure 34
0110
0000
0101
0000
0110
0000
1010
0010
,  // measure 35
1000
0001
0100
2000
3000
1000
0100
0002
,  // measure 36
0000
2003
0000
3020
0000
0130
0001
0020
,  // measure 37
0000
0130
1000
0020
0000
0230
0000
0301
,  // measure 38
1001
0000
0101
0000
1001
0000
1100
1000
,  // measure 39
0001
0200
0000
0320
0000
1030
0001
0020
,  // measure 40
0000
0230
0000
2300
0000
3010
0100
0002
,  // measure 41
0000
0013
0100
2000
0000
3001
0100
0010
,  // measure 42
1010
0000
0101
0000
1010
0000
1001
1000
,  // measure 43
0001
0020
0000
0230
0000
1300
0001
0010
,  // measure 44
0200
1300
0200
0301
0200
1300
0200
0301
,  // measure 45
0200
1300
0020
0130
0002
0013
0200
1300
,  // measure 46
1001
0000
0110
0100
0101
0000
0101
0001
,  // measure 47
1001
1000
0010
0100
0001
0010
0100
1000
,  // measure 48
1001
0000
1001
0001
0101
0000
0101
0100
,  // measure 49
0110
0010
1000
0001
0100
0010
1000
0100
,  // measure 50
0020
0000
0000
0130
1000
0002
0000
0000
,  // measure 51
0203
2300
3200
0302
,  // measure 52
0023
0000
0130
1000
0001
0200
0000
0000
,  // measure 53
2300
0000
0000
3002
0000
0000
0000
0000
,  // measure 54
2003
0000
3200
0000
0302
0000
0103
0010
,  // measure 55
1000
0002
0000
0020
0000
0003
0030
0000
,  // measure 56
0100
0000
2000
0000
3002
0000
0103
1000
,  // measure 57
0100
0002
0000
0023
0000
0200
0000
0000
,  // measure 58
0000
0000
0000
0000
,  // measure 59
0330
0000
0000
0000
;

//---------------dance-single - ---------------
#NOTES:
     dance-single:
     :
     Hard:
     14:
     0,0,0,0,0:
// measure 0
0000
0000
0000
0000
,  // measure 1
2000
0000
0000
3001
0100
0020
0000
0000
,  // measure 2
2030
3002
0203
0320
,  // measure 3
2030
0000
3001
0100
0010
0200
0000
0000
,  // measure 4
0302
0000
0000
2000
0000
0000
3003
0000
,  // measure 5
2000
0000
3020
0000
0230
0000
0301
0010
,  // measure 6
0100
0020
0000
0002
0000
0000
0033
0000
,  // measure 7
2000
0000
3020
0000
0230
0000
0301
0010
,  // measure 8
0100
2000
0000
3002
0000
0020
0003
0000
,  // measure 9
0130
0110
1100
1001
,  // measure 10
0101
0001
0100
0010
1000
0001
0010
0100
,  // measure 11
1000
0001
0100
0010
1000
0001
0010
0100
,  // measure 12
0010
0001
0100
0010
1000
0001
0100
0010
,  // measure 13
0110
0000
1000
0010
1010
0000
1000
0001
,  // measure 14
1001
0001
0010
0100
1000
0001
0100
0010
,  // measure 15
1000
0001
0010
0100
1000
0010
0100
0001
,  // measure 16
0010
0100
1000
0001
0100
0010
1000
0001
,  // measure 17
0011
0000
0010
0100
0110
0000
0100
1000
,  // measure 18
1100
1000
0001
0100
0010
1000
0001
0010
,  // measure 19
0100
1000
0001
0100
0010
1000
0100
0010
,  // measure 20
0200
0000
1000
0000
0001
0001
0001
0000
,  // measure 21
0010
0000
1000
0000
0010
0010
0310
0000
,  // measure 22
0110
1000
1100
0001
,  // measure 23
0101
0001
0010
0100
1000
0001
0100
0010
,  // measure 24
1010
1000
1001
0001
,  // measure 25
0101
0100
1000
0100
0001
0010
0100
1000
,  // measure 26
0010
0001
0010
1000
0010
0001
0011
0010
,  // measure 27
1000
0010
0001
0010
1000
0010
0011
0010
,  // measure 28
1000
0010
0001
0010
1000
0010
0011
0010
,  // measure 29
1000
0100
0001
0100
1000
0010
0100
0001
,  // measure 30
0010
1000
0010
0001
0010
1000
1010
0010
,  // measure 31
0001
0010
1000
0010
0001
0010
1010
0010
,  // measure 32
0001
0010
1000
0010
0001
0010
1010
0010
,  // measure 33
0001
0010
0100
1000
0001
0100
0010
1000
,  // measure 34
1001
0001
0100
0010
1000
0001
0010
0100
,  // measure 35
1000
0001
0100
0010
1000
0010
0100
0001
,  // measure 36
0020
0130
2000
3100
0002
0103
1000
0001
,  // measure 37
1001
0000
0001
1000
1001
0000
1000
0010
,  // measure 38
0110
0010
1000
0001
0010
0100
1000
0001
,  // measure 39
0100
0010
1000
0001
0010
0100
1000
0001
,  // measure 40
0200
0310
2000
3010
0002
0013
2000
3010
,  // measure 41
1010
0000
1000
0001
0011
0000
0001
1000
,  // measure 42
1001
0001
0010
0100
1000
0001
0100
1000
,  // measure 43
0100
0001
0010
0100
0001
0100
1000
0001
,  // measure 44
0200
0000
1000
0000
0001
0001
0001
0000
,  // measure 45
1000
1000
1000
0010
0001
0301
0010
1000
,  // measure 46
1001
0000
1000
0001
0101
0000
0001
1000
,  // measure 47
1010
0010
1000
0001
0010
0100
1000
0001
,  // measure 48
0101
0000
0001
0100
0110
0000
0100
0010
,  // measure 49
1000
0000
0001
0010
0100
0000
1000
0010
1000
0001
1000
0001
0010
0001
0010
0001
,  // measure 50
0020
0000
0000
0031
0010
0200
0000
0000
,  // measure 51
2300
3002
0203
0320
,  // measure 52
2030
0000
3001
0010
0100
0010
0002
0000
,  // measure 53
2003
0000
0000
0200
0000
0000
3300
0000
,  // measure 54
1000
0000
0002
0000
0203
0000
1300
0100
,  // measure 55
0001
0020
0000
0200
0000
0000
0330
0000
,  // measure 56
1000
0000
0002
0000
0023
0000
1030
0010
,  // measure 57
0001
0020
0000
0230
0000
2000
0000
0000
,  // measure 58
0000
0000
0000
3300
;
