#TITLE:I Dream;
#SUBTITLE:;
#ARTIST:Waldo's People feat. Charlie King;
#MUSIC:I Dream.ogg;
#BANNER:I Dream.png;
#BACKGROUND:I Dream-bg.png;
#LYRICSPATH:;
#CDTITLE:;
#SAMPLESTART:71.213000;
#SAMPLELENGTH:15.000000;
#OFFSET:1.036;
#BPMS:0.000000=135.000000 2.000000=134.950000
;
#STOPS:;
#TIMESIGNATURES:0.000000=4=4;
#BGCHANGES:;
#FGCHANGES:;
#ATTACKS:;
#SPEEDS:0.000000=1.000000=0.000000=0;
#SCROLLS:0.000000=1.000000;
#KEYSOUNDS:;

//---------------dance-single - ---------------
#NOTES:
     dance-single:
     :
     Beginner:
     5:
     0,0,0,0,0:
// measure 0
0000
0000
0000
0000
,  // measure 1
0000
0000
0000
0000
,  // measure 2
0000
0000
0000
0000
,  // measure 3
0000
0000
0000
0000
,  // measure 4
0000
0000
0000
0000
,  // measure 5
0000
1000
0000
1000
,  // measure 6
0000
0001
0000
0001
,  // measure 7
1000
0001
0001
1000
,  // measure 8
2002
0000
0000
3003
,  // measure 9
1000
1000
0100
0000
,  // measure 10
1000
1000
0010
0000
,  // measure 11
0010
0010
0100
0000
,  // measure 12
0100
0100
0001
0000
,  // measure 13
0001
0001
0010
0000
,  // measure 14
0001
0001
0100
0000
,  // measure 15
0001
0001
1000
0000
,  // measure 16
1000
1000
0001
0000
,  // measure 17
0010
0010
0010
0000
,  // measure 18
0100
0100
0100
0000
,  // measure 19
0001
0001
0001
0000
,  // measure 20
1000
1000
1000
0000
,  // measure 21
0001
0001
0001
0000
,  // measure 22
0010
0010
0010
0000
,  // measure 23
0100
0100
0100
0000
,  // measure 24
0010
0010
0010
0000
,  // measure 25
0001
0001
0001
0000
,  // measure 26
1000
1000
1000
0000
,  // measure 27
0010
0010
0010
0000
,  // measure 28
0100
0100
0100
0000
,  // measure 29
0010
0010
0010
0000
,  // measure 30
1000
1000
1000
0000
,  // measure 31
1001
0000
1001
0000
,  // measure 32
0110
0110
0110
0000
,  // measure 33
2000
0000
3000
0000
,  // measure 34
0002
0000
0003
0000
,  // measure 35
0200
0000
0300
0000
,  // measure 36
0020
0000
0030
0000
,  // measure 37
2000
0000
3000
0000
,  // measure 38
0002
0000
0003
0000
,  // measure 39
0020
0000
0030
0000
,  // measure 40
0220
0000
0330
0000
,  // measure 41
1000
1000
0010
0000
,  // measure 42
1000
1000
0001
0000
,  // measure 43
0001
0001
0100
0000
,  // measure 44
0100
0100
0010
0000
,  // measure 45
1000
1000
0001
0000
,  // measure 46
0001
0001
1000
0000
,  // measure 47
0100
0100
0010
0000
,  // measure 48
0100
0100
1000
0000
,  // measure 49
0001
0000
1000
0000
,  // measure 50
1001
0000
0000
0000
,  // measure 51
1001
0000
0110
0000
,  // measure 52
0001
0001
0001
0000
,  // measure 53
1000
0000
0001
0000
,  // measure 54
1001
0000
0000
0000
,  // measure 55
0110
0000
1001
0000
,  // measure 56
1000
1000
0001
0000
,  // measure 57
1000
1000
0001
0000
,  // measure 58
0001
0001
0100
0000
,  // measure 59
0110
0000
1001
0000
,  // measure 60
1000
1000
0001
0000
,  // measure 61
0001
0001
0010
0000
,  // measure 62
0100
0100
1000
0000
,  // measure 63
1001
0000
0110
0000
,  // measure 64
1000
0001
1000
0001
,  // measure 65
0020
0000
0030
0000
,  // measure 66
0220
0000
0330
0000
;

//---------------dance-single - ---------------
#NOTES:
     dance-single:
     :
     Easy:
     8:
     0,0,0,0,0:
// measure 0
0000
0000
0000
0000
,  // measure 1
0000
0000
0000
0000
,  // measure 2
0000
0000
0000
0000
,  // measure 3
0000
0000
0000
0000
,  // measure 4
0000
0000
0000
0000
,  // measure 5
2000
0100
0000
3100
,  // measure 6
0002
0100
0000
0103
,  // measure 7
1000
0001
0100
0010
,  // measure 8
0220
0000
0330
0010
,  // measure 9
0110
1010
1100
0101
,  // measure 10
1100
1010
0110
0101
,  // measure 11
0001
0010
0100
1000
,  // measure 12
0001
0100
0010
0100
,  // measure 13
0101
0110
1010
0110
,  // measure 14
0101
0011
0110
1100
,  // measure 15
1000
0001
0100
0010
,  // measure 16
1010
0101
1010
0101
,  // measure 17
1000
1000
1000
0100
,  // measure 18
0001
0001
0001
0100
,  // measure 19
1000
0001
0100
0010
,  // measure 20
0110
1001
0110
1001
,  // measure 21
1000
1000
1000
0010
,  // measure 22
0001
0001
0001
0010
,  // measure 23
1000
0001
0100
0010
,  // measure 24
1010
0101
1100
0011
,  // measure 25
1000
1000
0001
0100
,  // measure 26
0010
0010
1000
0001
,  // measure 27
0100
0100
0001
0010
,  // measure 28
0100
0100
1000
0001
,  // measure 29
0010
0010
1000
0010
,  // measure 30
0001
0001
0100
0010
,  // measure 31
1010
0010
0110
0100
,  // measure 32
0101
1001
1100
1001
,  // measure 33
0002
0000
0023
0000
,  // measure 34
0230
0000
2300
0000
,  // measure 35
3002
0000
0203
0000
,  // measure 36
0320
0000
0032
0000
,  // measure 37
0023
0000
0230
0000
,  // measure 38
0302
0000
2003
0000
,  // measure 39
3200
0000
0000
0000
0320
0000
0000
0030
,  // measure 40
0022
0033
2100
3001
,  // measure 41
0101
0110
1010
1100
,  // measure 42
0110
0011
0101
0110
,  // measure 43
1000
0001
0010
0100
,  // measure 44
1000
0001
0010
1000
,  // measure 45
1010
0011
0101
0110
,  // measure 46
1010
1100
0101
1100
,  // measure 47
1000
0001
0100
0010
,  // measure 48
0110
1010
0110
0101
,  // measure 49
1001
1000
1000
1010
,  // measure 50
0110
0100
0001
0010
,  // measure 51
0110
1000
0110
0001
,  // measure 52
0100
0010
1000
0001
,  // measure 53
0010
1000
0010
0001
,  // measure 54
1000
1000
0001
0001
,  // measure 55
1001
0001
0101
0100
,  // measure 56
0110
1010
1001
0011
,  // measure 57
0110
1100
0110
0011
,  // measure 58
0101
0001
1000
1001
,  // measure 59
1010
0010
0100
0101
,  // measure 60
0001
1000
0010
0100
,  // measure 61
0101
0110
1010
1100
,  // measure 62
0110
0011
0101
1010
,  // measure 63
1001
0001
1001
1000
,  // measure 64
1010
0101
0011
1100
,  // measure 65
1000
0001
0100
0010
,  // measure 66
0220
0000
0000
0330
;

//---------------dance-single - ---------------
#NOTES:
     dance-single:
     :
     Medium:
     13:
     0,0,0,0,0:
// measure 0
0000
0000
0000
0000
,  // measure 1
0000
0000
0000
0000
,  // measure 2
0000
0000
0000
0000
,  // measure 3
0000
0000
0000
0000
,  // measure 4
0000
0000
0000
0000
0000
1000
0001
0010
,  // measure 5
0200
0010
0000
0310
,  // measure 6
0020
0100
0000
0130
,  // measure 7
1000
0001
0100
0000
0001
1000
0100
0000
,  // measure 8
2002
0000
3000
0013
,  // measure 9
0110
0000
1100
0000
1001
0000
0101
0100
,  // measure 10
0110
1010
0011
0011
,  // measure 11
0010
0100
1000
0000
0001
0100
0010
0000
,  // measure 12
1000
0100
0010
0000
0001
0100
0010
0000
,  // measure 13
1010
0000
0101
0000
1001
0000
1100
0001
,  // measure 14
0100
0101
0110
1010
,  // measure 15
1001
0001
0100
0000
1001
1000
0100
0000
,  // measure 16
1001
0101
0110
1010
,  // measure 17
1001
0001
0100
0010
,  // measure 18
1000
1000
0001
0010
,  // measure 19
0100
1000
0001
0100
,  // measure 20
0001
1000
0001
1000
0001
1000
0001
1000
,  // measure 21
0010
0010
1000
0001
,  // measure 22
0100
1000
0100
0001
,  // measure 23
0010
0100
1000
0001
,  // measure 24
0010
0100
0010
0100
0010
0100
0010
0100
,  // measure 25
1000
0000
0000
0000
0001
0000
0000
0000
0100
0000
0000
0010
0000
0000
1000
0000
,  // measure 26
0001
0000
0000
0000
0100
0000
0000
0000
1000
0000
0000
0100
0000
0000
0001
0000
,  // measure 27
0010
0000
0000
0000
0100
0000
0000
0000
1000
0000
0000
0001
0000
0000
0010
0000
,  // measure 28
0100
0000
0000
0000
1000
0000
0000
0000
0001
0000
0000
0100
0000
0000
1000
0000
,  // measure 29
0100
0000
0000
0000
0001
0000
0000
0000
0010
0000
0000
0100
0000
0000
1000
0000
,  // measure 30
0001
0000
0000
0000
0010
0000
0000
0000
0100
0000
0000
1000
0000
0000
0001
0000
,  // measure 31
1001
0000
0110
0000
,  // measure 32
1010
0000
0101
0000
1000
0001
1001
0001
,  // measure 33
2000
0000
3002
0000
,  // measure 34
0023
0000
0230
0000
,  // measure 35
2300
0000
3002
0000
,  // measure 36
0203
0000
0320
0000
,  // measure 37
2030
0001
0000
0001
,  // measure 38
3002
1000
0000
1003
,  // measure 39
1001
1000
1100
0100
,  // measure 40
0220
0000
0000
0030
2300
0000
3001
0000
,  // measure 41
0101
0000
0110
0000
1010
0000
1000
0010
,  // measure 42
0100
0101
0110
1010
,  // measure 43
1000
0001
0010
0000
0100
1000
0001
0000
,  // measure 44
0100
0010
1000
0001
0010
0100
1000
0001
,  // measure 45
1001
0000
0101
0000
1001
0000
0001
1000
,  // measure 46
0100
1001
0101
1001
,  // measure 47
1000
0100
0001
0000
0001
0100
1000
0000
,  // measure 48
1000
0001
0100
0010
1000
0001
0010
0100
,  // measure 49
1100
0000
1001
0000
0001
0010
0110
0100
,  // measure 50
1100
1001
0101
1001
,  // measure 51
1010
0000
1000
0010
0100
0000
0101
0000
,  // measure 52
0001
1000
0010
0100
0001
0002
0000
2000
,  // measure 53
0000
0000
0000
0000
0000
0000
3003
1000
,  // measure 54
0001
0000
0010
0000
0100
1000
1100
1000
,  // measure 55
1001
0000
0001
0100
0010
0000
1010
0000
,  // measure 56
1000
0001
0010
0100
0010
0001
0100
0010
,  // measure 57
1010
0000
0101
0000
1001
0000
1000
0100
,  // measure 58
0010
0011
1100
1001
,  // measure 59
0101
0000
0001
1000
0100
0000
0110
0000
,  // measure 60
0010
0001
0100
0000
0010
1000
0100
0000
,  // measure 61
0110
0000
1100
0000
1001
0000
0001
0100
,  // measure 62
0010
0000
1010
0000
0101
0001
1001
1000
,  // measure 63
1010
0000
1000
0010
0100
0000
0101
0000
,  // measure 64
0001
1000
0100
0010
0001
0100
0010
1000
,  // measure 65
0002
0000
2003
0000
3020
0000
0230
0300
,  // measure 66
0220
0000
0000
0330
;

//---------------dance-single - ---------------
#NOTES:
     dance-single:
     :
     Hard:
     15:
     0,0,0,0,0:
// measure 0
0000
0000
0000
0000
,  // measure 1
0000
0000
0000
0000
,  // measure 2
0000
0000
0000
0000
,  // measure 3
0000
0000
0000
0000
,  // measure 4
0000
0000
0000
0000
0000
0001
0100
0010
,  // measure 5
2000
0001
0000
3001
,  // measure 6
0002
1000
0000
1003
,  // measure 7
1000
0001
0100
0010
1000
0001
0100
0010
,  // measure 8
2020
0000
3030
0001
,  // measure 9
0101
0100
0110
0010
1010
1000
1100
0100
,  // measure 10
0101
0100
1100
1000
1010
0010
0110
0100
,  // measure 11
0001
1000
0010
0100
1000
0100
0001
0010
,  // measure 12
0100
0010
0001
0100
0010
1000
0001
0100
,  // measure 13
0110
0010
1010
1000
1001
0001
0011
0010
,  // measure 14
0110
0100
1100
1000
1001
0001
0101
0100
,  // measure 15
0010
1000
0100
0010
0001
0100
0010
1000
,  // measure 16
0001
1000
0100
0010
0001
0100
0010
1000
,  // measure 17
1010
1000
1010
0000
0101
0001
0101
0000
,  // measure 18
1001
1000
1001
0000
0011
0001
0011
0000
,  // measure 19
1100
0100
1100
0000
1001
1000
1001
0000
,  // measure 20
1000
0001
1000
0001
1000
0001
1000
0001
1000
0001
1000
0001
1000
0001
1000
0001
,  // measure 21
1001
0001
1001
0000
0101
0100
0101
0000
,  // measure 22
0110
0010
0110
0000
1010
1000
1010
0000
,  // measure 23
1100
1000
1100
0000
0011
0001
0011
0000
,  // measure 24
0010
0100
0010
0100
0010
0100
0010
0100
0010
0100
0010
0100
0010
0100
0010
0100
,  // measure 25
1000
0000
0001
0000
0100
0010
0000
0100
0001
0000
0100
1000
0000
0100
0001
0000
,  // measure 26
1000
0000
0001
0000
0010
0100
0000
0010
1000
0000
0010
0001
0000
0010
0100
0000
,  // measure 27
1000
0000
0001
0000
0100
1000
0000
0100
0001
0000
0100
0010
0000
0100
0001
0000
,  // measure 28
1000
0000
0001
0000
0010
0100
0000
0010
1000
0000
0010
0001
0000
0010
0100
0000
,  // measure 29
1000
0000
0001
0000
0100
1000
0000
0100
0010
0000
0100
0001
0000
0100
0010
0000
,  // measure 30
1000
0000
0001
0000
0100
0001
0000
0100
1000
0000
0100
0010
0000
0100
0001
0000
,  // measure 31
1001
0000
1000
0000
1001
0001
0000
1000
1001
0000
1000
0001
0100
0010
1000
0000
,  // measure 32
1010
0000
0101
0000
1010
0000
0010
1000
0100
0010
1000
0010
0001
0100
0010
1000
,  // measure 33
0002
0000
0000
0100
0000
0000
0103
0000
0200
0000
0000
0010
0000
0000
0310
0000
,  // measure 34
0020
0000
0000
1000
0000
0000
1030
0000
2000
0000
0000
0001
0000
0000
3001
0000
,  // measure 35
0002
0000
0000
0010
0000
0000
0013
0000
0020
0000
0000
0100
0000
0000
0130
0000
,  // measure 36
0200
0000
0000
1000
0000
0000
1300
0000
2000
0000
0000
0001
0000
0000
3001
0000
,  // measure 37
0002
0000
0000
1000
0000
0000
1003
0000
2000
0000
0000
0001
0000
0000
3001
0000
,  // measure 38
0002
0000
0000
0010
0000
0000
0013
0000
0020
0000
0000
1000
0000
0000
1030
0000
,  // measure 39
1000
0010
0001
0100
0010
1000
0001
0100
,  // measure 40
0202
0000
0303
0000
2002
0003
3010
0000
,  // measure 41
1010
0010
0110
0100
0101
0001
0011
0010
,  // measure 42
1010
0010
0011
0001
0101
0100
0110
0010
,  // measure 43
1000
0010
0100
0001
0010
0100
1000
0001
,  // measure 44
0100
0001
0010
0100
1000
0010
0100
0001
,  // measure 45
0011
0010
0110
0100
1100
1000
1001
0001
,  // measure 46
0101
0100
1100
0100
0101
0001
0011
0010
,  // measure 47
0100
1000
0001
0100
0001
1000
0100
0010
,  // measure 48
0001
0100
0010
1000
0100
0010
0001
0100
,  // measure 49
0110
0000
1001
0000
0110
0010
0110
0100
,  // measure 50
0101
1001
1100
1001
,  // measure 51
0011
0000
0001
0010
0100
0000
1100
0000
,  // measure 52
1000
0001
0100
0010
1000
0002
0000
0103
,  // measure 53
0010
0100
0001
0010
0100
1000
0001
0100
,  // measure 54
0010
1000
0001
0010
0100
1000
1100
1000
,  // measure 55
1001
0000
0001
0010
0100
0000
1100
0000
,  // measure 56
0001
0000
0100
0000
0010
0000
1000
0000
0001
0010
0001
0000
0100
0010
0100
0000
,  // measure 57
0110
0010
1010
1000
1001
0001
0101
0100
,  // measure 58
1100
0100
0101
0001
0011
0010
0110
0010
,  // measure 59
0011
0000
0001
0010
0100
0000
1100
0000
,  // measure 60
1000
0001
0100
0010
1000
0001
0010
0100
,  // measure 61
1100
1000
1001
0001
0101
0100
0110
0010
,  // measure 62
1010
1000
1100
0100
0101
0100
1100
1000
,  // measure 63
1010
0000
0010
0100
0001
0000
0011
0000
,  // measure 64
0001
0000
0010
0000
0100
0000
1000
0000
0001
1000
0001
1000
0001
1000
0001
1000
,  // measure 65
0001
0000
0010
0000
0100
0000
1000
0000
0001
0100
0010
1000
0001
0010
0100
1000
,  // measure 66
2002
0000
0000
3003
;
