#TITLE:I Dream (Nightcore Remix);
#SUBTITLE:;
#ARTIST:Waldo's People feat. Charlie King;
#MUSIC:I Dream (Nightcore Remix).ogg;
#BANNER:I Dream (Nightcore Remix).png;
#BACKGROUND:I Dream (Nightcore Remix)-bg.png;
#LYRICSPATH:;
#CDTITLE:;
#SAMPLESTART:54.989;
#SAMPLELENGTH:11.289000000000009;
#OFFSET:-0.644;
#BPMS:0.000000=175.700000,
96.000000=175.450000,
120.000000=174.100000,
124.000000=173.900000,
128.000000=175.400000
;
#STOPS:;
#TIMESIGNATURES:;
#BGCHANGES:;
#FGCHANGES:;
#ATTACKS:;
#SPEEDS:;
#SCROLLS:;
#DISPLAYBPM:175.60-175.40;

//---------------dance-single - ---------------
#NOTES:
     dance-single:
     :
     Beginner:
     5:
     :
// measure 0
0000
0000
0000
0000
,  // measure 1
0000
0000
0000
0000
,  // measure 2
0000
0000
0000
0000
,  // measure 3
0000
0000
0000
0000
,  // measure 4
0000
1000
0000
1000
,  // measure 5
0000
0001
0000
0001
,  // measure 6
0000
1000
0000
1000
,  // measure 7
2002
0000
0000
3003
,  // measure 8
1000
0000
0001
0000
,  // measure 9
1000
0000
0001
0000
,  // measure 10
0010
0000
0100
0000
,  // measure 11
0010
0000
0100
0000
,  // measure 12
1000
0000
0100
0000
,  // measure 13
1000
0000
0100
0000
,  // measure 14
0010
0000
0001
0000
,  // measure 15
0010
0000
0001
0000
,  // measure 16
1000
1000
1000
0000
,  // measure 17
1000
1000
1000
0000
,  // measure 18
0001
0001
0001
0000
,  // measure 19
0001
0001
0001
0000
,  // measure 20
0010
0010
0010
0000
,  // measure 21
0010
0010
0010
0000
,  // measure 22
0100
0100
0100
0000
,  // measure 23
0100
0100
0100
0000
,  // measure 24
1000
0000
0001
0000
,  // measure 25
1000
0000
0001
0000
,  // measure 26
0010
0000
0100
0000
,  // measure 27
0010
0000
0100
0000
,  // measure 28
1000
0000
0001
0000
,  // measure 29
0010
0000
0001
0000
,  // measure 30
1000
0000
0001
0000
,  // measure 31
0100
0000
0001
0000
,  // measure 32
0200
0000
0000
0000
,  // measure 33
0000
0000
0000
0300
,  // measure 34
0002
0000
0000
0000
,  // measure 35
0000
0000
0000
0003
,  // measure 36
0020
0000
0000
0000
,  // measure 37
0000
0000
0000
0030
,  // measure 38
0200
0000
0300
0000
,  // measure 39
2002
0000
0000
3003
,  // measure 40
1000
0000
0001
0000
,  // measure 41
0100
0000
0010
0000
,  // measure 42
1000
0000
0010
0000
,  // measure 43
0100
0000
0001
0000
,  // measure 44
0010
0000
0100
0000
,  // measure 45
1000
0000
0001
0000
,  // measure 46
1000
0000
0010
0000
,  // measure 47
0001
0000
0010
0000
,  // measure 48
1000
0000
0001
0001
,  // measure 49
0001
0000
0000
0000
,  // measure 50
0010
0000
0010
0000
,  // measure 51
0001
0001
0001
0000
,  // measure 52
1000
0000
1000
0000
,  // measure 53
0010
0000
0000
0000
,  // measure 54
0100
0000
0100
0000
,  // measure 55
0001
0001
0001
0001
,  // measure 56
1000
0000
0010
0000
,  // measure 57
0100
0000
0001
0000
,  // measure 58
0010
0000
0010
0000
,  // measure 59
0001
0001
0001
0000
,  // measure 60
1000
0000
0001
0000
,  // measure 61
0100
0000
0010
0000
,  // measure 62
1000
0000
1000
0000
,  // measure 63
0001
0001
0001
0000
,  // measure 64
0002
0000
0000
0003
,  // measure 65
1001
0000
0000
0000
;

//---------------dance-single - ---------------
#NOTES:
     dance-single:
     :
     Easy:
     10:
     :
// measure 0
0000
0000
0000
0000
,  // measure 1
0000
0000
0000
0000
,  // measure 2
0000
0000
0000
0000
,  // measure 3
0000
0000
0000
0000
,  // measure 4
0000
1000
0000
1000
,  // measure 5
0000
0001
0000
0001
,  // measure 6
0000
0010
0000
0010
,  // measure 7
0220
0000
0000
0330
,  // measure 8
1000
0100
0010
0100
,  // measure 9
1000
0100
0001
0100
,  // measure 10
1000
0010
0001
0010
,  // measure 11
1000
0100
0001
0100
,  // measure 12
0010
0100
0010
0001
,  // measure 13
0100
0010
0100
1000
,  // measure 14
0100
0001
0010
0100
,  // measure 15
1000
0010
0001
0010
,  // measure 16
1000
1000
1000
0100
,  // measure 17
0001
0001
0001
0100
,  // measure 18
1000
0100
0001
0100
,  // measure 19
1000
0001
0100
1000
,  // measure 20
0100
0100
0100
0001
,  // measure 21
0010
0010
0010
0001
,  // measure 22
1000
0010
0001
0100
,  // measure 23
1000
0100
0001
0010
,  // measure 24
1000
1000
1000
1000
,  // measure 25
0010
0010
0010
0010
,  // measure 26
1000
1000
1000
1000
,  // measure 27
0001
0001
0001
0001
,  // measure 28
1000
0100
1000
0100
,  // measure 29
0001
0100
0001
0100
,  // measure 30
1000
0010
1000
0010
,  // measure 31
0001
0010
0001
0010
,  // measure 32
2000
0000
0000
3000
,  // measure 33
0002
0000
0000
0003
,  // measure 34
0200
0000
0000
0300
,  // measure 35
0020
0000
0000
0030
,  // measure 36
2000
0100
0000
3100
,  // measure 37
0002
0100
0000
0103
,  // measure 38
0020
0100
0000
0130
,  // measure 39
2002
0000
0000
3003
,  // measure 40
1010
0110
1010
0110
,  // measure 41
0101
0110
0101
0110
,  // measure 42
0010
1000
0001
0100
,  // measure 43
0010
0100
0001
1000
,  // measure 44
1010
0110
1010
0110
,  // measure 45
0101
0110
0101
0110
,  // measure 46
0001
0010
0100
1000
,  // measure 47
0001
1000
0010
0100
,  // measure 48
0001
1000
0010
0010
,  // measure 49
0110
0100
0001
0010
,  // measure 50
0110
0001
0110
1000
,  // measure 51
1000
0001
1000
0010
,  // measure 52
1000
0100
0001
0100
,  // measure 53
1000
0001
0100
0001
,  // measure 54
0110
1000
0110
0001
,  // measure 55
0001
0100
1000
0010
,  // measure 56
0001
0010
1000
0010
,  // measure 57
0100
0001
1000
0010
,  // measure 58
0110
0001
0110
1000
,  // measure 59
1000
0100
0001
0100
,  // measure 60
1000
0010
0100
1000
,  // measure 61
0100
0010
1000
0100
,  // measure 62
0110
0001
0110
1000
,  // measure 63
0100
0010
0100
0001
,  // measure 64
0020
0100
1000
0031
,  // measure 65
0022
0000
0000
0033
;

//---------------dance-single - ---------------
#NOTES:
     dance-single:
     :
     Medium:
     13:
     :
// measure 0
0000
0000
0000
0000
,  // measure 1
0000
0000
0000
0000
,  // measure 2
0000
0000
0000
0000
,  // measure 3
0000
0000
0000
0000
,  // measure 4
0200
0010
0000
0310
,  // measure 5
0020
0100
0000
0130
,  // measure 6
2000
3100
0002
0103
,  // measure 7
2002
0000
3003
0010
,  // measure 8
0110
0000
1100
0000
0110
0000
1100
0001
,  // measure 9
0100
0101
1100
0101
,  // measure 10
0001
0100
1000
0000
1000
0100
0001
0000
,  // measure 11
0001
0010
0100
0000
1000
0010
0100
0000
,  // measure 12
0101
0000
0110
0000
0101
0000
0110
1000
,  // measure 13
0100
0101
1100
0101
,  // measure 14
1000
0100
0010
0000
0010
0001
0100
0000
,  // measure 15
1000
0100
0001
0000
0010
0100
1000
0000
,  // measure 16
0001
0100
0001
0100
,  // measure 17
1000
0100
1000
0100
,  // measure 18
0001
0010
1000
0010
,  // measure 19
0001
0100
0001
0100
0001
0000
0101
0000
,  // measure 20
1000
0100
0001
0100
,  // measure 21
1000
0010
0001
0010
,  // measure 22
1000
1000
0001
0001
,  // measure 23
1000
0001
1000
0001
1000
0001
1000
0001
,  // measure 24
1000
0000
1000
0000
1000
0100
1000
0000
,  // measure 25
0001
0000
0001
0000
0001
0100
0001
0000
,  // measure 26
0100
0000
0100
0000
0100
0010
0100
0000
,  // measure 27
0010
0000
0010
0000
0010
0100
0010
0000
,  // measure 28
1000
0000
0100
0000
0001
0100
1000
0000
,  // measure 29
1000
0000
0010
0000
0001
0010
1000
0000
,  // measure 30
1000
0000
0100
0000
0010
0001
0100
0000
,  // measure 31
1000
0100
0001
0100
0010
1000
0100
0010
,  // measure 32
0002
0000
0000
0003
,  // measure 33
0020
0000
0000
0030
,  // measure 34
0200
0000
0000
0300
,  // measure 35
2000
0000
0000
3000
,  // measure 36
0002
0013
0020
0130
,  // measure 37
0200
1300
2000
3001
,  // measure 38
0002
0103
0200
0310
,  // measure 39
0220
0000
0330
0010
,  // measure 40
0110
0000
1001
0000
0101
0000
1100
0001
,  // measure 41
0100
0110
1100
0110
,  // measure 42
0010
1000
0100
0000
0010
0001
0100
0000
,  // measure 43
1000
0100
0001
0100
0010
1000
0001
0100
,  // measure 44
0110
0000
1100
0000
0110
0000
0101
1000
,  // measure 45
0010
1010
0011
1010
,  // measure 46
0010
1000
0100
0000
0100
0001
0100
0000
,  // measure 47
0100
1000
0010
0100
0001
0010
0100
1000
,  // measure 48
0010
0000
0010
0000
0010
0100
0010
1000
,  // measure 49
1010
0010
0110
0100
,  // measure 50
0110
0000
0100
0010
1000
0000
1010
0000
,  // measure 51
0010
0000
0100
0000
0010
1000
0000
0100
,  // measure 52
0010
0000
0010
0000
0010
0001
0100
0010
,  // measure 53
1000
0000
0100
0000
0010
0001
0100
0010
,  // measure 54
1010
0000
1000
0010
0100
0000
0011
0000
,  // measure 55
1000
0010
0100
0001
0010
0001
0100
0010
,  // measure 56
1010
0000
1100
0000
1001
0000
0101
0010
,  // measure 57
1000
0000
1100
0000
0101
0100
1100
0100
,  // measure 58
0110
0000
0001
0010
1000
0000
0011
0000
,  // measure 59
1000
0100
0010
0001
1000
0010
0100
0001
,  // measure 60
0011
0000
0101
0000
0011
0000
0101
0010
,  // measure 61
0100
0000
0101
0000
1000
0100
0110
0010
,  // measure 62
0011
0000
0001
0010
0100
0000
0011
0000
,  // measure 63
0001
0100
1000
0100
0001
0010
0100
1000
,  // measure 64
0002
0000
0100
0000
0010
0000
0103
0001
,  // measure 65
2002
0000
0000
3003
;

//---------------dance-single - ---------------
#NOTES:
     dance-single:
     :
     Hard:
     16:
     0,0,0,0,0:
// measure 0
0000
0000
0000
0000
,  // measure 1
0000
0000
0000
0000
,  // measure 2
0000
0000
0000
0000
,  // measure 3
0000
0000
0000
0000
0000
0001
0100
0020
,  // measure 4
2030
0001
0000
3001
,  // measure 5
0002
0010
0000
0013
,  // measure 6
0010
0001
0100
0010
1000
0001
0100
0010
,  // measure 7
0220
0000
0000
0000
0330
0000
0020
0030
,  // measure 8
1010
1000
1001
0001
0011
0010
0110
0100
,  // measure 9
1100
1000
1010
0010
0110
0100
0101
0001
,  // measure 10
0010
0100
1000
0010
0100
0001
1000
0100
,  // measure 11
1000
0010
0100
0001
0010
0100
1000
0001
,  // measure 12
1001
0001
0011
0010
0110
0100
1100
1000
,  // measure 13
1010
0010
0110
0100
0101
0001
0011
0010
,  // measure 14
0100
1000
0001
0100
0001
1000
0100
0010
,  // measure 15
0001
1000
0010
1000
0001
0010
0100
1000
,  // measure 16
0001
0001
0001
0000
1000
1000
1000
0000
,  // measure 17
0010
0010
0010
0000
0100
0100
0100
0000
,  // measure 18
0001
0001
0001
0000
0010
0010
0010
0000
,  // measure 19
0100
1000
0100
1000
0100
1000
0100
1000
0100
1000
0100
1000
0100
1000
0100
1000
,  // measure 20
0001
0001
0001
0000
0100
0100
0100
0000
,  // measure 21
0010
0010
0010
0000
1000
1000
1000
0000
,  // measure 22
0001
0001
0001
0000
0010
0010
0010
0000
,  // measure 23
0100
0010
0100
0010
0100
0010
0100
0010
0100
0010
0100
0010
0100
0010
0100
0010
,  // measure 24
0100
0000
1000
0000
0100
1000
0000
0100
0010
0000
0010
0100
0000
0100
1000
0000
,  // measure 25
0100
0000
1000
0000
0001
0100
0000
0100
0010
0000
0010
1000
0000
1000
0001
0000
,  // measure 26
0010
0000
0100
0000
1000
0100
0000
0100
0010
0000
0010
0001
0000
0001
1000
0000
,  // measure 27
1000
0000
0010
0000
0100
0001
0000
0001
0010
0000
0010
0100
0000
0100
1000
0000
,  // measure 28
1000
0000
0001
0000
0100
0010
0000
0010
1000
0000
1000
0100
0000
0100
0001
0000
,  // measure 29
0100
0000
1000
0000
0001
0100
0000
0100
0010
0000
0010
1000
0000
1000
0001
0000
,  // measure 30
1001
0000
0001
0000
0010
0100
0000
0100
1000
0000
1000
0001
0000
0001
0100
0000
,  // measure 31
1001
0000
1001
0000
1001
0000
1000
0100
0010
0100
1000
0001
0100
0010
1000
0001
,  // measure 32
0020
0000
0000
0100
0000
0000
0130
0000
0002
0000
0000
0100
0000
0000
0103
0000
,  // measure 33
2000
0000
0000
0100
0000
0000
3100
0000
0002
0000
0000
0010
0000
0000
0013
0000
,  // measure 34
0200
0000
0000
0010
0000
0000
0310
0000
0002
0000
0000
1000
0000
0000
1003
0000
,  // measure 35
2000
0000
0000
0010
0000
0000
3010
0000
0200
0000
0000
0010
0000
0000
0310
0000
,  // measure 36
0020
0000
0000
1000
0000
0000
1030
0000
2000
0000
0000
0100
0000
0000
3100
0000
,  // measure 37
0002
0000
0000
0100
0000
0000
0103
0000
2000
0000
0000
0010
0000
0000
3010
0000
,  // measure 38
1000
0010
0100
0000
0001
0100
0010
0000
0010
1000
0001
0100
0010
1000
0100
0000
,  // measure 39
2200
0000
3300
0000
0022
0033
0010
0000
,  // measure 40
0110
0100
1100
1000
1001
0001
0101
0100
,  // measure 41
0110
0010
1010
1000
1100
0100
0110
0010
,  // measure 42
0001
0100
0010
1000
0100
0010
0001
1000
,  // measure 43
0100
1000
0010
0100
0001
0010
0100
0010
,  // measure 44
0011
0010
0110
0100
1100
1000
1001
0001
,  // measure 45
0101
0100
0110
0010
1010
1000
1001
0001
,  // measure 46
0010
0100
1000
0010
0100
0001
1000
0001
,  // measure 47
0100
0001
0010
0100
1000
0010
0100
0001
,  // measure 48
2000
3000
2000
3000
1000
0010
0110
0010
,  // measure 49
1010
0101
1010
0101
,  // measure 50
1001
0000
1000
0001
0010
0000
0011
0000
,  // measure 51
0010
0100
1000
0001
0100
0020
0030
1000
,  // measure 52
0020
0000
1000
0000
0001
0000
0130
0010
,  // measure 53
1000
0000
1001
0000
0001
0100
0110
0010
,  // measure 54
1010
0000
0010
0100
0001
0000
0101
0000
,  // measure 55
0001
0000
1000
0000
0100
0000
0010
0000
0001
0010
0001
0010
0001
0010
0001
0010
,  // measure 56
0011
0010
0110
0100
1100
1000
1001
0001
,  // measure 57
0101
0100
0110
0010
1010
0010
0110
0100
,  // measure 58
0101
0000
0001
0010
0100
0000
1100
0000
,  // measure 59
1000
0000
0001
0000
0010
0000
0100
0000
1000
0001
1000
0001
0010
0000
0000
0000
,  // measure 60
1001
0001
0011
0010
0110
0010
0011
0001
,  // measure 61
1001
0000
1000
0000
1010
0000
0010
0000
0110
0000
0100
0001
0010
0000
0001
0000
,  // measure 62
1000
0001
1000
0000
0001
1000
0001
0000
0010
0100
0010
0000
0100
0010
0100
0000
,  // measure 63
0100
1000
0001
0100
0010
0100
0001
0010
0100
0010
1000
0010
0100
1000
0001
0100
,  // measure 64
0010
0000
0010
0000
1000
0000
1000
0000
0001
0010
0001
0010
0100
0010
0100
0010
,  // measure 65
0022
0000
0000
0033
;
