#TITLE:Hipnotizadas;
#SUBTITLE:;
#ARTIST:Lunae;
#MUSIC:Hipnotizadas.mp3;
#BANNER:Hipnotizadas.png;
#BACKGROUND:Hipnotizadas-bg.png;
#LYRICSPATH:;
#CDTITLE:;
#SAMPLESTART:60.103;
#SAMPLELENGTH:15.479;
#OFFSET:-0.13;
#BPMS:0.000000=130.000000;
#STOPS:;
#TIMESIGNATURES:;
#BGCHANGES:;
#FGCHANGES:;
#ATTACKS:;
#SPEEDS:;
#SCROLLS:;
#KEYSOUNDS:;

//---------------dance-single - ---------------
#NOTES:
     dance-single:
     :
     Beginner:
     5:
     0,0,0,0,0:
// measure 0
0000
0000
0000
0000
,  // measure 1
1000
0000
1000
0000
,  // measure 2
0010
0000
0010
0000
,  // measure 3
0100
0000
0100
0000
,  // measure 4
0001
0000
1000
0000
,  // measure 5
0001
0000
0001
0000
,  // measure 6
0010
0000
0010
0000
,  // measure 7
0100
0000
0100
0000
,  // measure 8
1000
0000
0001
0000
,  // measure 9
0001
0000
1000
0000
,  // measure 10
0001
0000
1000
0000
,  // measure 11
1000
0000
0001
0000
,  // measure 12
1000
0000
0001
0000
,  // measure 13
1000
1000
1000
0000
,  // measure 14
0001
0001
0001
0000
,  // measure 15
0010
0010
0010
0000
,  // measure 16
0001
0001
0001
0000
,  // measure 17
2000
3000
1000
0000
,  // measure 18
0002
0003
0001
0000
,  // measure 19
2000
3000
1000
0000
,  // measure 20
0020
0030
0010
0000
,  // measure 21
2000
3000
1000
0000
,  // measure 22
0002
0003
0001
0000
,  // measure 23
0200
0300
0100
0000
,  // measure 24
0020
0030
0010
0000
,  // measure 25
1000
1000
1000
0000
,  // measure 26
0001
0001
0001
0000
,  // measure 27
1000
0000
0001
0000
,  // measure 28
2002
0000
3003
0000
,  // measure 29
0001
0001
0001
0000
,  // measure 30
1000
1000
1000
0000
,  // measure 31
0001
0000
1000
0000
,  // measure 32
0110
0110
0110
0000
,  // measure 33
0100
0100
0100
0000
,  // measure 34
0010
0010
0010
0000
,  // measure 35
1000
1000
1000
0000
,  // measure 36
0001
0001
0001
0000
,  // measure 37
0100
0100
0100
0000
,  // measure 38
0010
0010
0010
0000
,  // measure 39
0001
0001
0001
0000
,  // measure 40
1000
1000
1000
0000
,  // measure 41
0100
0100
0100
0000
,  // measure 42
0010
0010
0010
0000
,  // measure 43
1000
1000
1000
0000
,  // measure 44
0001
0001
0001
0000
,  // measure 45
0100
0100
0100
0000
,  // measure 46
0010
0010
0010
0000
,  // measure 47
1000
1000
1000
0000
,  // measure 48
0001
0001
0001
0000
,  // measure 49
1000
1000
1000
0000
,  // measure 50
0001
0001
0001
0000
,  // measure 51
0001
0001
0001
0000
,  // measure 52
1000
1000
1000
0000
,  // measure 53
0010
0010
0010
0000
,  // measure 54
0100
0100
0100
0000
,  // measure 55
0001
0001
0001
0000
,  // measure 56
0100
0100
0100
0000
,  // measure 57
1001
0000
0000
0000
;

//---------------dance-single - ---------------
#NOTES:
     dance-single:
     :
     Easy:
     9:
     0,0,0,0,0:
// measure 0
0000
0000
0000
0000
,  // measure 1
0100
0100
0001
0001
,  // measure 2
0020
0000
0032
0000
,  // measure 3
1003
0010
0100
0001
,  // measure 4
2000
3100
0002
0103
,  // measure 5
0100
0100
0001
0010
,  // measure 6
0020
0000
0230
0000
,  // measure 7
1300
0001
0100
0010
,  // measure 8
2000
3100
0002
0103
,  // measure 9
1001
1000
0001
0100
,  // measure 10
0110
0100
0001
0010
,  // measure 11
0011
0010
0100
1000
,  // measure 12
1100
0100
0010
0001
,  // measure 13
1000
1001
0001
0101
,  // measure 14
1000
1010
0001
0011
,  // measure 15
0100
0110
0001
0011
,  // measure 16
1000
1100
0001
0011
,  // measure 17
2000
0100
0100
3100
,  // measure 18
0002
0100
0100
0103
,  // measure 19
0020
0100
0100
0130
,  // measure 20
0002
1000
1000
1003
,  // measure 21
2000
0010
0010
3010
,  // measure 22
0200
0010
0010
0310
,  // measure 23
2000
0001
0001
3001
,  // measure 24
0020
0100
0100
0130
,  // measure 25
0110
1000
1001
0100
,  // measure 26
0110
0001
1001
0100
,  // measure 27
0001
0010
1000
0010
,  // measure 28
0002
2003
3100
0010
,  // measure 29
0011
0100
1010
0100
,  // measure 30
1100
0100
0101
0010
,  // measure 31
0100
1000
0010
0100
,  // measure 32
0101
1010
1001
0000
,  // measure 33
0100
0100
0001
0010
,  // measure 34
0020
0001
0100
1030
,  // measure 35
0100
1000
0010
0100
,  // measure 36
0101
1010
1100
0011
,  // measure 37
0100
0100
0001
1000
,  // measure 38
0020
1000
0100
0031
,  // measure 39
0100
0001
1000
0010
,  // measure 40
1010
0101
0011
1100
,  // measure 41
0100
0100
1000
0001
,  // measure 42
0200
1000
0010
0301
,  // measure 43
0001
1000
0100
0010
,  // measure 44
0110
1001
1001
0110
,  // measure 45
0100
0100
0001
1000
,  // measure 46
0020
1000
0100
0031
,  // measure 47
0100
0001
0010
0100
,  // measure 48
1100
0011
0101
1010
,  // measure 49
1001
1000
1001
0001
,  // measure 50
0101
0100
0110
0010
,  // measure 51
1010
1000
1010
0010
,  // measure 52
1010
1000
1001
0001
,  // measure 53
1000
1010
0001
0011
,  // measure 54
1000
1100
0001
0101
,  // measure 55
1000
1010
0001
0011
,  // measure 56
1000
1100
0001
0101
,  // measure 57
1001
0000
0000
0000
;

//---------------dance-single - ---------------
#NOTES:
     dance-single:
     :
     Medium:
     13:
     0,0,0,0,0:
// measure 0
0000
0000
0000
0000
,  // measure 1
1000
0000
1000
0000
1000
0010
1000
0000
,  // measure 2
0001
0000
0100
0000
0010
1000
0100
0000
,  // measure 3
1000
1001
0001
1001
,  // measure 4
1000
0000
1010
0000
0001
0100
0101
0000
,  // measure 5
1000
0000
1000
0000
0010
1000
0100
0000
,  // measure 6
0010
0000
0010
0000
0010
0001
0100
0000
,  // measure 7
0001
0101
0100
0101
,  // measure 8
0001
0000
1001
0000
1000
0001
1001
0000
,  // measure 9
0110
0010
1000
0001
,  // measure 10
0101
1010
1100
0011
,  // measure 11
1001
0001
0100
0010
,  // measure 12
0110
1001
0110
1001
,  // measure 13
0001
0000
0000
0001
0000
0000
0001
0000
1000
0000
0000
1000
0000
0000
1000
0000
,  // measure 14
0010
0000
0000
0010
0000
0000
0010
0000
1000
0000
1000
0000
0001
0000
0001
0000
,  // measure 15
0100
0000
0000
0100
0000
0000
0100
0000
0010
0000
0000
0010
0000
0000
0010
0000
,  // measure 16
1000
0000
0000
1000
0000
0000
1000
0000
0001
0000
0001
0000
0010
0000
0010
0000
,  // measure 17
0002
0103
0020
1030
,  // measure 18
0200
0310
2000
3010
,  // measure 19
0200
1300
0002
0103
,  // measure 20
0010
1010
1000
1001
,  // measure 21
2000
3010
0200
0301
,  // measure 22
0020
0130
0002
1003
,  // measure 23
0200
0310
0002
1003
,  // measure 24
0010
0000
0110
0000
0001
0000
1001
1000
,  // measure 25
0001
0000
0011
0001
0010
0000
1100
0100
,  // measure 26
1000
0000
1001
1000
0001
0000
1001
1000
,  // measure 27
0010
0000
0000
1000
0000
0000
0100
0000
0001
0000
0000
0010
0000
0000
2000
0000
,  // measure 28
0000
0002
0000
0000
3003
0000
1001
1000
,  // measure 29
0010
0000
0110
0100
0001
0000
0101
0001
,  // measure 30
0010
0000
0110
0100
1000
0000
1001
1000
,  // measure 31
0010
0000
0000
0100
0000
0000
0001
0000
0010
0000
0000
0100
0000
0000
1000
0000
,  // measure 32
1001
0000
0000
1100
0000
0000
1001
0000
1001
0000
0000
0000
0000
0000
0000
0000
,  // measure 33
1000
0000
0001
0000
1000
0001
0100
0000
,  // measure 34
0010
0000
1000
0000
0001
0010
0100
0000
,  // measure 35
1000
1001
0001
1001
,  // measure 36
1000
0000
1010
0000
0001
0100
0101
0000
,  // measure 37
0001
0000
1000
0000
0010
0100
0001
0000
,  // measure 38
1000
0000
0100
0000
0010
0001
0100
0000
,  // measure 39
0100
0110
0010
1010
,  // measure 40
1000
0000
1001
0000
0001
0100
0101
0000
,  // measure 41
0001
0000
1000
0000
0010
1000
0001
0000
,  // measure 42
0100
0000
0010
0000
1000
0010
0100
0000
,  // measure 43
0001
0011
0100
0110
,  // measure 44
0001
0000
1001
0000
1000
0010
0110
0000
,  // measure 45
0010
0000
1000
0000
0001
0100
0010
0000
,  // measure 46
1000
0000
0100
0000
0001
0100
1000
0000
,  // measure 47
0010
0011
1000
1010
,  // measure 48
0001
0000
0101
0000
1000
0001
0101
0000
,  // measure 49
1001
1100
1001
0101
,  // measure 50
0001
1000
0010
0000
1000
0001
0010
0000
,  // measure 51
0011
1100
1010
0101
,  // measure 52
0001
0010
0100
0000
1000
0010
0100
0000
,  // measure 53
0001
0000
0000
0001
0000
0000
0001
0000
1000
0000
0000
1000
0000
0000
1000
0000
,  // measure 54
0010
0000
0000
0010
0000
0000
0010
0000
0100
0000
0100
0000
0010
0000
0010
0000
,  // measure 55
1000
0000
0000
1000
0000
0000
1000
0000
0001
0000
0000
0001
0000
0000
0001
0000
,  // measure 56
0010
0000
0000
0010
0000
0000
0010
0000
0001
0000
0001
0000
1000
0000
1000
0000
,  // measure 57
1001
0000
0000
0000
;

//---------------dance-single - ---------------
#NOTES:
     dance-single:
     :
     Hard:
     17:
     0,0,0,0,0:
// measure 0
0000
0000
0000
0000
,  // measure 1
0100
0000
0001
0100
0001
0000
0100
0000
0010
0000
0100
0010
0100
0000
0010
0000
,  // measure 2
1000
0000
0010
1000
0010
0000
1000
0000
0001
0000
0100
0001
0100
0000
0001
0000
,  // measure 3
0010
0100
0100
0010
0001
1000
1000
0001
,  // measure 4
1000
0000
0010
1000
0010
0000
1000
0000
0100
0000
0010
0100
0010
0000
0100
0000
,  // measure 5
1000
0000
0001
1000
0001
0000
1000
0000
0010
0000
0100
0010
0100
0000
0010
0000
,  // measure 6
1000
0000
0001
1000
0001
0000
1000
0000
0100
0000
0010
0100
0010
0000
0100
0000
,  // measure 7
0010
0001
0001
0010
0001
0100
0100
0001
,  // measure 8
1000
0000
0010
1000
0010
0000
1000
0000
0100
0000
0010
0100
0010
0000
0001
0000
,  // measure 9
1001
1000
0010
0100
0001
0000
0011
0000
,  // measure 10
0011
0000
0001
0100
0010
0000
0110
0000
,  // measure 11
0110
0010
1000
0001
0100
0000
0110
0000
,  // measure 12
1001
0000
0000
0000
0001
0000
1000
0000
0020
0000
0000
0000
0200
0330
0000
0000
,  // measure 13
1000
0000
0001
1000
0000
0001
1000
0000
0100
0000
0010
0100
0000
0010
0100
0000
,  // measure 14
1000
0000
0010
1000
0000
0010
1000
0000
0001
1000
0002
0003
1000
0001
2000
3000
,  // measure 15
0001
0000
0010
0001
0000
0010
0001
0000
0100
0000
0010
0100
0000
0010
0100
0000
,  // measure 16
0001
0000
1000
0001
0000
1000
0001
0000
0010
0001
0020
0030
0001
0010
0002
0003
,  // measure 17
1000
0000
0000
1000
0000
0000
2000
0000
3010
0000
0000
0010
0000
0000
0010
0000
,  // measure 18
0100
0000
0000
0100
0000
0000
0200
0000
0301
0000
0000
0001
0000
0000
0001
0000
,  // measure 19
0010
0000
0000
0010
0000
0000
0020
0000
0031
0000
0000
0001
0000
0000
0001
0000
,  // measure 20
1000
0000
0000
1000
0000
0000
2000
0000
3010
0000
0000
0010
0000
0000
0010
0000
,  // measure 21
0100
0000
0000
0100
0000
0000
0200
0000
0301
0000
0000
0001
0000
0000
0001
0000
,  // measure 22
0010
0000
0000
0010
0000
0000
0020
0000
0130
0000
0000
0100
0000
0000
0100
0000
,  // measure 23
1000
0000
0000
1000
0000
0000
2000
0000
3010
0000
0000
0010
0000
0000
0010
0000
,  // measure 24
0100
0000
0000
0100
0000
0000
0200
0000
0301
0000
0000
0001
1000
0000
0002
0000
,  // measure 25
1003
0000
1000
0020
1030
0000
1000
0200
,  // measure 26
0310
0000
0010
0002
1003
0000
1000
0001
,  // measure 27
0010
0000
0010
0001
0000
0001
1000
0000
0100
0000
0100
1000
0000
1000
0002
0000
,  // measure 28
0000
0000
0020
0000
0003
0000
0000
0000
0130
0000
0000
0100
1000
0000
0002
0000
,  // measure 29
0013
0000
0001
2000
3010
0000
0100
0002
,  // measure 30
0013
0000
0100
2000
3010
0000
0100
0001
,  // measure 31
0011
0000
0010
0001
0000
0001
0100
0000
0101
0000
0100
0010
0000
0010
1000
0000
,  // measure 32
1010
0000
0100
0001
0000
0001
0010
0000
0110
0000
0010
0000
0001
0000
1000
0000
,  // measure 33
1001
0000
1000
0100
0010
0000
0001
0000
0100
0000
0010
0100
0001
0000
1000
0000
,  // measure 34
0010
0000
0100
0001
0010
0000
0100
0000
0001
0000
0100
1000
0010
0000
0100
0000
,  // measure 35
0001
0000
0001
1000
0010
0000
0010
0000
0100
0000
0100
0000
0001
0000
1000
0000
,  // measure 36
1001
0000
0001
0100
0010
0000
1000
0000
2020
3030
0000
0000
0202
0303
0000
0000
,  // measure 37
1001
0000
1000
0001
0010
0000
0100
0000
0010
0000
0001
0100
0010
0000
1000
0000
,  // measure 38
0001
0000
0010
0001
0010
0000
0001
0000
0100
0000
0010
0100
0010
0000
1000
0000
,  // measure 39
0001
0000
1000
0100
0010
0000
0100
0000
1000
0000
0001
0000
0100
0000
0010
0000
,  // measure 40
1000
0000
0001
0100
0010
0000
1000
0000
2020
3030
0000
0000
0202
0303
0000
0000
,  // measure 41
0011
0000
0010
0001
0100
0000
0010
0000
1000
0000
0010
0100
0001
0000
1000
0000
,  // measure 42
0100
0000
0010
0001
1000
0000
0010
0000
0100
0000
0001
1000
0010
0000
0001
0000
,  // measure 43
0010
0000
1000
1000
0001
0000
1000
0000
0010
0000
1000
0000
0100
0000
0010
0000
,  // measure 44
0110
0000
0001
1000
0010
0000
1000
0000
2200
3300
0000
0000
0022
0033
0000
0000
,  // measure 45
1001
0000
1000
0001
0010
0000
0100
0000
0010
0000
0001
0100
0010
0000
1000
0000
,  // measure 46
0100
0000
0010
0100
1000
0000
0001
0000
0100
0000
0010
0100
1000
0000
0100
0000
,  // measure 47
0001
0000
0010
0100
0001
0000
0100
0000
1000
0000
0010
0000
0100
0000
0001
0000
,  // measure 48
0101
0000
0001
0100
0010
0000
0100
0000
0220
0330
0000
0000
2002
3003
0000
0000
,  // measure 49
1001
0000
1000
0001
0010
0001
1000
0000
1100
0000
1000
0001
0100
0001
1000
0000
,  // measure 50
0011
0000
0010
0001
0100
0001
0010
0000
0001
1000
0001
0000
1000
0001
1000
0000
,  // measure 51
1010
0000
0010
1000
0100
1000
0010
0000
0101
0000
0001
0100
0010
0100
0001
0000
,  // measure 52
0011
0000
0010
0100
1000
0100
0010
0000
0001
0100
0010
0000
1000
0100
0010
0000
,  // measure 53
0110
0000
0010
0100
0000
0100
1000
0000
1001
0000
1000
0001
0000
0001
0010
0000
,  // measure 54
0011
0000
0010
0001
0000
0001
0100
0000
0001
0100
0001
0000
0100
0001
0100
0000
,  // measure 55
0110
0000
0010
0100
0000
0100
1000
0000
1100
0000
1000
0100
0000
0100
0001
0000
,  // measure 56
0101
0000
0100
0001
0000
0001
0010
0100
1000
0000
1000
0010
0000
0010
0100
0000
,  // measure 57
0110
0000
0000
0000
;
